osu file format v9

[General]
AudioFilename: songsongsong.mp3
AudioLeadIn: 0
PreviewTime: 14085
Countdown: 0
SampleSet: Soft
StackLeniency: 0.4
Mode: 0
LetterboxInBreaks: 1

[Editor]
Bookmarks: 14081,38758,84599
DistanceSpacing: 1.1
BeatDivisor: 4
GridSize: 8

[Metadata]
Title:Chouetsu Koi Shite Naishomea!!
Artist:ave;new project feat. Sakura Saori & Inoue Miyu
Creator:Natteke
Version:Hentai
Source:Ore no Tsure wa Hitodenashi
Tags:h3k1ru aenna lepidopodus

[Difficulty]
HPDrainRate:7
CircleSize:4
OverallDifficulty:7
ApproachRate:9
SliderMultiplier:1.7
SliderTickRate:0.5

[Events]
//Background and Video events
0,0,"bg.jpg"
Video,-64,"video chouetsu.avi"
//Break Periods
//Storyboard Layer 0 (Background)
//Storyboard Layer 1 (Fail)
//Storyboard Layer 2 (Pass)
//Storyboard Layer 3 (Foreground)
//Storyboard Sound Samples
//Background Colour Transformations
3,100,163,162,255

[TimingPoints]
2870,280.373831775701,4,1,0,50,1,0
24389,-100,4,2,0,50,0,0
24669,-100,4,1,0,50,0,0
26632,-100,4,2,0,50,0,0
26912,-100,4,1,0,50,0,0
29646,-133.333333333333,4,2,0,60,0,0
44576,-133.333333333333,4,2,0,40,0,0
44716,-133.333333333333,4,2,0,60,0,0
44856,-133.333333333333,4,2,0,40,0,0
44996,-133.333333333333,4,2,0,60,0,0
47659,-166.666666666667,4,2,0,60,0,0
57964,-100,4,2,0,60,0,0
58945,-100,4,1,0,50,0,1
59015,-100,4,1,0,50,0,0
67917,-100,4,1,0,50,0,1
67987,-100,4,1,0,50,0,0

[Colours]
Combo1 : 17,254,176
Combo2 : 173,255,95
Combo3 : 255,88,100
Combo4 : 255,94,55

[HitObjects]
256,192,2870,1,0
256,192,3430,1,0
32,192,3991,5,0
256,352,4271,1,0
480,192,4552,1,0
256,32,4832,1,0
256,352,5112,6,0,B|344:296|304:184,1,170,2|8
424,32,5533,2,0,B|448:216,1,170,2|2
456,288,5954,1,8
368,256,6094,6,2,B|176:256,1,170,2|0
136,192,6514,2,0,B|160:144|136:104,1,85,10|0
112,264,6795,2,0,B|88:312|112:352,1,85,2|0
192,312,7075,1,10
212,296,7145,1,0
236,288,7215,1,0
261,284,7285,1,0
286,286,7355,6,0,B|384:312|436:208,1,170,2|10
424,128,7776,2,0,B|379:38|281:64,1,170,2|2
200,104,8197,1,8
143,176,8337,6,0,B|194:211|270:196|287:128,1,170,2|2
352,200,8757,2,0,B|336:288,1,85,10|0
432,344,9038,2,0,B|448:248,1,85,2|0
284,138,9318,2,0,B|268:226,1,85,10|0
208,296,9598,6,0,B|136:368|48:312,1,170,6|10
112,176,10019,2,0,B|136:216|120:264,2,85,2|0|2
48,104,10440,1,8
136,64,10580,6,0,B|320:64,1,170,2|2
296,160,11000,1,10
376,200,11141,1,0
296,248,11281,2,0,B|256:272|208:248,1,85,2|0
368,296,11561,2,0,B|408:320|456:296,1,85,10|0
296,160,11841,6,0,B|216:96|136:160,1,170,2|10
48,216,12262,2,0,B|128:280|208:216,1,170,2|2
88,56,12683,2,0,B|64:144,1,85,10|0
156,92,12963,5,2
181,76,13033,1,0
210,70,13103,1,0
239,74,13173,1,0
264,89,13243,1,10
280,113,13313,1,0
286,142,13384,1,2
280,171,13454,1,0
278,200,13524,5,2
274,229,13594,1,0
268,258,13664,1,0
274,287,13734,1,0
290,311,13804,1,10
315,326,13874,1,0
344,330,13944,1,0
373,324,14014,1,0
394,304,14084,6,0,B|430:124,2,170,6|10|2
286,142,14926,2,0,B|312:96|280:48,1,85,10|0
64,192,15206,2,0,B|38:238|70:286,1,85,2|0
144,232,15486,1,8
144,232,15627,2,0,B|232:272|320:232,1,170,6|0
480,168,16047,2,0,B|464:264,1,85,10|0
392,192,16327,6,0,B|424:16,2,170,6|10|2
368,280,17028,1,0
272,272,17169,2,0,B|232:256|182:272,1,85,10|0
120,208,17449,2,0,B|96:288,2,85,6|0|10
208,184,17869,2,0,B|272:112|232:8,1,170,2|0
328,32,18290,1,10
328,32,18430,1,2
408,80,18570,6,0,B|384:168,1,85,6|0
448,280,18851,2,0,B|472:192,1,85,10|0
304,128,19131,2,0,B|280:216,1,85,2|0
344,328,19412,2,0,B|368:240,1,85,10|0
264,288,19692,5,6
48,288,19832,1,0
208,216,19972,1,8
112,216,20112,2,0,B|64:136|120:48,1,170,2|2
208,216,20533,2,0,B|176:304,1,85,10|0
176,128,20813,6,0,B|376:120,1,170,6|10
320,208,21234,1,0
416,192,21374,1,2
312,288,21514,1,0
456,264,21655,1,8
392,336,21795,1,0
381,261,21935,5,4
256,40,22215,1,2
131,261,22496,1,6
256,40,22776,1,0
256,40,22846,1,0
256,40,22916,1,0
98,128,23056,6,0,B|74:80|106:40,1,85,2|2
208,48,23337,2,0,B|234:80|210:128,1,85,10|0
308,128,23617,2,0,B|284:80|316:40,1,85,2|2
418,48,23898,2,0,B|444:80|420:128,1,85,10|0
368,200,24178,5,0
256,352,24458,1,8
256,352,24598,1,8
144,200,24879,1,2
144,200,25019,1,2
414,256,25299,6,0,B|438:304|406:344,1,85,2|2
304,336,25580,2,0,B|277:303|301:255,1,85,10|0
204,256,25860,2,0,B|228:304|196:344,1,85,2|2
94,336,26141,2,0,B|67:303|91:255,1,85,10|0
144,184,26421,5,0
256,32,26701,1,8
256,32,26841,1,8
368,184,27122,1,2
368,184,27262,1,2
80,184,27542,5,2
168,128,27683,1,2
256,184,27823,1,8
336,128,27963,1,2
432,184,28103,5,2
352,72,28243,1,2
256,264,28384,1,8
160,72,28524,1,2
80,184,28664,1,0
80,184,28804,1,2
80,184,28944,1,2
432,184,29225,1,2
80,184,29505,1,0
160,352,29785,6,0,B|160:208,1,127.499996200204,4|2
224,184,30206,1,0
160,144,30346,1,0
224,104,30486,1,0
288,144,30627,1,2
288,224,30767,6,0,B|352:256|416:224,1,127.499996200204
464,280,31187,1,2
480,160,31327,2,0,B|421:130|357:162,1,127.499996200204,0|2
288,144,31748,1,2
224,104,31888,1,0
144,104,32028,6,0,B|64:104,1,63.749998100102
181,155,32309,2,0,B|144:104,1,63.749998100102,2|0
244,155,32589,2,0,B|181:155,1,63.749998100102
282,207,32869,2,0,B|244:155,1,63.749998100102,2|0
336,272,33150,5,0
408,296,33290,1,0
432,224,33430,1,2
360,200,33570,1,0
176,272,33851,5,2
104,296,33991,1,2
80,224,34131,1,0
152,200,34271,1,4
336,48,34552,5,2
256,48,34692,1,0
176,48,34832,1,0
304,176,35112,1,2
304,176,35253,2,0,B|344:232|304:304,1,127.499996200204
208,352,35673,1,2
208,352,35813,2,0,B|168:296|208:224,1,127.499996200204
176,96,36234,2,0,B|144:160,1,63.749998100102,2|0
22,69,36514,6,0,B|52:86|88:69,1,63.749998100102
158,69,36795,2,0,B|189:54|219:71,1,63.749998100102,2|0
294,69,37075,2,0,B|324:86|360:69,1,63.749998100102
430,69,37355,2,0,B|461:54|491:71,1,63.749998100102,2|0
256,192,37636,12,4,38757
128,96,39038,5,2
128,96,39178,1,0
128,96,39318,2,0,B|88:152|128:232,1,127.499996200204,0|2
192,248,39739,2,0,B|328:248,1,127.499996200204
392,216,40159,1,2
392,216,40299,2,0,B|425:150|385:94,1,127.499996200204,0|2
385,95,40720,1,2
48,328,41000,6,0,B|24:264,1,63.749998100102
104,272,41281,2,0,B|128:208,1,63.749998100102,2|0
48,200,41561,2,0,B|24:136,1,63.749998100102
104,144,41841,2,0,B|128:80,1,63.749998100102,2|0
48,72,42122,5,2
208,72,42262,1,0
104,144,42402,1,2
264,144,42542,2,0,B|232:208|272:274,1,127.499996200204,4|2
336,336,42963,2,0,B|368:272|328:206,1,127.499996200204,4|4
400,184,43384,6,0,B|424:247,2,63.749998100102,0|2|0
336,144,43804,2,0,B|276:109|205:146,1,127.499996200204,0|2
64,216,44225,2,0,B|124:251|195:214,1,127.499996200204,0|0
240,272,44645,2,0,B|200:336,2,63.749998100102,8|0|8
320,272,45066,2,0,B|360:336,2,63.749998100102,0|2|0
424,328,45486,6,0,B|456:272,1,63.749998100102
424,160,45767,2,0,B|392:216,1,63.749998100102,2|0
264,264,46047,2,0,B|296:208,1,63.749998100102
264,96,46327,2,0,B|232:152,1,63.749998100102,2|0
184,216,46608,5,4
184,216,46748,1,0
128,280,46888,1,2
128,280,46958,1,2
128,280,47028,1,2
264,264,47169,5,4
264,264,47309,1,0
320,200,47449,1,2
320,200,47519,1,2
320,200,47589,1,2
416,80,47729,6,0,B|432:184,1,102.00000243187,4|0
96,304,48290,2,0,B|80:200,1,102.00000243187,0|0
152,48,48851,6,0,B|192:88|168:152,1,102.00000243187
216,304,49271,2,0,B|240:184,1,102.00000243187,4|0
256,128,49692,1,4
256,128,49972,6,0,B|376:128,1,102.00000243187,4|0
456,256,50533,2,0,B|336:256,1,102.00000243187
280,256,50954,1,0
208,256,51094,1,0
136,256,51234,2,0,B|88:272|32:256,2,102.00000243187,0|4|0
171,191,51935,1,4
171,191,52215,6,0,B|160:80,1,102.00000243187,4|0
341,193,52776,2,0,B|352:304,1,102.00000243187,0|0
232,336,53337,2,0,B|184:304|120:320,1,102.00000243187,0|0
134,316,53757,2,0,B|112:208,1,102.00000243187,4|0
96,144,54178,1,4
256,40,54458,5,4
416,144,54739,1,0
352,320,55019,1,0
160,320,55299,1,0
32,192,55580,6,0,B|88:192,1,51.0000012159348,4|0
200,128,55860,2,0,B|128:128,1,51.0000012159348
264,192,56141,2,0,B|320:192,1,51.0000012159348,4|0
432,128,56421,2,0,B|360:128,1,51.0000012159348
258,351,56701,6,0,B|254:351|254:351|258:347|258:347|254:347|254:347|258:343|258:343|254:343|254:343|258:339|258:339|254:339|254:339|258:335|258:335|254:335|254:335|258:331|258:331|254:331|254:331|258:327|258:327|254:327|254:327|258:323|258:323|254:323|254:323|258:319|258:319|254:319|254:319|258:315|258:315|254:315|258:311|258:311|254:311|254:311|258:307|258:307|254:307|254:307|258:303|258:303|254:303|254:303|258:299|258:299|254:299|254:299|258:295|258:295|254:295|254:295|258:291|258:291|254:291|254:291|258:287|258:287|254:287|254:287|258:283|258:283|254:283|254:283|258:279|258:279|254:279|254:279|258:275|258:275|254:275|254:275|258:271|258:271|254:271|254:271|258:267|258:267|254:267|254:267|258:263|258:263|254:263|254:263|258:259|258:259|254:259|254:259|258:255|258:255|254:255|254:255|258:251|258:251|254:251|254:251|258:247|258:247|254:247|254:247|258:243|258:243|254:243|254:243|258:239|258:239|254:239|254:239|258:235|258:235|254:235|254:235|258:231|258:231|254:231|254:231|258:227|258:227|254:227|254:227|256:218|256:218|256:117,1,408.000009727478,4|4
80,240,58103,5,6
432,240,58384,1,6
256,48,58664,1,6
236,70,58734,1,2
209,82,58804,1,2
179,86,58874,1,0
149,82,58944,6,0,B|111:106|109:158,1,85,6|0
216,264,59225,2,0,B|254:240|256:188,1,85,10|0
128,264,59505,2,0,B|128:328|184:368|256:344,1,170,2|10
328,296,59926,1,0
408,248,60066,6,0,B|432:336,2,85,6|2|8
320,208,60486,2,0,B|272:136|296:32,1,170,2|2
88,168,60907,2,0,B|64:256,1,85,10|0
168,352,61187,6,0,B|216:280|192:176,1,170,6|10
160,104,61608,1,0
248,120,61748,2,0,B|296:128|336:104,1,85,2|0
424,88,62028,2,0,B|400:176,1,85,10|0
392,264,62309,5,6
304,240,62449,1,2
216,256,62589,1,8
128,232,62729,2,0,B|80:312,2,85,10|8|0
48,176,63150,2,0,B|96:96,1,85,2|0
184,104,63430,6,0,B|272:144|352:104,1,170,6|10
424,160,63851,2,0,B|456:120|432:64,2,85,0|2|0
344,208,64271,1,8
312,296,64412,1,0
400,328,64552,5,6
440,240,64692,1,2
256,176,64832,1,10
216,264,64972,2,0,B|56:200,1,170,2|0
120,64,65393,2,0,B|152:104|120:152,1,85,10|0
216,264,65673,6,0,B|184:224|216:176,1,85,6|0
296,136,65954,2,0,B|400:136,1,85,10|0
464,184,66234,1,2
384,224,66374,1,2
464,264,66514,1,8
384,312,66655,2,0,B|304:360|208:304,1,170,6|0
144,264,67075,6,0,B|96:336,1,85,10|0
192,160,67355,2,0,B|240:232,1,85,2|0
168,40,67636,2,0,B|120:112,1,85,10|0
248,88,67916,6,0,B|328:40|416:96,1,170,6|10
264,296,68477,2,0,B|184:344|96:288,1,170,2|10
192,160,68898,2,0,B|216:200|192:256,2,85,0|2|0
248,88,69318,1,8
272,176,69458,2,0,B|448:176,1,170,6|2
488,88,69879,1,10
408,264,70019,1,0
248,88,70159,6,0,B|336:88,1,85,6|0
192,160,70440,2,0,B|104:160,1,85,10|0
272,176,70720,2,0,B|360:176,1,85,2|0
216,248,71000,2,0,B|128:248,1,85,10|0
296,256,71281,5,6
480,256,71421,1,2
312,336,71561,1,8
432,192,71701,2,0,B|480:112|432:16,1,170,6|0
272,176,72122,2,0,B|256:264,1,85,10|0
352,192,72402,6,0,B|368:104,1,85,6|0
192,96,72683,2,0,B|176:184,1,85,10|0
168,272,72963,1,2
96,208,73103,1,0
248,248,73243,1,10
80,296,73384,1,0
224,336,73524,6,0,B|312:376|392:320,1,170,6|8
496,240,73944,2,0,B|408:200|328:256,1,170,2|10
288,168,74365,2,0,B|352:112,2,85,2|0|4
248,248,74785,5,0
248,248,74926,2,0,B|136:264|80:184,1,170,10|2
176,168,75346,1,0
208,336,75486,1,8
248,248,75627,2,0,B|136:232|80:312,1,170,6|0
24,240,76047,6,0,B|104:200,1,85,10|0
104,112,76327,2,0,B|27:73,1,85,2|0
176,168,76608,1,8
232,96,76748,6,0,B|288:128|288:208|238:238,1,170,6|0
288,312,77169,2,0,B|344:240,1,85,10|0
432,240,77449,2,0,B|376:208|376:128|426:98,1,170,2|8
488,168,77869,2,0,B|296:168,1,170,4|0
256,96,78290,5,8
216,224,78430,1,0
176,96,78570,1,0
136,224,78711,1,2
96,96,78851,1,10
56,224,78991,1,0
88,312,79131,6,0,B|192:312,1,85,6|0
301,225,79412,2,0,B|197:225,1,85,10|2
424,312,79692,2,0,B|320:312,2,85,2|2|8
464,224,80112,2,0,B|408:144|464:64,1,170,4|0
376,32,80533,2,0,B|360:128,1,85,10|0
286,310,80813,2,0,B|302:214,1,85,0|2
272,64,81094,2,0,B|256:160,1,85,10|0
208,224,81374,5,6
102,160,81514,1,2
165,266,81655,1,8
155,139,81795,1,0
102,255,81935,1,2
197,181,82075,1,2
80,202,82215,1,8
208,224,82355,6,0,B|288:192|376:232,1,170,4|0
373,230,82776,2,0,B|412:203|416:144,1,85,10|0
376,72,83056,2,0,B|337:99|333:158,2,85,0|2|2
256,312,83617,5,0
176,264,83757,1,0
256,216,83898,1,0
336,264,84038,1,0
256,337,84178,5,0
135,264,84318,1,0
256,192,84458,1,0
376,264,84598,1,4
