osu file format v9

[General]
AudioFilename: songsongsong.mp3
AudioLeadIn: 0
PreviewTime: 14085
Countdown: 0
SampleSet: Normal
StackLeniency: 0.4
Mode: 0
LetterboxInBreaks: 1

[Editor]
Bookmarks: 14081,38758,84599
DistanceSpacing: 1.2
BeatDivisor: 4
GridSize: 8

[Metadata]
Title:Chouetsu Koi Shite Naishomea!!
Artist:ave;new project feat. Sakura Saori & Inoue Miyu
Creator:Natteke
Version:Ecchi
Source:Ore no Tsure wa Hitodenashi
Tags:h3k1ru aenna lepidopodus

[Difficulty]
HPDrainRate:5
CircleSize:4
OverallDifficulty:6
ApproachRate:8
SliderMultiplier:1.4
SliderTickRate:0.5

[Events]
//Background and Video events
0,0,"bg.jpg"
Video,-64,"video chouetsu.avi"
//Break Periods
//Storyboard Layer 0 (Background)
//Storyboard Layer 1 (Fail)
//Storyboard Layer 2 (Pass)
//Storyboard Layer 3 (Foreground)
//Storyboard Sound Samples
//Background Colour Transformations
3,100,163,162,255

[TimingPoints]
2870,280.373831775701,4,1,0,50,1,0
24389,-100,4,2,0,50,0,0
24669,-100,4,1,0,50,0,0
26632,-100,4,2,0,50,0,0
26912,-100,4,1,0,50,0,0
29646,-133.333333333333,4,2,0,60,0,0
44576,-133.333333333333,4,2,0,40,0,0
44716,-133.333333333333,4,2,0,60,0,0
44856,-133.333333333333,4,2,0,40,0,0
44996,-133.333333333333,4,2,0,60,0,0
47590,-166.666666666667,4,2,0,60,0,0
57964,-100,4,2,0,60,0,0
58945,-100,4,1,0,50,0,1
59015,-100,4,1,0,50,0,0
67917,-100,4,1,0,50,0,1
67987,-100,4,1,0,50,0,0

[Colours]
Combo1 : 17,254,176
Combo2 : 173,255,95
Combo3 : 255,88,100
Combo4 : 255,94,55

[HitObjects]
256,192,2869,1,0
256,192,3431,1,0
200,344,3992,6,0,B|144:304|144:208,1,140
312,344,4553,2,0,B|368:304|368:208,1,140
256,192,5112,6,0,B|296:128|272:48,1,140,2|8
192,40,5534,2,0,B|128:64,1,70,2|0
168,136,5814,2,0,B|104:160,1,70,0|10
48,224,6095,6,0,B|32:264|48:304,1,70,2|0
120,336,6375,2,0,B|136:296|120:256,1,70,2|10
123,267,6656,1,2
184,208,6796,2,0,B|336:208,1,140,2|10
416,72,7356,6,0,B|400:32|368:16,1,70,2|0
336,96,7637,1,10
392,160,7777,2,0,B|448:208|416:312,1,140,2|2
360,344,8198,1,8
288,304,8338,6,0,B|232:248|136:272,1,140,2|2
80,304,8758,1,10
80,304,8899,1,0
32,232,9039,2,0,B|32:88,1,140,2|8
192,56,9599,6,0,B|240:112|344:88,2,140,2|10|2
112,88,10300,2,0,B|88:160,1,70,0|10
64,232,10581,2,0,B|80:312|168:328,1,140,2|2
240,320,11001,1,10
240,320,11142,1,0
280,248,11282,2,0,B|288:208|272:168,1,70,2|0
368,248,11562,2,0,B|360:288|376:328,1,70,10|0
448,280,11842,6,0,B|488:216|456:136,1,140,2|10
384,112,12263,1,2
440,48,12403,1,0
360,24,12543,2,0,B|272:24,1,70,2|8
208,56,12824,6,0,B|160:112|184:192,1,140,2|2
264,176,13244,1,10
232,256,13385,2,0,B|208:288|160:288,2,70,2|0|2
182,187,13805,2,0,B|152:208|104:192,1,70,10|0
72,88,14085,6,0,B|232:48,2,140,2|10|2
32,280,14927,1,10
216,344,15207,2,0,B|288:328,1,70,2|0
256,248,15487,2,0,B|328:232,1,70,10|0
440,72,15908,1,2
440,72,16048,1,10
248,64,16328,6,0,B|176:88|104:40,2,140,2|10|2
408,176,17170,1,10
304,344,17450,2,0,B|272:328|232:328,1,70,2|0
152,352,17730,1,10
88,296,17871,1,0
184,128,18151,2,0,B|200:88|192:48,2,70,0|10|2
256,176,18571,6,0,B|320:136|400:168,1,140,2|10
456,224,18992,1,0
424,304,19132,2,0,B|368:360,1,70,2|0
280,320,19413,2,0,B|336:264,1,70,10|0
368,176,19693,6,0,B|408:112|376:32,2,140,2|10|2
288,200,20394,1,0
248,128,20534,1,10
168,152,20674,1,0
168,152,20744,1,0
168,152,20814,6,0,B|128:216|160:296,2,140,2|10|2
248,128,21515,1,0
288,200,21656,2,0,B|296:272,1,70,2|0
304,352,21936,1,0
448,216,22216,6,0,B|464:64,1,140,10|2
256,72,22777,1,10
72,64,23057,5,2
64,152,23198,1,2
88,232,23338,2,0,B|88:272|56:312,2,70,0|0|2
152,176,23758,1,2
224,224,23899,2,0,B|296:216,1,70,10|0
376,208,24179,1,0
256,72,24459,5,8
256,72,24599,1,8
256,312,24880,1,2
256,312,25020,1,10
440,320,25300,5,2
448,232,25441,1,2
424,152,25581,2,0,B|424:112|456:72,2,70,10|0|2
360,208,26001,1,2
288,160,26142,2,0,B|216:168,1,70,10|0
136,176,26422,1,0
256,312,26702,5,8
256,312,26842,1,8
256,72,27123,1,2
256,72,27263,1,10
184,240,27543,6,0,B|200:168,1,70,2|2
328,240,27824,2,0,B|312:168,1,70,10|0
256,104,28104,1,2
256,104,28244,1,2
168,104,28385,1,10
344,104,28525,1,0
256,280,28805,5,2
256,280,28945,1,8
256,104,29226,1,2
256,192,29506,5,10
464,216,29786,6,0,B|472:280|424:320,1,104.999996870756,4|2
352,336,30207,1,0
288,280,30347,2,0,B|280:248|288:216,1,52.4999984353781
344,168,30628,1,2
264,136,30768,6,0,B|208:152|152:120,1,104.999996870756
104,64,31188,1,2
56,136,31328,2,0,B|24:184|48:256,1,104.999996870756
104,296,31749,1,2
104,296,31889,1,0
184,280,32029,6,0,B|176:256|184:224,1,52.4999984353781
264,204,32310,2,0,B|272:232|264:256,1,52.4999984353781,2|0
344,232,32590,2,0,B|336:208|344:176,1,52.4999984353781
424,156,32871,2,0,B|431:184|424:208,1,52.4999984353781,2|0
408,288,33151,1,0
408,288,33291,1,0
328,312,33431,1,2
328,312,33571,2,0,B|216:312,1,104.999996870756
152,264,33992,2,0,B|136:288|136:320,1,52.4999984353781,2|0
232,224,34272,6,0,B|264:176|248:112,1,104.999996870756,4|2
216,48,34693,1,0
144,96,34833,2,0,B|112:144|128:208,1,104.999996870756,0|2
144,280,35254,2,0,B|264:280,1,104.999996870756
336,280,35674,1,2
304,200,35814,2,0,B|424:200,1,104.999996870756
496,200,36235,1,2
392,64,36515,6,0,B|344:48,1,52.4999984353781
320,128,36796,2,0,B|272:144,1,52.4999984353781,2|0
240,64,37076,2,0,B|192:48,1,52.4999984353781
168,128,37355,2,0,B|120:144,1,52.4999984353781,2|0
256,192,37637,12,4,38758
128,200,39039,6,0,B|112:256,1,52.4999984353781,2|0
152,328,39319,2,0,B|208:344|264:312,1,104.999996870756,0|2
320,264,39740,2,0,B|376:248|432:280,1,104.999996870756
488,224,40160,1,2
416,176,40300,2,0,B|472:104|432:16,1,157.499995306134,0|2
288,112,41001,6,0,B|232:104|200:48,2,104.999996870756,0|2|0
352,168,41702,1,0
328,248,41842,2,0,B|304:320,1,52.4999984353781,2|0
240,344,42123,6,0,B|128:344,1,104.999996870756,0|2
64,296,42543,2,0,B|8:232|48:128,1,157.499995306134,4|2
192,80,43244,6,0,B|240:56|296:72,1,104.999996870756,4|2
424,208,43805,2,0,B|376:232|320:216,1,104.999996870756,0|2
272,288,44226,2,0,B|224:264|168:280,1,104.999996870756
88,288,44646,2,0,B|72:240,1,52.4999984353781,8|8
136,152,44927,2,0,B|152:200,2,52.4999984353781,8|0|2
304,176,45487,6,0,B|376:176,1,52.4999984353781
400,88,45768,2,0,B|328:88,1,52.4999984353781,2|0
248,120,46048,2,0,B|320:120,1,52.4999984353781
344,32,46327,2,0,B|272:32,1,52.4999984353781
208,32,46609,5,4
160,104,46749,1,0
96,48,46889,1,2
72,216,47170,1,4
120,288,47310,1,0
184,232,47450,1,2
400,328,47730,6,0,B|424:240,1,84.0000020027161,4|2
320,160,48291,2,0,B|296:248,1,84.0000020027161,2|2
192,328,48852,2,0,B|96:328,1,84.0000020027161,4|2
64,328,49272,2,0,B|32:272|56:192,1,126.000003004074,4|2
96,80,49973,6,0,B|128:56|176:56,1,84.0000020027161,4|2
256,160,50534,2,0,B|288:184|336:184,1,84.0000020027161,2|2
400,168,50955,1,0
400,168,51095,1,4
440,224,51235,2,0,B|456:264|440:320,2,84.0000020027161,0|4|0
400,168,51936,2,0,B|408:120,1,42.0000010013581,2|0
376,64,52216,6,0,B|208:64,1,168.000004005432,4|2
136,320,53338,2,0,B|304:320,1,168.000004005432,4|2
64,200,54459,6,0,B|48:160|64:112,1,84.0000020027161,4|2
192,160,55020,2,0,B|208:200|192:248,1,84.0000020027161,2|2
256,344,55581,5,4
440,192,56142,1,4
256,40,56702,1,4
256,192,56772,12,0,57824
128,192,58104,5,2
384,192,58385,1,2
256,344,58665,1,2
256,344,58805,1,0
256,344,58945,6,0,B|312:288|400:304,1,140,6|10
464,320,59366,1,0
448,240,59506,2,0,B|480:176|464:96,1,140,2|10
272,56,60067,2,0,B|200:56,1,70,0|2
208,136,60347,2,0,B|136:136,2,70,8|2|0
296,136,60768,1,2
296,136,60908,1,10
232,288,61188,6,0,B|168:328|80:296,2,140,6|10|2
400,320,62029,1,10
440,160,62310,1,2
360,136,62450,1,2
416,72,62590,1,8
336,48,62730,1,2
184,112,63011,2,0,B|176:40,2,70,2|10|0
112,152,63431,6,0,B|64:208|96:312,1,140,2|10
256,344,63992,1,2
256,344,64272,1,10
423,284,64553,6,0,B|448:208|400:152,1,140,2|10
328,112,64973,2,0,B|248:112,1,70,2|0
176,112,65254,1,2
176,112,65394,1,10
72,248,65674,6,0,B|136:280|160:360,2,140,6|10|2
32,168,66375,1,0
96,112,66515,2,0,B|152:56|240:80,1,140,10|2
392,80,67076,5,10
464,232,67356,1,2
328,328,67637,1,10
328,328,67777,1,0
328,328,67917,6,0,B|264:288|184:304,1,140,6|10
120,336,68338,1,0
64,272,68478,2,0,B|24:208|64:120,1,140,2|10
208,72,69039,2,0,B|272:96,1,70,2|2
320,24,69319,2,0,B|384:48,1,70,8|2
448,104,69599,1,0
416,184,69740,1,2
416,184,69880,1,10
256,240,70160,6,0,B|280:312|360:328,2,140,6|10|2
320,80,71001,1,10
152,40,71282,1,2
152,120,71422,1,2
72,88,71562,1,8
48,168,71702,1,2
104,328,71983,2,0,B|176:336,1,70,2|10
256,344,72263,1,0
336,320,72403,6,0,B|376:256|360:184,1,140,2|10
232,72,72964,2,0,B|288:32,2,70,2|0|10
80,144,73525,5,2
136,200,73665,1,2
64,240,73805,2,0,B|48:272|56:312,2,70,8|2|0
136,288,74226,1,0
136,288,74366,1,10
296,328,74646,6,0,B|368:352|440:312,2,140,6|10|2
240,264,75347,2,0,B|256:192,1,70,0|10
280,112,75628,1,0
344,56,75768,6,0,B|424:56,1,70
472,120,76048,2,0,B|512:184|480:272,1,140,10|2
336,328,76609,1,10
256,328,76749,6,0,B|104:328,1,140,6|0
48,280,77170,2,0,B|40:208,1,70,10|0
32,128,77450,1,2
32,128,77590,1,2
88,64,77730,2,0,B|160:64,1,70,10|0
240,56,78011,6,0,B|264:120,1,70,2|0
376,136,78291,2,0,B|352:72,1,70,10|2
232,104,78571,2,0,B|256:168,1,70,0|2
368,184,78851,2,0,B|344:120,1,70,10|0
304,240,79132,6,0,B|288:312,1,70,6|0
208,344,79413,1,10
208,344,79553,1,2
128,328,79693,2,0,B|48:312,1,70,0|2
32,232,79973,2,0,B|48:160,1,70,10|0
120,120,80254,6,0,B|192:128,1,70,2|0
256,40,80534,2,0,B|184:32,1,70,10|2
152,152,80814,2,0,B|224:160,1,70,0|2
288,72,81094,2,0,B|216:64,1,70,10|0
312,152,81375,6,0,B|384:136,1,70,6|0
464,120,81656,1,10
464,120,81796,1,2
456,200,81936,2,0,B|448:280,1,70,0|2
400,336,82216,1,10
320,304,82356,6,0,B|264:352|176:328,1,140,2|2
112,296,82777,1,10
256,192,83057,2,0,B|256:112,2,70,2|0|10
80,200,83618,6,0,B|64:128,1,70
176,72,83899,2,0,B|192:144,1,70,8|0
320,140,84179,2,0,B|336:72,1,70
447,131,84458,2,0,B|432:200,1,70
