osu file format v9

[General]
AudioFilename: DAYO!!.mp3
AudioLeadIn: 0
PreviewTime: 143466
Countdown: 0
SampleSet: Soft
StackLeniency: 0.4
Mode: 0
LetterboxInBreaks: 0
StoryFireInFront: 0
SkinPreference:Default

[Editor]
DistanceSpacing: 1
BeatDivisor: 4
GridSize: 4

[Metadata]
Title:Zoku - Namaiki Ichigo Milk Dayo!!
Artist:ave;new project feat. Kusayanagi Junko
Creator:Astom
Version:Hard
Source:
Tags:alala

[Difficulty]
HPDrainRate:6
CircleSize:5
OverallDifficulty:6
ApproachRate:5
SliderMultiplier:1.4
SliderTickRate:2

[Events]
//Background and Video events
0,0,"BG.jpg"
//Break Periods
2,92275,97135
2,108970,109657
2,127753,128440
2,177839,180614
2,221666,226527
//Storyboard Layer 0 (Background)
//Storyboard Layer 1 (Fail)
//Storyboard Layer 2 (Pass)
//Storyboard Layer 3 (Foreground)
//Storyboard Sound Samples
//Background Colour Transformations
3,100,163,162,255

[TimingPoints]
249,521.739130434783,4,2,0,70,1,0
75379,-100,4,2,0,70,0,1
87770,-66.6666666666667,4,2,0,70,0,1
88292,-66.6666666666667,4,2,1,70,0,1
88553,-66.6666666666667,4,2,0,70,0,1
89075,-100,4,2,0,70,0,1
92075,-100,4,2,0,70,0,0
100422,-100,4,2,0,70,0,1
108770,-100,4,2,0,70,0,0
125335,-66.6666666666667,4,2,0,70,0,0
126640,-66.6666666666667,4,2,1,70,0,0
126901,-100,4,2,0,70,0,0
131075,-100,4,2,0,70,0,0
143596,-200,4,2,0,0,0,0
144249,-100,4,2,0,100,0,1
144379,-100,4,2,0,70,0,1
160814,-100,4,2,0,70,0,0
160944,-100,4,2,0,70,0,1
164205,-100,4,2,1,70,0,1
164466,-100,4,2,0,70,0,1
168379,-100,4,2,1,70,0,1
168640,-100,4,2,0,70,0,1
177640,-100,4,2,0,70,0,0
194335,-100,4,2,0,70,0,1
194466,-100,4,2,0,70,0,0
196292,-66.6666666666667,4,2,0,70,0,0
196814,-66.6666666666667,4,2,1,70,0,0
197075,-66.6666666666667,4,2,0,70,0,0
197596,-100,4,2,0,70,0,0
211031,-100,4,2,0,70,0,1
221466,-100,4,2,0,70,0,0

[Colours]
Combo1 : 61,165,226
Combo2 : 254,225,24
SliderBorder : 127,125,126

[HitObjects]
148,192,6509,6,0,B|156:132|268:132|272:192|216:256|392:260|376:168,1,280,2|2
448,200,7814,1,2
412,132,8075,1,8
408,284,8596,5,4
368,348,8857,1,0
292,368,9118,1,8
216,368,9379,1,0
144,348,9640,1,0
104,284,9901,1,0
104,284,10162,1,8
172,100,10683,5,2
256,52,10944,1,0
340,100,11205,1,8
172,284,11727,5,2
256,332,11988,1,0
340,284,12249,1,8
212,220,12770,6,0,B|244:244|276:220,1,70,4|0
308,156,13292,2,0,B|276:132|244:156,2,70,8|0|2
308,156,14075,1,2
368,120,14335,2,0,B|400:156|360:200,1,70,8|0
444,248,14857,5,2
480,156,15118,1,0
444,64,15379,1,8
444,64,15901,5,2
480,156,16162,1,2
444,248,16423,1,8
304,248,16944,6,0,B|272:224|256:196|256:196|240:224|208:248,1,140,4|8
160,296,17727,1,0
220,328,17988,1,0
292,328,18249,1,0
352,296,18509,1,8
256,88,19031,5,2
216,176,19292,1,0
120,192,19553,1,8
256,296,20075,5,2
296,208,20336,1,0
392,192,20597,1,8
80,72,21118,5,2
80,72,21249,1,2
80,72,21379,1,2
36,124,21640,1,8
80,180,21901,2,0,B|112:176|160:236|112:292,1,140,2|0
60,244,22683,1,8
172,160,23205,6,0,B|196:176|196:196|196:196|248:176|256:128|256:128|264:176|320:196|320:196|320:176|352:152,1,280,0|2
316,96,24509,1,2
256,56,24770,1,8
196,96,25031,1,0
256,144,25292,6,0,B|216:208|300:208|248:272,2,140,4|8|2
256,144,26596,1,8
256,144,26857,1,8
460,192,27379,5,2
380,116,27640,1,2
348,220,27901,1,8
52,192,28422,5,2
132,116,28683,1,2
164,220,28944,1,8
268,120,29466,6,0,B|348:120,1,70,2|0
380,168,29988,1,8
380,168,30249,2,0,B|464:168,3,70,0|0|0|8
332,356,31553,5,2
256,276,31814,1,0
180,356,32075,1,8
332,28,32596,5,2
256,108,32857,1,2
180,28,33118,1,8
244,264,33640,6,0,B|164:264,1,70,2|0
132,216,34162,1,8
132,216,34423,2,0,B|48:216,3,70,0|0|0|8
204,100,35727,5,2
224,72,35857,1,2
256,60,35988,1,2
288,72,36118,1,2
308,100,36249,1,8
256,228,36770,6,0,B|256:136,2,70,2|0|8
128,288,37814,5,4
156,352,38075,2,0,B|188:380|228:348,1,70,0|8
256,296,38596,1,0
296,356,38857,2,0,B|328:384|368:352,1,70,0|0
384,288,39379,1,8
186,122,39901,5,2
256,192,40162,1,0
324,260,40422,1,8
326,122,40944,5,2
256,192,41205,1,0
188,260,41465,1,8
44,128,41988,5,4
16,192,42249,1,0
44,256,42509,1,8
16,192,42770,1,0
44,128,43031,1,0
116,128,43292,1,0
148,192,43553,2,0,B|156:160|208:160|200:224|248:224|272:180,1,140,8|0
200,316,44596,5,8
264,348,44857,1,0
328,316,45118,2,0,B|336:284|388:284|380:348|428:348|452:304,1,140,0|8
444,314,45901,1,0
444,314,46162,1,4
416,176,46683,5,8
288,228,47205,1,0
308,88,47727,1,8
168,88,48249,6,0,B|105:150,1,70,2|0
187,136,48770,2,0,B|124:198,1,70,8|0
207,184,49292,2,0,B|144:246,1,70,2|0
108,283,49814,1,8
356,164,50335,5,4
464,164,50596,1,0
408,72,50857,1,8
156,164,51379,5,2
48,164,51640,1,2
104,72,51901,1,8
320,72,52422,6,0,B|256:124|192:72,1,140,2|8
156,132,53205,1,0
192,192,53466,6,0,B|256:140|320:192,1,140,2|8
356,132,54249,1,0
320,72,54509,5,4
256,148,54770,1,0
192,72,55031,1,8
192,312,55553,5,2
256,236,55814,1,0
320,312,56075,1,8
392,192,56596,6,0,B|356:168|328:192,1,70,2|0
288,132,57118,2,0,B|252:156|224:132,1,70,8|0
184,192,57640,2,0,B|148:168|120:192,2,70,2|0|8
151,254,58422,1,0
151,254,58683,5,4
208,332,58944,1,0
304,332,59205,1,8
364,132,59727,5,2
304,52,59988,1,0
208,52,60249,1,8
192,236,60770,6,0,B|256:288|320:236,1,140,2|8
256,192,61553,1,0
320,152,61814,2,0,B|256:100|192:152,1,140,2|8
256,348,62857,5,4
326,277,63118,1,0
397,206,63379,1,8
256,36,63901,5,2
186,107,64162,1,0
115,178,64423,1,8
256,312,64944,6,0,B|296:284|296:344|336:296,1,70,2|0
292,248,65466,2,0,B|332:220|332:280|372:232,1,70,8|0
328,184,65988,2,0,B|368:156|368:216|408:168,2,70,2|0|8
144,112,67031,5,4
88,192,67292,1,0
144,272,67553,1,8
368,112,68075,5,2
424,192,68336,1,0
368,272,68597,1,8
316,60,69118,6,0,B|264:16|256:120|188:56,1,140,2|8
128,32,69901,1,0
136,100,70162,2,0,B|84:56|76:160|8:96,1,140,2|8
11,99,70944,1,0
12,168,71205,5,4
108,192,71466,1,0
204,168,71727,1,8
500,216,72249,5,2
404,192,72510,1,0
308,216,72771,1,8
188,92,73292,6,0,B|224:168,1,70,2|0
356,124,73814,2,0,B|280:160,1,70,8|0
324,292,74335,2,0,B|288:216,1,70,2|0
156,260,74857,2,0,B|232:224,1,70,8|0
192,164,75379,5,4
224,148,75509,1,2
244,120,75640,1,2
256,52,75901,1,8
268,120,76162,1,2
288,148,76292,1,2
320,164,76422,1,2
288,224,76683,2,0,B|264:216|256:208|256:208|248:216|224:224,1,70,8|8
352,352,77466,6,0,B|312:356|272:304,1,70,2|0
160,352,77988,2,0,B|200:356|240:304,1,70,8|0
200,256,78509,1,2
256,176,78770,1,8
312,256,79031,1,8
388,84,79553,5,2
388,84,79683,1,2
388,84,79814,2,0,B|364:116|412:116|384:152,1,70,2|8
456,148,80335,1,2
456,148,80466,1,2
456,148,80596,2,0,B|432:180|480:180|448:228,1,70,2|2
385,213,81118,2,0,B|417:233|417:273|349:273|349:333|405:333,1,140,8|0
256,192,81705,12,8,83205
120,264,83727,6,0,B|148:336|224:348,1,140,2|8
256,280,84509,1,0
290,349,84770,2,0,B|369:337|397:257,1,140,2|8
176,192,85814,5,2
68,192,86075,1,0
176,192,86335,1,8
336,192,86857,5,2
444,192,87118,1,2
336,192,87378,1,8
116,192,87901,6,0,B|148:12|372:20|396:196,1,419.999987483025,2|2
256,192,89466,1,8
68,84,89988,5,2
52,192,90249,1,0
120,276,90509,2,0,B|152:248|152:304|200:268,1,70,8|0
256,340,91031,1,2
344,276,91292,2,0,B|376:248|376:304|420:268,1,70,8|8
460,192,91814,1,2
444,84,92075,1,4
256,192,98335,12,8,99901
256,192,100422,6,0,B|188:192,1,70,4|0
220,132,100944,2,0,B|152:132,1,70,8|0
184,72,101466,2,0,B|104:72,1,70,2|0
44,72,101988,1,8
204,284,102509,5,2
224,312,102639,1,2
256,324,102770,1,2
288,312,102900,1,2
308,284,103031,1,8
256,156,103553,6,0,B|256:248,2,70,2|0|8
184,32,104596,6,0,B|120:80,1,70,4|0
220,88,105118,2,0,B|188:156,1,70,8|0
292,88,105640,2,0,B|324:156,1,70,2|0
328,32,106162,2,0,B|392:80,1,70,8|0
396,152,106683,5,2
328,192,106944,1,0
276,248,107205,1,8
256,324,107466,1,0
236,248,107727,1,2
184,192,107988,1,0
116,152,108249,1,8
116,152,108509,1,2
116,152,108770,1,4
256,192,110857,5,4
196,112,111118,1,2
256,192,111379,1,8
256,192,111901,5,2
316,112,112162,1,0
256,192,112423,1,8
388,240,112944,5,4
376,308,113205,1,0
324,352,113466,1,8
256,364,113727,1,4
188,352,113989,1,2
136,308,114249,1,8
124,240,114510,1,8
124,240,114770,1,0
224,240,115031,5,6
256,148,115292,1,0
256,48,115553,1,8
256,48,116075,1,2
256,148,116336,1,0
288,240,116596,1,8
320,44,117118,6,0,B|280:56|252:20,1,70,2|0
192,100,117640,2,0,B|232:112|260:76,1,70,8|0
320,156,118162,2,0,B|280:168|252:132,1,70,2|0
256,236,118683,2,0,B|200:292|304:284|256:360,1,140,8|4
256,358,119466,5,0
256,358,119727,1,8
256,25,120249,1,2
256,25,120510,1,0
256,25,120770,1,8
356,124,121292,6,0,B|424:72|488:128,1,140,2|8
464,192,122075,1,0
484,260,122335,2,0,B|416:312|352:256,1,140,2|8
380,192,123118,1,0
280,192,123379,5,4
256,288,123640,1,0
232,192,123901,1,8
232,192,124422,5,2
256,96,124683,1,0
280,192,124944,1,8
440,304,125466,6,0,B|312:304|276:180,1,209.999993741512,2|8
256,96,126249,1,0
231,192,126509,2,0,B|192:308|56:304,1,209.999993741512,2|8
71,304,127292,1,2
71,304,127553,1,4
76,72,129640,5,4
144,76,129901,2,0,B|148:116|108:136,1,70,0|8
44,132,130422,1,4
76,192,130683,2,0,B|72:232|112:252,2,70,2|8|8
76,192,131466,1,2
176,192,131727,5,4
252,132,131988,1,0
256,32,132249,1,8
336,192,132770,5,2
260,252,133031,1,0
256,352,133292,1,8
460,248,133814,6,0,B|432:224|376:224,1,70,2|0
460,136,134335,2,0,B|432:160|372:160,1,70,8|0
336,192,134857,2,0,B|252:192,1,70,2|8
196,192,135379,1,8
208,64,135901,5,2
208,64,136162,1,0
316,64,136422,1,8
108,124,136944,5,2
108,124,137205,1,2
216,128,137466,1,8
388,128,137988,6,0,B|432:192|384:264,1,140,4|8
336,192,138770,1,0
284,128,139031,2,0,B|240:192|288:264,1,140,2|8
131,249,140075,5,4
132,136,140335,1,0
131,249,140596,1,8
382,249,141118,5,2
380,136,141378,1,2
382,249,141640,1,8
132,248,142162,5,8
160,312,142422,1,0
220,348,142683,1,8
292,348,142944,1,0
352,312,143205,1,8
380,248,143466,1,0
288,248,143727,6,0,B|256:224|256:276|224:248,1,70,0|4
192,248,144379,1,2
172,220,144509,1,2
172,184,144640,1,2
340,184,145031,1,2
340,220,145161,1,2
320,248,145292,1,2
286,249,145422,1,0
256,60,145814,1,8
56,324,146335,6,0,B|104:324|128:276,1,70,2|0
176,332,146857,2,0,B|200:296|176:264,1,70,8|0
120,228,147379,2,0,B|120:140,2,70,2|8|8
360,336,148422,5,2
328,320,148553,1,2
304,292,148683,1,2
288,260,148814,1,2
152,336,149205,5,2
184,320,149336,1,2
208,292,149466,1,2
224,260,149597,1,2
256,360,149988,1,8
152,136,150509,6,0,B|124:112|120:172|84:128,1,70,2|0
152,188,151031,2,0,B|180:164|184:224|220:180,1,70,8|0
152,240,151553,2,0,B|124:216|120:276|84:232,1,70,2|2
152,292,152075,6,0,B|160:260|212:260|204:324|252:324|276:280,1,140,8|4
304,280,152727,1,2
324,252,152857,1,2
332,220,152988,1,2
180,220,153379,1,2
188,252,153509,1,2
208,280,153640,1,2
243,290,153770,1,0
256,80,154162,1,8
396,80,154683,6,0,B|436:68|484:104,1,70,2|0
416,144,155205,2,0,B|460:152|472:200,1,70,8|0
404,212,155727,2,0,B|432:244|400:280,2,70,2|8|8
192,240,156770,6,0,B|156:276,3,35,2|2|2|2
320,240,157553,2,0,B|356:276,3,35,2|2|2|2
256,132,158335,1,8
256,192,158857,12,8,160422
320,144,160944,6,0,B|356:108,3,35,2|2|2|2
192,144,161727,2,0,B|156:108,3,35,2|2|2|2
256,252,162509,1,8
164,352,163031,6,0,B|216:308|216:400|296:348,1,140,2|8
364,352,163814,1,0
328,292,164075,2,0,B|380:248|380:340|460:288,1,140,2|8
304,128,165118,6,0,B|340:92,3,35,2|2|2|2
304,256,165901,2,0,B|340:292,3,35,2|2|2|2
196,192,166683,1,8
348,36,167205,6,0,B|296:-8|296:84|216:32,1,140,2|8
148,36,167988,1,0
184,96,168249,2,0,B|132:52|132:144|52:92,1,140,2|8
208,256,169292,6,0,B|172:292,3,35,2|2|2|2
208,128,170075,2,0,B|172:92,3,35,2|2|2|2
316,192,170857,1,8
224,304,171379,6,0,B|256:328|296:300,1,70,2|0
320,368,171901,2,0,B|360:344|360:300,1,70,8|0
420,348,172422,2,0,B|440:308|412:264,2,70,2|8|8
364,192,173466,6,0,B|356:252|244:252|240:192|296:128|120:124|136:216,1,280,6|2
64,184,174771,1,2
100,252,175032,1,8
300,148,175553,6,0,B|356:92,2,70,2|0|8
272,252,176335,2,0,B|292:328,2,70,0|2|8
195,175,177118,2,0,B|119:155,2,70,8|2|4
256,328,181814,5,4
188,352,182075,2,0,B|180:312|200:284,1,70,0|8
128,280,182596,2,0,B|136:248|168:224,1,70
236,224,183118,2,0,B|236:128,2,70,0|8|0
340,192,183901,5,2
400,116,184162,1,0
340,192,184422,1,8
172,192,184944,5,2
112,268,185205,1,2
172,192,185465,1,8
44,140,185988,6,0,B|68:112|108:128,1,70,4|0
100,60,186509,2,0,B|136:60|164:92,1,70,8|0
200,32,187031,2,0,B|236:52|232:100,1,70,0|0
196,148,187553,2,0,B|256:196,1,70,8|0
256,276,188075,5,2
332,336,188336,1,0
256,276,188596,1,8
256,108,189118,5,2
180,48,189379,1,2
256,108,189639,1,8
300,240,190162,6,0,B|272:264|256:292|256:292|240:264|208:240,1,140,4|8
256,192,190944,1,0
192,163,191205,1,0
249,123,191466,1,0
315,154,191727,1,8
322,223,191988,1,8
264,263,192249,1,2
199,232,192509,1,2
256,192,192770,1,8
256,192,193292,12,4,194335
256,192,194857,5,8
192,68,195379,2,0,B|256:16|320:68,1,140,2|8
404,248,196422,6,0,B|352:420|160:420|108:248,1,419.999987483025,2|2
256,192,197988,1,8
360,100,198509,5,4
404,44,198770,2,0,B|436:68|428:108,1,70,0|8
500,108,199292,2,0,B|496:152|464:168,1,70,0|2
396,164,199814,2,0,B|344:216,1,70,0|8
112,192,200596,5,2
154,90,200857,1,0
256,48,201118,1,8
400,192,201640,5,2
357,293,201901,1,2
256,336,202162,1,8
116,336,202683,6,0,B|80:364|48:332,1,70,4|0
84,272,203205,1,8
52,208,203466,2,0,B|88:180|120:212,1,70,0|0
148,272,203988,2,0,B|224:272,1,70,0|8
204,132,204770,5,2
224,104,204901,1,2
256,96,205031,1,2
288,104,205162,1,2
308,132,205292,1,2
204,224,205814,2,0,B|236:232|256:268|256:268|276:232|312:224,1,140,2|8
380,348,206857,6,0,B|412:328|400:284,1,70,4|0
472,288,207379,2,0,B|468:244|432:224,1,70,8|0
368,228,207901,2,0,B|368:156,2,70,2|0|8
368,228,208683,1,0
368,228,208944,1,2
368,228,209205,1,0
256,192,209988,12,4,211031
256,192,211553,5,8
320,316,212075,2,0,B|256:368|192:316,1,140,2|8
256,192,213118,5,2
185,121,213379,1,0
114,50,213640,1,8
256,192,214162,5,2
326,262,214423,1,0
397,333,214684,1,8
332,92,215205,6,0,B|272:136|308:228,1,140,4|8
256,168,215988,1,0
207,218,216249,2,0,B|236:136|180:92,1,140,2|8
400,192,217292,5,2
358,90,217553,1,0
256,48,217814,1,8
112,192,218336,5,2
155,293,218597,1,2
256,336,218858,1,8
332,72,219379,6,0,B|364:48|360:112|408:60,1,70,4|0
380,140,219901,2,0,B|412:116|408:180|456:128,1,70,8|0
432,208,220422,2,0,B|464:184|460:248|508:196,2,70,2|0|8
432,208,221466,1,2
256,192,227727,6,0,B|204:236|196:140|128:196,3,140,4|8|2|8
396,256,229814,5,2
292,292,230075,1,0
384,352,230335,1,8
116,256,230857,5,2
220,292,231118,1,2
128,352,231378,1,8
256,168,231901,6,0,B|256:116,4,35,2|2|2|2|2
188,296,232944,5,2
256,276,233205,1,2
324,296,233466,1,8
256,192,233988,12,8,236075
