osu file format v13

[General]
AudioFilename: chu.mp3
AudioLeadIn: 1000
PreviewTime: 80058
Countdown: 0
SampleSet: Soft
StackLeniency: 0.7
Mode: 0
LetterboxInBreaks: 0
WidescreenStoryboard: 0

[Editor]
DistanceSpacing: 0.9
BeatDivisor: 4
GridSize: 32
TimelineZoom: 1

[Metadata]
Title:Everybody MuCHU de*Osoba ni Angel!!
TitleUnicode:えびばでぃ夢CHUで☆お傍にエンジェル!!
Artist:ave;new project
ArtistUnicode:ave;new project
Creator:mochi
Version:Normal!!
Source:快盗天使ツインエンジェル3
Tags:kosiga
BeatmapID:155400
BeatmapSetID:49674

[Difficulty]
HPDrainRate:3
CircleSize:3
OverallDifficulty:4
ApproachRate:5
SliderMultiplier:1.1
SliderTickRate:2

[Events]
//Background and Video events
0,0,"alacat is naganegi.jpg",0,0
Video,0,"video.avi"
//Break Periods
//Storyboard Layer 0 (Background)
//Storyboard Layer 1 (Fail)
//Storyboard Layer 2 (Pass)
//Storyboard Layer 3 (Foreground)
//Storyboard Sound Samples
//Background Colour Transformations
3,100,55,50,114

[TimingPoints]
-411,352.941176470588,4,2,0,85,1,0
9470,-100,4,2,0,85,0,1
20676,-100,4,2,0,85,0,0
20764,-100,4,2,0,85,0,1
34882,-100,4,2,0,85,0,0
57470,-133.333333333333,4,2,0,72,0,0
63117,-100,4,2,0,75,0,0
63647,-100,4,2,0,78,0,0
64352,-100,4,2,0,81,0,0
65588,-100,4,2,0,83,0,0
65941,-100,4,2,0,85,0,0
68764,-100,4,2,0,85,0,1
79970,-100,4,2,0,85,0,0
80058,-100,4,2,0,85,0,1
94176,-100,4,2,0,85,0,0
107941,-100,4,2,0,85,0,1
108029,-100,4,2,0,75,0,0
109705,-100,4,2,0,60,0,0
110058,-100,4,2,0,45,0,0
110411,-100,4,2,0,30,0,0
110764,-100,4,2,0,15,0,0
111117,-100,4,2,0,5,0,0

[Colours]
Combo1 : 252,122,125
Combo2 : 223,123,234
Combo3 : 107,239,153
Combo4 : 132,191,240

[HitObjects]
287,136,999,6,0,B|221:158|176:87,2,110,12|0|8,0:0|0:0|0:0,0:0:0:0:
380,100,2058,1,0,0:0:0:0:
469,141,2411,2,0,P|456:42|391:5,2,165,12|8|0,0:0|0:0|0:0,0:0:0:0:
380,186,3823,6,4,B|279:186|273:301,3,165,12|4|12|0,0:0|0:0|0:0|0:0,0:0:0:0:
280,337,5588,2,0,B|208:359|160:296,2,110,8|0|0,0:0|0:0|0:0,0:0:0:0:
378,323,6647,6,0,B|480:298|407:198|515:162,2,220,12|0|8,0:0|0:0|0:0,0:0:0:0:
287,282,8411,2,0,P|280:350|318:395,2,110,0|8|0,0:0|0:0|0:0,0:0:0:0:
293,182,9470,6,0,P|244:147|182:158,1,110,12|0,0:0|0:0,0:0:0:0:
125,220,10176,2,0,P|98:166|114:108,1,110,8|0,0:0|0:0,0:0:0:0:
137,79,10705,2,0,B|107:21|44:34,2,110,8|0|8,0:0|0:0|0:0,0:0:0:0:
172,171,11764,5,0,0:0:0:0:
270,165,12117,2,0,B|336:149|352:72,1,110,12|0,0:0|0:0,0:0:0:0:
367,47,12647,2,0,B|433:53|457:134,2,110,8|0|8,0:0|0:0|0:0,0:0:0:0:
268,57,13705,2,0,B|194:92|183:1|94:52,1,165,8|8,0:0|0:0,0:0:0:0:
36,108,14588,5,0,0:0:0:0:
32,206,14941,2,0,B|46:273|133:274,1,110,12|0,0:0|0:0,0:0:0:0:
159,272,15470,2,0,B|154:338|91:359,2,110,8|0|8,0:0|0:0|0:0,0:0:0:0:
162,172,16529,2,0,B|96:132|132:57,2,110,8|0|8,0:0|0:0|0:0,0:0:0:0:
247,222,17588,5,0,0:0:0:0:
247,222,17764,2,0,B|316:228|347:157,1,110,8|0,0:0|0:0,0:0:0:0:
362,129,18294,2,0,B|427:144|434:221,2,110,0|8|0,0:0|0:0|0:0,0:0:0:0:
252,116,19353,5,8,0:0:0:0:
228,223,19706,1,0,0:0:0:0:
140,156,20059,1,8,0:0:0:0:
374,302,20764,6,0,B|433:334|487:284,2,110,12|0|8,0:0|0:0|0:0,0:0:0:0:
299,235,21823,1,0,0:0:0:0:
299,235,21999,2,0,P|271:315|318:381,2,165,8|0|8,0:0|0:0|0:0,0:0:0:0:
385,185,23411,6,0,B|375:117|300:95,1,110,12|0,0:0|0:0,0:0:0:0:
271,91,23941,2,0,B|283:25|366:9,2,110,8|0|8,0:0|0:0|0:0,0:0:0:0:
188,153,24999,2,0,B|175:87|92:71,2,110,8|0|8,0:0|0:0|0:0,0:0:0:0:
238,241,26058,5,0,0:0:0:0:
238,241,26235,2,0,B|254:278|254:278|333:310|380:246,1,165,12|0,0:0|0:0,0:0:0:0:
441,191,27117,1,8,0:0:0:0:
409,96,27470,1,0,0:0:0:0:
409,96,27647,2,0,B|393:59|393:59|314:27|267:91,1,165,8|0,0:0|0:0,0:0:0:0:
217,155,28529,2,0,B|171:200|94:167,1,110,8|0,0:0|0:0,0:0:0:0:
27,126,29235,6,0,B|-13:183|40:245,2,110,12|0|8,0:0|0:0|0:0,0:0:0:0:
99,58,30294,1,0,0:0:0:0:
188,99,30647,2,0,B|250:130|314:77,1,110,8|0,0:0|0:0,0:0:0:0:
325,54,31176,2,0,B|420:86|392:210,1,165,8|0,0:0|0:0,0:0:0:0:
415,302,32059,6,0,L|298:291,1,110,12|0,0:0|0:0,0:0:0:0:
211,359,32765,2,0,L|176:250,1,110,8|0,0:0|0:0,0:0:0:0:
175,143,33471,5,8,0:0:0:0:
66,160,33824,1,0,0:0:0:0:
102,56,34177,1,8,0:0:0:0:
351,106,34882,6,0,B|411:83|421:13,2,110,12|0|8,0:0|0:0|0:0,0:0:0:0:
258,143,35941,2,0,B|198:166|188:236,1,110,0|8,0:0|0:0,0:0:0:0:
193,273,36470,2,0,B|123:293|80:225,2,110,0|8|0,0:0|0:0|0:0,0:0:0:0:
287,241,37529,6,0,P|287:326|214:376,2,165,12|0|8,0:0|0:0|0:0,0:0:0:0:
228,160,38941,2,0,P|306:143|375:203,1,165,8|0,0:0|0:0,0:0:0:0:
394,234,39647,2,0,B|465:222|472:138,1,110,8|0,0:0|0:0,0:0:0:0:
442,67,40352,6,0,P|385:28|297:55,1,165,12|0,0:0|0:0,0:0:0:0:
223,118,41235,2,0,B|184:68|212:10,2,110,8|0|8,0:0|0:0|0:0,0:0:0:0:
257,154,42117,2,0,B|260:226|186:249,1,110
105,249,42823,5,0,0:0:0:0:
137,342,43176,2,0,B|163:372|163:372|252:382|283:313,1,165,12|0,0:0|0:0,0:0:0:0:
289,232,44058,2,0,P|327:199|402:202,1,110,8|0,0:0|0:0,0:0:0:0:
471,243,44764,2,0,P|486:185|458:133,2,110,8|0|8,0:0|0:0|0:0,0:0:0:0:
471,243,45647,1,0,0:0:0:0:
286,224,46177,2,0,P|265:173|281:122,2,110,12|0|8,0:0|0:0|0:0,0:0:0:0:
327,313,47235,2,0,B|257:341|216:285,1,110,0|8,0:0|0:0,0:0:0:0:
187,264,47764,2,0,B|123:294|141:376,2,110,0|8|0,0:0|0:0|0:0,0:0:0:0:
273,214,48823,6,0,B|351:194|309:111|399:90,1,165,12|0,0:0|0:0,0:0:0:0:
470,134,49705,2,0,P|465:46|389:-1,2,165,8|0|8,0:0|0:0|0:0,0:0:0:0:
450,180,50941,2,0,B|385:186|362:252,1,110
318,328,51647,6,0,P|235:364|173:327,1,165,12|0,0:0|0:0,0:0:0:0:
120,247,52529,2,0,P|82:286|78:351,2,110,8|0|8,0:0|0:0|0:0,0:0:0:0:
205,195,53588,1,0,0:0:0:0:
205,195,53764,2,0,B|264:158|243:77,1,110,8|0,0:0|0:0,0:0:0:0:
150,122,54470,6,0,P|113:197|153:269,1,165,12|0,0:0|0:0,0:0:0:0:
245,274,55352,2,0,B|309:276|344:344,1,110,8|0,0:0|0:0,0:0:0:0:
366,367,55882,2,0,B|470:342|446:231,1,165,8|8,0:0|0:0,0:0:0:0:
423,150,56764,1,4,0:0:0:0:
200,152,57470,6,0,B|120:129|165:54|86:40,2,164.999995082617,8|0|8,0:0|0:0|0:0,0:0:0:0:
281,165,59235,1,0,0:0:0:0:
281,165,59411,2,0,B|331:169|355:214,1,82.4999975413085,8|0,0:0|0:0,0:0:0:0:
367,285,60117,6,0,B|355:364|264:393|204:328,1,206.249993853271,8|0,0:0|0:0,0:0:0:0:
152,275,61352,1,0,0:0:0:0:
71,261,61705,2,0,B|81:195|161:168|207:216,1,164.999995082617,8|0,0:0|0:0,0:0:0:0:
268,248,62764,1,0,0:0:0:0:
338,184,63117,6,0,B|362:148|362:148|345:81|267:68,1,165,12|4,0:0|0:0,0:0:0:0:
178,59,64000,1,0,0:0:0:0:
89,14,64352,2,0,P|87:105|140:150,1,165,12|0,0:0|0:0,0:0:0:0:
260,137,65235,5,0,0:0:0:0:
260,137,65588,1,0,0:0:0:0:
260,137,65941,2,0,L|209:252,1,110,12|0,0:0|0:0,0:0:0:0:
306,299,66647,2,0,L|357:184,1,110,8|0,0:0|0:0,0:0:0:0:
365,89,67353,5,8,0:0:0:0:
463,137,67706,1,0,0:0:0:0:
491,30,68059,1,8,0:0:0:0:
263,18,68764,6,0,P|170:37|101:149,1,220,12|8,0:0|0:0,0:0:0:0:
85,233,69823,1,0,0:0:0:0:
85,233,70000,2,0,B|68:301|105:336|105:336|176:341|213:288,1,220,8|8,0:0|0:0,0:0:0:0:
259,217,71058,1,0,0:0:0:0:
217,127,71411,6,0,P|316:135|356:205,1,165,12|0,0:0|0:0,0:0:0:0:
332,280,72294,2,0,B|362:339|445:311,1,110,8|0,0:0|0:0,0:0:0:0:
455,276,72823,2,0,B|508:310|495:376,2,110,8|0|8,0:0|0:0|0:0,0:0:0:0:
364,235,73882,5,0,0:0:0:0:
427,158,74235,2,0,B|467:111|444:56|444:56|382:20|332:50,1,220,12|0,0:0|0:0,0:0:0:0:
297,73,75117,2,0,B|293:150|214:166,1,110,8|0,0:0|0:0,0:0:0:0:
140,151,75823,2,0,B|109:172|109:172|80:241|137:289,1,165,8|8,0:0|0:0,0:0:0:0:
215,344,76705,5,0,0:0:0:0:
314,343,77058,2,0,B|418:325|404:201,1,165,8|0,0:0|0:0,0:0:0:0:
471,151,77941,2,0,L|359:93,1,110,8|0,0:0|0:0,0:0:0:0:
315,12,78647,5,8,0:0:0:0:
240,92,79000,1,0,0:0:0:0:
170,177,79353,1,8,0:0:0:0:
387,276,80058,6,0,B|456:278|488:203,2,110,12|0|8,0:0|0:0|0:0,0:0:0:0:
306,217,81117,1,0,0:0:0:0:
306,217,81294,2,0,P|289:302|348:368,2,165,8|0|8,0:0|0:0|0:0,0:0:0:0:
370,141,82705,6,0,B|382:102|382:102|355:41|260:43,1,165,12|0,0:0|0:0,0:0:0:0:
181,50,83588,2,0,B|107:63|95:137,1,110,8|0,0:0|0:0,0:0:0:0:
74,211,84294,2,0,B|7:194|8:127,2,110,8|0|8,0:0|0:0|0:0,0:0:0:0:
172,218,85352,5,0,0:0:0:0:
172,218,85529,2,0,B|255:231|204:310|306:309,1,165,12|0,0:0|0:0,0:0:0:0:
395,296,86411,1,8,0:0:0:0:
442,209,86764,1,0,0:0:0:0:
442,209,86941,2,0,P|433:124|367:74,1,165,8|0,0:0|0:0,0:0:0:0:
275,71,87823,2,0,B|158:71,1,110,8|0,0:0|0:0,0:0:0:0:
77,117,88529,6,0,B|45:61|88:3,2,110,12|0|8,0:0|0:0|0:0,0:0:0:0:
132,199,89588,2,0,B|80:242|13:199,2,110,0|8|0,0:0|0:0|0:0,0:0:0:0:
171,168,90470,2,0,B|240:109|343:168,1,165,8|0,0:0|0:0,0:0:0:0:
411,208,91352,6,0,B|447:268|394:326,1,110,12|0,0:0|0:0,0:0:0:0:
325,368,92058,2,0,B|265:404|207:351,1,110,8|0,0:0|0:0,0:0:0:0:
146,279,92765,5,8,0:0:0:0:
224,201,93118,1,0,0:0:0:0:
117,172,93471,1,8,0:0:0:0:
381,165,94176,6,0,B|450:145|456:64,2,110,12|0|8,0:0|0:0|0:0,0:0:0:0:
283,182,95235,1,0,0:0:0:0:
283,182,95411,2,0,B|254:280|354:320,2,165,8|0|8,0:0|0:0|0:0,0:0:0:0:
285,82,96823,6,0,B|269:46|269:46|194:12|133:62,1,165,12|0,0:0|0:0,0:0:0:0:
73,114,97705,2,0,B|28:62|66:-6,2,110,8|0|8,0:0|0:0|0:0,0:0:0:0:
162,156,98764,1,0,0:0:0:0:
162,156,98941,2,0,B|240:220|182:306,1,165,8|0,0:0|0:0,0:0:0:0:
148,335,99647,6,0,B|212:396|302:349,1,165,12|0,0:0|0:0,0:0:0:0:
358,269,100529,2,0,P|395:314|396:373,2,110,8|0|8,0:0|0:0|0:0,0:0:0:0:
263,237,101588,2,0,B|195:208|217:125,1,110
225,101,102117,1,8,0:0:0:0:
302,39,102470,6,0,B|340:20|340:20|411:38|432:112,1,165,12|0,0:0|0:0,0:0:0:0:
372,180,103352,2,0,B|331:230|371:294,1,110,8|0,0:0|0:0,0:0:0:0:
395,321,103882,2,0,B|328:396|236:340,1,165,8|0,0:0|0:0,0:0:0:0:
170,282,104764,2,0,B|118:243|142:168,1,110,8|0,0:0|0:0,0:0:0:0:
159,86,105470,6,0,P|92:90|53:134,2,110,12|0|8,0:0|0:0|0:0,0:0:0:0:
255,131,106529,1,0,0:0:0:0:
255,131,106705,2,0,B|324:36,1,110,8|0,0:0|0:0,0:0:0:0:
411,103,107412,1,0,0:0:0:0:
411,103,107588,2,0,B|339:217,1,110,8|4,0:0|0:0,0:0:0:0:
256,192,108117,12,0,111117,0:0:0:0:
