osu file format v13

[General]
AudioFilename: chu.mp3
AudioLeadIn: 1000
PreviewTime: 80058
Countdown: 0
SampleSet: Soft
StackLeniency: 0.7
Mode: 0
LetterboxInBreaks: 0
WidescreenStoryboard: 1

[Editor]
DistanceSpacing: 1
BeatDivisor: 4
GridSize: 32
TimelineZoom: 1

[Metadata]
Title:Everybody MuCHU de*Osoba ni Angel!!
TitleUnicode:えびばでぃ夢CHUで☆お傍にエンジェル!!
Artist:ave;new project
ArtistUnicode:ave;new project
Creator:mochi
Version:Insane!!
Source:快盗天使ツインエンジェル3
Tags:kosiga
BeatmapID:155398
BeatmapSetID:49674

[Difficulty]
HPDrainRate:6.8
CircleSize:4
OverallDifficulty:7.4
ApproachRate:8.7
SliderMultiplier:1.9
SliderTickRate:2

[Events]
//Background and Video events
0,0,"alacat is naganegi.jpg",0,0
//Break Periods
//Storyboard Layer 0 (Background)
//Storyboard Layer 1 (Fail)
//Storyboard Layer 2 (Pass)
//Storyboard Layer 3 (Foreground)
//Storyboard Sound Samples
//Background Colour Transformations
3,100,55,50,114

[TimingPoints]
-411,352.941176470588,4,2,1,88,1,0
9470,-100,4,2,1,88,0,1
20676,-100,4,2,1,88,0,0
20764,-100,4,2,1,88,0,1
34882,-100,4,2,1,88,0,0
57294,-100,4,2,1,88,0,0
57470,-200,4,2,1,88,0,0
63117,-111.111111111111,4,2,1,88,0,0
63647,-111.111111111111,4,2,1,88,0,0
64352,-111.111111111111,4,2,1,88,0,0
65588,-111.111111111111,4,2,1,88,0,0
65941,-100,4,2,1,88,0,0
68764,-100,4,2,1,88,0,1
79970,-100,4,2,1,88,0,0
80058,-100,4,2,1,88,0,1
94176,-100,4,2,1,88,0,0
107941,-100,4,2,1,88,0,1
108029,-100,4,2,1,75,0,0
109705,-100,4,2,1,60,0,0
110058,-100,4,2,1,45,0,0
110411,-100,4,2,1,30,0,0
110764,-100,4,2,1,15,0,0
111117,-100,4,2,0,5,0,0

[Colours]
Combo1 : 252,122,125
Combo2 : 223,123,234
Combo3 : 107,239,153
Combo4 : 132,191,240

[HitObjects]
214,256,1000,5,0,3:0:0:0:
300,298,1177,1,0,0:0:0:0:
386,263,1353,2,0,B|442:243|447:182,1,95,0|0,1:0|3:0,0:0:0:0:
447,102,1706,5,0,0:0:0:0:
512,259,1883,1,0,3:0:0:0:
362,178,2059,1,0,1:0:0:0:
428,334,2236,1,0,3:0:0:0:
277,255,2412,2,0,B|220:232|175:259,1,95
112,316,2765,1,0,1:0:0:0:
133,173,2941,6,0,P|95:81|0:50,1,190,0|0,3:0|3:0,0:0:0:0:
21,218,3471,1,2,1:2:0:0:
39,251,3559,1,0,0:2:0:0:
66,277,3647,1,2,3:2:0:0:
102,292,3736,1,0,0:0:0:0:
140,295,3824,2,0,P|192:279|230:227,1,95,0|2,1:0|0:0,0:0:0:0:
195,159,4177,1,2,0:0:0:0:
171,67,4353,2,0,P|197:39|250:23,1,95,0|2,1:0|0:0,0:0:0:0:
448,75,4706,5,2,0:0:0:0:
418,210,4883,1,0,1:0:0:0:
290,159,5059,2,0,L|184:159,1,95,2|0,0:0|0:0,0:0:0:0:
114,107,5412,1,2,0:0:0:0:
63,187,5588,2,0,P|55:231|77:283,1,95,2|0,0:0|1:0,0:0:0:0:
314,308,5941,5,2,0:0:0:0:
265,197,6118,1,2,1:2:0:0:
145,222,6294,2,0,P|87:218|39:173,1,95,2|0,1:2|0:0,0:0:0:0:
99,44,6647,2,0,P|157:48|205:93,1,95,0|0,1:0|0:0,0:0:0:0:
211,96,6912,1,0,0:0:0:0:
234,126,7000,2,0,P|263:145|322:150,1,95,0|0,0:0|1:0,0:0:0:0:
408,110,7353,5,0,1:0:0:0:
351,241,7530,1,2,0:2:0:0:
322,150,7706,1,0,1:0:0:0:
265,281,7883,1,2,0:2:0:0:
140,213,8059,1,2,1:2:0:0:
97,208,8147,1,2,0:2:0:0:
56,218,8236,1,2,1:2:0:0:
22,243,8324,1,2,0:2:0:0:
0,279,8412,2,0,L|50:360,1,95,2|2,1:2|1:2,0:0:0:0:
172,306,8765,5,2,1:2:0:0:
205,120,8941,1,2,1:2:0:0:
352,241,9118,1,10,1:2:0:0:
487,37,9471,6,0,P|479:79|527:152,1,95,4|0,1:2|0:0,0:0:0:0:
384,195,9824,2,0,P|434:203|467:230,1,95,8|0,1:2|3:0,0:0:0:0:
381,63,10177,2,0,P|329:114|218:118,1,190,0|8,3:0|1:2,0:0:0:0:
70,39,10706,5,2,1:2:0:0:
65,187,10883,1,0,0:0:0:0:
157,70,11059,1,2,0:2:0:0:
14,111,11236,1,8,1:2:0:0:
153,162,11412,2,0,P|184:202|186:258,1,95,2|0,0:2|3:0,0:0:0:0:
168,337,11765,5,10,1:2:0:0:
281,264,11941,1,10,1:2:0:0:
362,370,12118,2,0,P|458:348|495:243,1,190,4|0,1:2|0:0,0:0:0:0:
498,176,12647,1,10,1:2:0:0:
481,146,12736,1,0,2:2:0:0:
465,116,12824,1,2,3:2:0:0:
448,86,12912,1,0,2:2:0:0:
432,56,13000,2,0,L|310:56,1,95,2|0,3:2|0:0,0:0:0:0:
151,216,13353,6,0,P|199:200|228:153,1,95,8|0,1:2|0:0,0:0:0:0:
244,74,13706,1,2,1:2:0:0:
318,227,13883,1,0,3:0:0:0:
338,135,14059,2,0,P|363:100|412:85,1,95,8|2,1:2|0:2,0:0:0:0:
421,279,14412,5,2,3:2:0:0:
405,302,14500,1,0,2:2:0:0:
384,321,14588,1,10,1:2:0:0:
359,335,14677,1,0,2:2:0:0:
331,342,14765,1,10,1:2:0:0:
303,342,14853,1,0,2:2:0:0:
275,335,14941,2,0,P|223:302|207:262,1,95,4|0,1:2|3:0,0:0:0:0:
193,179,15294,5,0,3:0:0:0:
111,298,15471,2,0,P|59:334|11:335,1,95,8|0,1:2|0:0,0:0:0:0:
0,181,15824,2,0,P|52:145|100:144,1,95,0|0,3:0|3:0,0:0:0:0:
114,149,16088,1,0,0:0:0:0:
146,154,16177,2,0,P|176:150|228:114,1,95,8|0,1:2|3:0,0:0:0:0:
270,29,16530,5,2,1:2:0:0:
308,165,16706,1,2,0:2:0:0:
308,44,16883,1,8,1:2:0:0:
346,180,17059,1,2,0:2:0:0:
483,141,17236,5,0,3:0:0:0:
346,180,17412,1,10,1:2:0:0:
512,278,17588,1,10,1:2:0:0:
375,317,17765,2,0,P|327:356|307:412,1,95,4|0,1:2|0:0,0:0:0:0:
114,299,18118,5,0,3:0:0:0:
209,368,18294,1,8,1:2:0:0:
218,252,18471,1,0,0:0:0:0:
171,159,18647,5,0,3:0:0:0:
320,268,18824,1,0,3:0:0:0:
334,86,19000,2,0,L|462:85,1,95,8|0,1:2|0:0,0:0:0:0:
512,168,19353,5,2,3:2:0:0:
504,196,19441,1,0,2:0:0:0:
490,222,19530,1,2,3:2:0:0:
468,241,19618,1,0,2:0:0:0:
442,253,19706,1,10,1:2:0:0:
413,255,19794,1,0,2:0:0:0:
384,248,19883,2,0,P|335:251|274:311,1,95,2|2,3:2|3:2,0:0:0:0:
251,358,20236,5,8,1:2:0:0:
205,220,20412,2,0,P|177:183|128:162,1,95,8|0,1:2|3:0,0:0:0:0:
105,160,20677,1,0,3:0:0:0:
76,158,20765,2,0,P|32:137|4:100,1,95,4|0,1:2|0:0,0:0:0:0:
71,33,21118,5,8,1:2:0:0:
59,245,21294,1,0,0:0:0:0:
232,123,21471,2,0,P|325:111|408:206,1,190,0|8,3:0|1:2,0:0:0:0:
512,117,22000,6,0,P|485:162|484:204,1,95,2|0,1:2|0:0,0:0:0:0:
509,295,22353,1,2,3:2:0:0:
370,185,22530,1,8,1:2:0:0:
395,276,22706,2,0,P|393:317|366:362,1,95,2|2,0:2|3:2,0:0:0:0:
189,300,23059,2,0,P|191:259|218:214,1,95,10|10,1:2|1:2,0:0:0:0:
117,96,23412,6,0,P|197:132|306:80,1,190,4|0,1:2|0:0,0:0:0:0:
344,22,23941,1,8,1:2:0:0:
369,149,24118,1,0,0:0:0:0:
288,100,24294,1,0,3:0:0:0:
312,227,24471,1,0,3:0:0:0:
182,226,24647,6,0,P|136:240|89:313,1,95,8|0,1:2|3:0,0:0:0:0:
195,384,25000,2,0,P|240:369|287:296,1,95,2|2,1:2|3:2,0:0:0:0:
285,305,25265,1,0,0:0:0:0:
298,274,25353,2,0,P|330:241|376:226,1,95,8|2,1:2|0:2,0:0:0:0:
489,239,25706,5,2,3:2:0:0:
500,207,25794,1,0,0:0:0:0:
502,174,25883,1,10,1:2:0:0:
495,142,25971,1,0,0:0:0:0:
479,113,26059,1,10,1:2:0:0:
456,89,26147,1,0,0:0:0:0:
428,72,26236,2,0,P|343:125|240:77,1,190,4|0,1:2|3:0,0:0:0:0:
194,33,26765,5,8,1:2:0:0:
194,33,26941,1,2,0:2:0:0:
210,180,27118,1,0,3:0:0:0:
210,180,27294,1,2,3:2:0:0:
63,169,27471,1,8,1:2:0:0:
63,169,27647,2,0,B|-25:243|42:348,1,190,4|0,1:2|3:0,0:0:0:0:
126,369,28177,6,0,B|213:319,1,95,8|2,1:2|0:2,0:0:0:0:
210,180,28530,2,0,B|297:230,1,95,0|10,0:0|3:2,0:0:0:0:
359,353,28883,1,10,1:2:0:0:
396,349,28971,1,0,0:0:0:0:
430,333,29059,1,2,3:2:0:0:
456,306,29147,1,0,0:0:0:0:
471,271,29236,2,0,P|470:225|406:167,1,95,4|0,1:2|0:0,0:0:0:0:
430,37,29588,6,0,P|399:105|263:121,1,190,8|0,1:2|3:2,0:0:0:0:
178,91,30118,1,0,3:0:0:0:
211,180,30294,2,0,P|211:232|181:280,1,95,8|2,1:2|1:2,0:0:0:0:
7,355,30647,5,0,3:0:0:0:
58,230,30824,1,2,1:2:0:0:
171,303,31000,2,0,L|276:303,1,95,10|0,1:2|0:0,0:0:0:0:
386,361,31353,6,0,B|447:343,3,47.5,0|0|8|0,0:0|0:0|1:2|0:0,0:0:0:0:
486,254,31706,2,0,B|425:272,3,47.5,8|0|0|0,1:2|2:0|2:0|2:0,0:0:0:0:
367,223,32059,2,0,P|314:217|272:163,1,95,4|0,1:2|0:0,0:0:0:0:
269,160,32324,1,0,0:0:0:0:
255,129,32412,2,0,P|224:102|171:96,1,95,0|0,0:0|1:0,0:0:0:0:
80,123,32765,5,4,1:2:0:0:
206,18,32941,1,0,3:0:0:0:
188,181,33118,1,0,3:0:0:0:
314,77,33294,1,0,3:0:0:0:
415,204,33471,5,2,1:2:0:0:
423,236,33559,1,0,2:0:0:0:
422,269,33647,1,2,3:2:0:0:
413,300,33736,1,0,2:0:0:0:
396,329,33824,1,2,1:2:0:0:
371,351,33912,1,0,2:0:0:0:
341,366,34000,1,2,3:2:0:0:
309,372,34088,1,0,2:0:0:0:
276,370,34177,2,0,L|202:289,1,95,4|0,1:2|0:0,0:0:0:0:
178,300,34441,1,0,0:0:0:0:
144,300,34530,2,0,L|69:218,1,95,0|0,1:0|0:0,0:0:0:0:
61,64,34883,5,0,3:0:0:0:
126,134,35059,1,2,0:2:0:0:
179,55,35236,2,0,P|222:32|292:46,1,95,0|2,1:2|3:2,0:0:0:0:
338,191,35588,2,0,P|295:214|225:200,1,95,2|0,0:2|3:0,0:0:0:0:
219,199,35853,1,0,0:0:0:0:
187,188,35941,2,0,P|141:186|98:209,1,95,2|2,1:2|3:2,0:0:0:0:
42,285,36294,5,2,0:2:0:0:
29,144,36471,1,2,3:2:0:0:
13,311,36647,1,0,1:2:0:0:
0,170,36824,1,2,0:2:0:0:
140,187,37000,5,0,3:0:0:0:
221,70,37177,1,0,3:0:0:0:
253,271,37353,1,0,1:2:0:0:
334,154,37530,2,0,P|380:130|443:144,1,95,4|0,3:2|0:0,0:0:0:0:
508,275,37883,5,2,3:2:0:0:
388,341,38059,1,0,1:0:0:0:
393,208,38236,1,2,3:2:0:0:
470,292,38412,5,0,3:0:0:0:
350,358,38588,1,2,3:2:0:0:
355,225,38765,1,0,1:0:0:0:
235,291,38941,2,0,P|160:296|77:210,1,190,2|0,3:2|0:0,0:0:0:0:
130,23,39471,5,0,1:0:0:0:
129,22,39647,2,0,P|188:83|189:184,1,190,0|0,3:0|3:0,0:0:0:0:
298,247,40177,1,0,1:0:0:0:
298,247,40265,1,0,0:0:0:0:
298,247,40353,2,0,P|255:248|213:276,1,95,4|0,3:2|0:0,0:0:0:0:
163,357,40706,5,2,3:2:0:0:
132,226,40883,1,0,1:0:0:0:
1,253,41059,1,2,3:2:0:0:
106,141,41236,5,2,0:2:0:0:
222,215,41412,1,2,3:2:0:0:
287,93,41588,2,0,L|386:93,1,95,0|2,1:0|3:2,0:0:0:0:
482,246,41941,5,2,0:2:0:0:
376,183,42118,1,2,3:2:0:0:
418,351,42294,1,0,1:0:0:0:
312,288,42471,2,0,P|259:291|209:326,1,95,2|0,3:2|3:0,0:0:0:0:
105,289,42824,1,2,0:2:0:0:
132,269,42912,1,0,0:0:0:0:
150,241,43000,1,2,1:2:0:0:
157,209,43088,1,0,0:0:0:0:
154,176,43177,2,0,P|131:130|76:106,1,95,4|0,3:2|0:0,0:0:0:0:
0,94,43530,5,2,0:2:0:0:
131,20,43706,1,0,3:0:0:0:
94,109,43883,1,2,3:2:0:0:
225,35,44059,1,2,0:2:0:0:
299,166,44236,1,0,3:2:0:0:
168,240,44412,2,0,P|146:290|158:343,1,95,0|2,1:0|3:2,0:0:0:0:
246,384,44765,6,0,L|343:353,1,95,4|0,1:2|1:0,0:0:0:0:
430,216,45118,2,0,L|333:247,1,95,4|0,1:2|1:0,0:0:0:0:
183,185,45471,2,0,L|280:154,1,95,4|0,1:2|1:0,0:0:0:0:
317,23,45824,5,0,1:0:0:0:
354,26,45912,1,0,1:0:0:0:
389,42,46000,1,0,1:0:0:0:
417,67,46088,1,0,1:0:0:0:
435,100,46177,2,0,P|438:147|404:205,1,95,0|2,3:0|3:2,0:0:0:0:
424,307,46530,2,0,P|377:302|325:259,1,95,0|0,1:0|0:0,0:0:0:0:
246,97,46883,5,0,3:0:0:0:
162,138,47059,1,2,3:2:0:0:
116,220,47236,1,0,1:0:0:0:
126,313,47412,1,2,0:2:0:0:
188,383,47588,1,2,3:2:0:0:
188,383,47765,2,0,L|293:348,1,95,2|0,0:2|1:0,0:0:0:0:
378,376,48118,2,0,L|418:264,1,95,2|0,0:2|3:0,0:0:0:0:
512,225,48471,5,2,3:2:0:0:
496,180,48559,1,0,0:0:0:0:
463,146,48647,1,2,1:2:0:0:
419,130,48736,1,0,0:0:0:0:
372,134,48824,2,0,L|302:214,1,95,4|0,3:2|3:0,0:0:0:0:
318,300,49177,1,2,0:2:0:0:
215,198,49353,1,0,1:0:0:0:
150,382,49530,5,2,0:2:0:0:
269,300,49706,1,2,3:2:0:0:
166,198,49883,2,0,P|145:141|172:81,1,95,2|0,3:2|1:0,0:0:0:0:
298,46,50236,5,2,3:2:0:0:
297,193,50412,1,0,3:0:0:0:
384,73,50588,1,2,0:2:0:0:
242,119,50765,1,2,1:2:0:0:
385,165,50941,2,0,P|420:202|427:280,1,95,2|0,0:2|3:0,0:0:0:0:
408,344,51294,5,2,3:2:0:0:
375,351,51383,1,0,0:0:0:0:
343,358,51471,1,2,1:2:0:0:
310,365,51559,1,0,0:0:0:0:
278,372,51647,2,0,L|187:292,1,95,4|0,3:2|3:0,0:0:0:0:
230,217,52000,1,2,0:2:0:0:
120,184,52177,1,0,1:0:0:0:
60,281,52353,1,2,0:2:0:0:
84,105,52530,5,0,3:0:0:0:
194,138,52706,1,2,3:2:0:0:
254,41,52883,2,0,P|303:23|356:41,1,95,2|0,1:2|3:0,0:0:0:0:
392,195,53236,2,0,P|343:213|290:195,1,95,2|0,0:2|3:0,0:0:0:0:
194,138,53588,5,2,1:2:0:0:
213,230,53765,2,0,P|203:284|164:327,1,95,2|0,0:2|3:0,0:0:0:0:
150,332,54030,1,0,0:0:0:0:
120,346,54118,2,0,L|21:296,1,95,2|0,3:2|1:0,0:0:0:0:
23,127,54471,2,0,B|111:172,1,95,4|0,0:2|3:0,0:0:0:0:
213,230,54824,5,2,0:2:0:0:
193,85,55000,1,0,1:0:0:0:
339,67,55177,1,2,0:2:0:0:
166,115,55353,5,0,3:0:0:0:
312,97,55530,1,2,3:2:0:0:
186,260,55706,1,0,1:0:0:0:
332,242,55883,2,0,P|421:278|440:381,1,190,0|2,3:0|0:2,0:0:0:0:
275,311,56412,6,0,P|242:256|257:198,1,95,0|2,1:0|3:2,0:0:0:0:
255,195,56677,1,0,0:0:0:0:
266,163,56765,2,0,P|267:134|234:79,1,95,2|0,3:2|3:0,0:0:0:0:
41,104,57118,5,2,1:2:0:0:
60,141,57206,1,2,0:2:0:0:
95,165,57294,1,2,3:2:0:0:
137,170,57383,1,2,0:2:0:0:
177,155,57471,2,0,L|244:66,1,95,4|2,3:2|0:2,0:0:0:0:
345,209,58177,2,0,B|276:300,1,95,0|2,3:0|1:2,0:0:0:0:
287,361,58706,1,0,3:0:0:0:
212,372,58883,2,0,P|155:359|126:313,1,95,2|0,3:2|0:0,0:0:0:0:
132,332,59412,1,2,3:2:0:0:
41,113,59765,5,2,3:2:0:0:
64,185,59941,1,2,1:2:0:0:
129,147,60118,2,0,P|176:143|220:179,1,95,4|0,3:2|0:0,0:0:0:0:
243,239,60647,2,0,B|220:302,1,47.5,2|0,0:2|3:0,0:0:0:0:
327,238,61000,2,0,B|349:174,1,47.5,2|0,3:2|0:0,0:0:0:0:
203,205,61353,6,0,B|180:268,1,47.5,2|0,1:2|0:0,0:0:0:0:
287,204,61706,2,0,B|309:140,1,47.5,2|0,3:2|0:0,0:0:0:0:
265,93,62059,1,0,3:0:0:0:
315,36,62236,2,0,P|367:22|414:37,1,95,2|0,3:2|3:0,0:0:0:0:
405,32,62677,1,0,3:0:0:0:
405,32,62765,1,0,1:0:0:0:
449,308,63118,5,4,1:2:0:0:
348,262,63294,1,0,3:0:0:0:
307,365,63471,1,0,1:0:0:0:
348,262,63647,2,0,P|335:211|282:171,1,85.4999973907472,0|0,3:0|0:0,0:0:0:0:
351,90,64000,2,0,P|302:71|239:91,1,85.4999973907472,0|0,3:0|3:0,0:0:0:0:
244,109,64265,1,0,3:0:0:0:
219,143,64353,2,0,P|145:129|121:34,1,170.999994781494,4|0,1:2|1:0,0:0:0:0:
117,46,64883,1,0,1:0:0:0:
470,112,65236,5,0,1:0:0:0:
423,329,65588,1,0,1:0:0:0:
256,179,65941,2,0,P|160:165|85:247,1,190,4|0,3:2|1:0,0:0:0:0:
61,311,66471,5,0,1:0:0:0:
46,138,66647,1,0,1:2:0:0:
187,252,66824,1,0,3:0:0:0:
172,80,67000,1,0,1:0:0:0:
313,194,67177,2,0,P|362:203|404:191,1,95,0|0,1:0|3:0,0:0:0:0:
475,129,67530,5,0,1:0:0:0:
460,267,67706,1,0,1:0:0:0:
404,191,67883,1,0,3:0:0:0:
389,329,68059,1,2,0:2:0:0:
369,349,68147,1,2,0:2:0:0:
346,366,68236,1,2,0:2:0:0:
320,377,68324,1,2,0:2:0:0:
292,382,68412,1,2,0:2:0:0:
263,380,68500,1,2,0:2:0:0:
236,373,68588,1,2,0:2:0:0:
210,360,68677,1,2,0:2:0:0:
188,342,68765,6,0,P|206:291|188:235,1,95,4|0,1:2|0:0,0:0:0:0:
152,168,69118,1,8,1:2:0:0:
319,250,69294,1,0,3:0:0:0:
272,165,69471,2,0,P|278:72|357:18,1,190,0|8,3:0|1:2,0:0:0:0:
458,143,70000,6,0,P|406:146|371:125,1,95,2|0,3:2|3:0,0:0:0:0:
307,54,70353,1,2,3:2:0:0:
303,192,70530,1,8,1:2:0:0:
167,173,70706,2,0,P|114:189|82:244,1,95,2|0,0:2|3:0,0:0:0:0:
197,340,71059,2,0,P|250:324|282:269,1,95,10|10,1:2|1:2,0:0:0:0:
444,328,71412,6,0,P|358:276|350:171,1,190,4|0,1:2|0:0,0:0:0:0:
369,100,71941,1,8,1:2:0:0:
248,183,72118,1,0,3:0:0:0:
170,61,72294,2,0,P|122:41|64:54,1,95,0|0,3:0|0:0,0:0:0:0:
2,240,72647,5,8,1:2:0:0:
123,157,72824,1,0,3:0:0:0:
201,279,73000,2,0,P|249:299|307:286,1,95,2|2,1:2|0:2,0:0:0:0:
321,280,73265,1,0,0:2:0:0:
351,266,73353,2,0,P|392:260|440:280,1,95,8|2,1:2|0:2,0:0:0:0:
510,198,73706,5,2,3:2:0:0:
512,160,73794,1,0,0:2:0:0:
504,122,73883,1,10,3:2:0:0:
486,90,73971,1,0,0:2:0:0:
458,65,74059,1,10,3:2:0:0:
423,48,74147,1,0,0:2:0:0:
385,45,74236,2,0,L|309:117,1,95,4|0,1:2|3:0,0:0:0:0:
336,202,74588,5,0,3:0:0:0:
225,129,74765,2,0,P|174:128|132:155,1,95,8|0,1:2|0:0,0:0:0:0:
120,178,75030,1,0,0:0:0:0:
100,204,75118,2,0,P|62:225|11:225,1,95,0|0,3:0|0:0,0:0:0:0:
142,345,75471,2,0,P|179:323|230:323,1,95,8|0,1:2|3:0,0:0:0:0:
318,358,75824,5,2,3:2:0:0:
269,237,76000,1,2,0:2:0:0:
368,365,76177,1,8,1:2:0:0:
319,244,76353,2,0,P|318:189|351:141,1,95,2|0,3:2|0:0,0:0:0:0:
470,20,76706,5,10,3:2:0:0:
421,156,76883,1,10,1:2:0:0:
299,78,77059,2,0,P|228:64|133:147,1,190,4|0,1:2|0:0,0:0:0:0:
9,190,77588,6,0,P|60:194|97:268,1,95,8|0,1:2|3:0,0:0:0:0:
102,253,77853,1,0,0:0:0:0:
116,283,77941,2,0,P|145:311|197:316,1,95,0|0,3:0|3:0,0:0:0:0:
296,384,78294,2,0,P|324:355|329:303,1,95,8|0,1:2|3:0,0:0:0:0:
251,199,78647,5,2,1:2:0:0:
251,165,78736,1,0,0:0:0:0:
261,134,78824,1,2,3:2:0:0:
279,106,78912,1,0,0:0:0:0:
303,83,79000,1,10,1:2:0:0:
332,68,79088,1,0,0:0:0:0:
365,61,79177,1,2,3:2:0:0:
398,63,79265,1,0,0:0:0:0:
429,73,79353,2,0,L|475:176,1,95,2|8,0:2|1:2,0:0:0:0:
437,323,79706,2,0,L|391:220,1,95,8|0,1:2|0:0,0:0:0:0:
255,151,80059,6,0,P|187:139|113:225,1,190,4|8,1:2|1:2,0:0:0:0:
131,315,80588,1,0,3:0:0:0:
24,255,80765,2,0,P|39:287|28:343,2,95,0|0|8,3:0|0:0|1:2,0:0:0:0:
0,143,81294,5,2,1:2:0:0:
25,109,81383,1,0,0:0:0:0:
63,89,81471,1,2,0:2:0:0:
105,85,81559,1,0,0:0:0:0:
145,98,81647,2,0,P|199:105|261:67,1,95,2|8,3:2|1:2,0:0:0:0:
309,28,82000,1,2,3:2:0:0:
270,205,82177,1,0,3:0:0:0:
342,142,82353,2,0,P|379:127|432:133,1,95,10|10,1:2|1:2,0:0:0:0:
512,322,82706,6,0,P|432:315|397:222,1,190,4|0,1:2|3:0,0:0:0:0:
432,133,83236,1,8,1:2:0:0:
303,213,83412,1,0,0:0:0:0:
221,86,83588,1,0,3:0:0:0:
315,75,83765,5,0,3:0:0:0:
174,169,83941,1,8,1:2:0:0:
303,56,84118,1,0,3:0:0:0:
162,150,84294,2,0,P|109:156|74:137,1,95,4|2,1:2|0:2,0:0:0:0:
0,272,84647,2,0,P|53:266|88:285,1,95,8|2,1:2|0:2,0:0:0:0:
178,367,85000,5,2,3:2:0:0:
207,352,85088,1,0,0:0:0:0:
230,328,85177,1,10,1:2:0:0:
243,297,85265,1,0,0:0:0:0:
247,264,85353,1,10,1:2:0:0:
239,232,85441,1,0,0:0:0:0:
222,204,85530,2,0,P|286:153|400:200,1,190,4|0,1:2|0:0,0:0:0:0:
446,250,86059,5,8,1:2:0:0:
456,118,86236,1,2,3:2:0:0:
425,306,86412,1,0,3:0:0:0:
384,179,86588,1,2,3:2:0:0:
426,365,86765,1,8,1:2:0:0:
340,263,86941,2,0,P|251:243|171:308,1,190,0|0,1:0|0:0,0:0:0:0:
87,366,87471,6,0,L|11:269,1,95,8|2,1:2|3:2,0:0:0:0:
115,203,87824,2,0,B|85:79,1,95,0|10,3:0|3:2,0:0:0:0:
208,66,88177,1,10,1:2:0:0:
241,33,88265,1,0,0:0:0:0:
287,21,88353,1,2,3:2:0:0:
332,33,88441,1,0,0:0:0:0:
366,65,88530,2,0,L|350:163,1,95,4|0,1:2|0:0,0:0:0:0:
408,234,88883,6,0,P|337:302|228:268,1,190,8|0,1:2|0:0,0:0:0:0:
141,182,89412,1,0,3:0:0:0:
167,335,89588,1,8,1:2:0:0:
235,196,89765,1,2,3:2:0:0:
99,269,89941,2,0,P|44:265|0:223,1,95,0|2,0:0|3:2,0:0:0:0:
0,40,90294,5,10,1:2:0:0:
0,40,90471,2,0,P|85:112|78:181,1,190,0|8,3:0|3:2,0:0:0:0:
4,270,91000,1,8,1:2:0:0:
135,366,91177,1,0,3:0:0:0:
187,214,91353,2,0,P|225:179|298:180,1,95,4|0,1:2|3:0,0:0:0:0:
299,177,91618,1,0,0:0:0:0:
331,182,91706,2,0,P|372:174|410:140,1,95,0|0,3:0|1:0,0:0:0:0:
431,46,92059,5,4,1:2:0:0:
497,178,92236,1,0,3:0:0:0:
411,139,92412,1,0,3:0:0:0:
477,271,92588,1,0,1:0:0:0:
347,339,92765,5,2,1:2:0:0:
318,349,92853,1,0,0:0:0:0:
287,354,92941,1,2,3:2:0:0:
256,352,93030,1,0,0:2:0:0:
227,344,93118,1,2,1:2:0:0:
199,330,93206,1,0,0:0:0:0:
175,311,93294,1,2,3:2:0:0:
156,287,93383,1,0,0:2:0:0:
142,259,93471,2,0,L|213:172,1,95,4|0,1:2|0:0,0:0:0:0:
189,157,93736,1,0,0:0:0:0:
177,128,93824,2,0,L|247:40,1,95,4|0,1:2|0:0,0:0:0:0:
430,24,94177,5,0,1:2:0:0:
422,171,94353,1,2,2:2:0:0:
342,48,94530,1,8,1:2:0:0:
480,100,94706,1,2,3:2:0:0:
337,139,94883,2,0,P|301:176|297:246,1,95,4|2,0:2|3:2,0:0:0:0:
403,374,95236,5,8,1:2:0:0:
403,374,95412,2,0,P|438:282|385:219,1,190,6|2,1:2|3:2,0:0:0:0:
292,198,95941,1,8,1:2:0:0:
416,130,96118,1,6,3:2:0:0:
248,187,96294,5,2,3:2:0:0:
372,119,96471,1,2,1:1:0:0:
252,46,96647,1,2,1:1:0:0:
248,187,96824,2,0,P|183:270|76:251,1,190,4|2,0:2|3:2,0:0:0:0:
24,219,97353,1,8,1:2:0:0:
64,356,97530,1,2,0:2:0:0:
46,177,97706,5,6,3:2:0:0:
86,314,97883,1,0,3:0:0:0:
183,140,98059,1,10,1:2:0:0:
223,277,98236,1,4,3:2:0:0:
430,93,98412,5,2,3:2:0:0:
390,230,98588,1,2,0:2:0:0:
293,56,98765,1,8,1:2:0:0:
253,193,98941,2,0,L|144:193,1,95,6|0,3:2|0:0,0:0:0:0:
71,119,99294,5,2,1:0:0:0:
36,143,99383,1,2,0:2:0:0:
11,178,99471,1,2,1:0:0:0:
0,218,99559,1,2,0:2:0:0:
0,261,99647,1,4,3:2:0:0:
15,301,99736,1,2,0:2:0:0:
43,333,99824,2,0,L|144:318,1,95,0|2,3:0|0:2,0:0:0:0:
231,384,100177,2,0,L|276:292,1,95,8|2,1:2|0:2,0:0:0:0:
380,259,100530,2,0,L|331:169,1,95,4|2,3:2|3:2,0:0:0:0:
160,33,100883,5,8,1:2:0:0:
160,33,101059,2,0,P|137:123|227:201,1,190,6|2,0:2|3:2,0:0:0:0:
285,220,101588,1,8,1:2:0:0:
157,281,101765,1,6,3:2:0:0:
328,239,101941,5,2,3:2:0:0:
200,300,102118,1,2,1:0:0:0:
316,381,102294,1,2,1:0:0:0:
328,239,102471,2,0,P|404:154|495:161,1,190,4|0,1:2|0:0,0:0:0:0:
399,312,103000,5,10,1:2:0:0:
363,334,103088,1,0,0:0:0:0:
321,340,103177,1,2,3:2:0:0:
280,329,103265,1,0,0:0:0:0:
248,301,103353,2,0,P|204:286|138:312,1,95,2|0,3:2|0:0,0:0:0:0:
81,353,103706,1,8,1:2:0:0:
116,210,103883,5,4,1:2:0:0:
0,162,104059,1,0,3:0:0:0:
100,86,104236,1,2,3:2:0:0:
116,210,104412,2,0,L|226:210,1,95,10|0,1:2|0:0,0:0:0:0:
322,106,104765,6,0,L|373:125,3,47.5,0|0|0|0,0:0|0:0|1:0|0:0,0:0:0:0:
415,216,105118,2,0,L|363:196,3,47.5,0|0|0|0,1:0|0:0|0:0|0:0,0:0:0:0:
300,252,105471,2,0,P|249:251|197:304,1,95,0|2,1:0|0:2,0:0:0:0:
199,302,105736,1,0,0:0:0:0:
186,332,105824,2,0,P|150:355|99:354,1,95,0|2,0:0|1:2,0:0:0:0:
27,188,106177,5,2,1:2:0:0:
122,268,106353,1,2,0:2:0:0:
106,94,106530,1,0,0:0:0:0:
201,173,106706,2,0,P|239:189|321:163,1,95,2|0,1:2|0:0,0:0:0:0:
372,133,107059,5,2,1:2:0:0:
341,265,107236,1,2,0:2:0:0:
397,160,107412,1,0,1:0:0:0:
366,292,107588,1,0,1:0:0:0:
106,94,107941,5,4,1:2:0:0:
256,192,108118,12,0,111118,0:0:0:0:
