osu file format v13

[General]
AudioFilename: chu.mp3
AudioLeadIn: 1000
PreviewTime: 80058
Countdown: 0
SampleSet: Soft
StackLeniency: 0.7
Mode: 0
LetterboxInBreaks: 0
WidescreenStoryboard: 0

[Editor]
DistanceSpacing: 1
BeatDivisor: 4
GridSize: 32
TimelineZoom: 1.4

[Metadata]
Title:Everybody MuCHU de*Osoba ni Angel!!
TitleUnicode:えびばでぃ夢CHUで☆お傍にエンジェル!!
Artist:ave;new project
ArtistUnicode:ave;new project
Creator:mochi
Version:Hard!!
Source:快盗天使ツインエンジェル3
Tags:kosiga
BeatmapID:155397
BeatmapSetID:49674

[Difficulty]
HPDrainRate:5
CircleSize:4
OverallDifficulty:6
ApproachRate:8
SliderMultiplier:1.8
SliderTickRate:2

[Events]
//Background and Video events
0,0,"alacat is naganegi.jpg",0,0
Video,0,"video.avi"
//Break Periods
//Storyboard Layer 0 (Background)
//Storyboard Layer 1 (Fail)
//Storyboard Layer 2 (Pass)
//Storyboard Layer 3 (Foreground)
//Storyboard Sound Samples
//Background Colour Transformations
3,100,55,50,114

[TimingPoints]
-411,352.941176470588,4,2,2,85,1,0
9470,-100,4,2,2,85,0,1
20676,-100,4,2,2,85,0,0
20764,-100,4,2,2,85,0,1
34882,-100,4,2,2,85,0,0
57470,-200,4,2,2,72,0,0
63117,-125,4,2,2,75,0,0
63647,-125,4,2,2,78,0,0
64352,-125,4,2,2,81,0,0
65588,-125,4,2,2,83,0,0
65941,-100,4,2,2,85,0,0
68764,-100,4,2,2,85,0,1
79970,-100,4,2,2,85,0,0
80058,-100,4,2,2,85,0,1
94176,-100,4,2,2,85,0,0
107941,-100,4,2,2,85,0,1
108029,-100,4,2,2,75,0,0
109705,-100,4,2,2,60,0,0
110058,-100,4,2,2,45,0,0
110411,-100,4,2,2,30,0,0
110764,-100,4,2,2,15,0,0
111117,-100,4,2,0,5,0,0

[Colours]
Combo1 : 252,122,125
Combo2 : 223,123,234
Combo3 : 107,239,153
Combo4 : 132,191,240

[HitObjects]
112,365,1000,6,0,B|165:359|185:302,1,90,4|0,0:0|0:0,0:0:0:0:
139,245,1353,1,8,0:0:0:0:
98,175,1530,1,0,0:0:0:0:
178,175,1706,2,0,B|231:169|251:112,1,90,0|0,0:0|0:0,0:0:0:0:
256,35,2059,5,8,0:0:0:0:
338,126,2236,1,0,0:0:0:0:
410,29,2412,2,0,P|466:28|502:59,1,90,0|0,0:0|0:0,0:0:0:0:
512,230,2765,1,8,0:0:0:0:
512,230,2941,2,0,P|454:208|441:96,1,180,0|8,0:0|0:0,0:0:0:0:
437,101,3471,1,8,0:0:0:0:
33,74,3824,5,4,0:0:0:0:
64,147,4000,1,0,0:0:0:0:
95,222,4177,1,8,0:0:0:0:
145,158,4353,2,0,P|242:143|292:224,1,180,4|0,0:0|0:0,0:0:0:0:
241,345,4883,5,12,0:0:0:0:
354,311,5059,2,0,P|421:213|515:217,1,180,0|0,0:0|0:0,0:0:0:0:
474,204,5588,1,8,0:0:0:0:
231,107,5941,6,0,B|267:153|233:210,1,90,0|0,0:0|0:0,0:0:0:0:
156,79,6294,2,0,P|220:28|308:90,2,180,8|4|8,0:0|0:0|0:0,0:0:0:0:
137,159,7177,1,0,0:0:0:0:
170,233,7353,2,0,B|226:332,1,90,0|0,0:0|0:0,0:0:0:0:
360,318,7706,2,0,B|304:219,1,90,0|0,0:0|0:0,0:0:0:0:
356,155,8059,5,0,0:0:0:0:
222,116,8236,1,0,0:0:0:0:
343,111,8412,1,8,0:0:0:0:
209,72,8588,1,0,0:0:0:0:
170,232,8765,5,0,0:0:0:0:
222,116,8941,1,8,0:0:0:0:
95,130,9118,1,8,0:0:0:0:
457,283,9471,5,4,0:0:0:0:
381,314,9647,1,0,0:0:0:0:
305,282,9824,1,8,0:0:0:0:
275,207,10000,1,0,0:0:0:0:
306,131,10177,2,0,P|294:69|162:59,1,180,0|8,0:0|0:0,0:0:0:0:
160,112,10706,5,0,0:0:0:0:
113,45,10883,1,0,0:0:0:0:
80,120,11059,1,0,0:0:0:0:
47,195,11236,2,0,L|100:282,2,90,8|0|0,0:0|0:0|0:0,0:0:0:0:
113,45,11765,5,8,0:0:0:0:
171,139,11941,1,8,0:0:0:0:
229,232,12118,2,0,P|327:242|374:159,1,180,4|0,0:0|0:0,0:0:0:0:
486,130,12647,6,0,P|444:122|404:56,1,90,8|0,0:0|0:0,0:0:0:0:
345,11,13000,2,0,P|316:52|248:68,1,90,0|0,0:0|0:0,0:0:0:0:
247,184,13353,2,0,P|208:150|148:151,1,90,8|0,0:0|0:0,0:0:0:0:
83,230,13706,5,0,0:0:0:0:
52,105,13883,1,0,0:0:0:0:
117,242,14059,1,8,0:0:0:0:
86,117,14236,2,0,L|144:32,1,90,0|0,0:0|0:0,0:0:0:0:
287,10,14588,5,8,0:0:0:0:
325,81,14765,1,8,0:0:0:0:
366,151,14941,2,0,P|340:190|284:209,1,90,4|0,0:0|0:0,0:0:0:0:
205,169,15294,1,0,0:0:0:0:
158,262,15471,2,0,L|236:365,1,90,8|0,0:0|0:0,0:0:0:0:
305,372,15824,6,0,P|353:363|383:317,1,90,0|0,0:0|0:0,0:0:0:0:
468,172,16177,2,0,P|420:181|389:226,1,90,8|0,0:0|0:0,0:0:0:0:
458,283,16530,5,0,0:0:0:0:
314,262,16706,1,0,0:0:0:0:
458,282,16883,1,8,0:0:0:0:
314,262,17059,1,0,0:0:0:0:
375,181,17236,5,0,0:0:0:0:
274,169,17412,1,8,0:0:0:0:
234,76,17588,1,8,0:0:0:0:
133,64,17765,2,0,P|68:125|81:245,1,180,0|0,0:0|0:0,0:0:0:0:
44,290,18294,5,8,0:0:0:0:
122,270,18471,1,0,0:0:0:0:
200,249,18647,2,0,P|239:268|258:330,1,90,0|0,0:0|0:0,0:0:0:0:
350,212,19000,2,0,P|311:193|292:131,1,90,8|0,0:0|0:0,0:0:0:0:
347,71,19353,5,0,0:0:0:0:
289,12,19530,1,0,0:0:0:0:
208,12,19706,1,8,0:0:0:0:
150,69,19883,1,0,0:0:0:0:
150,150,20059,2,0,P|98:208|-2:184,1,180,0|8,0:0|0:0,0:0:0:0:
285,169,20765,6,0,P|298:205|378:223,1,90,4|0,0:0|0:0,0:0:0:0:
222,290,21118,2,0,P|209:254|129:236,1,90,8|0,0:0|0:0,0:0:0:0:
66,257,21471,2,0,P|43:178|137:99,1,180,0|8,0:0|0:0,0:0:0:0:
155,12,22000,6,0,P|211:85|326:71,1,180,0|0,0:0|0:0,0:0:0:0:
367,55,22530,1,8,0:0:0:0:
362,135,22706,1,0,0:0:0:0:
356,216,22883,1,0,0:0:0:0:
429,182,23059,2,0,P|486:204|508:245,1,90,8|8,0:0|0:0,0:0:0:0:
405,290,23412,6,0,P|309:290|266:201,1,180,4|0,0:0|0:0,0:0:0:0:
287,147,23941,1,8,0:0:0:0:
182,239,24118,1,0,0:0:0:0:
202,160,24294,2,0,P|193:116|146:71,1,90,0|0,0:0|0:0,0:0:0:0:
29,185,24647,2,0,P|38:229|85:274,1,90,8|0,0:0|0:0,0:0:0:0:
161,325,25000,6,0,B|264:331|264:331,1,90,0|0,0:0|0:0,0:0:0:0:
228,234,25353,2,0,B|331:220|331:220,1,90,8|0,0:0|0:0,0:0:0:0:
276,131,25706,2,0,B|374:97|374:97,2,90,0|0|8,0:0|0:0|0:0,0:0:0:0:
190,45,26236,6,0,P|108:29|63:134,1,180,4|0,0:0|0:0,0:0:0:0:
90,210,26765,2,0,B|-35:178,1,90,8|0,0:0|0:0,0:0:0:0:
49,318,27118,2,0,B|174:350,1,90,0|0,0:0|0:0,0:0:0:0:
226,248,27471,5,8,0:0:0:0:
277,332,27647,2,0,P|355:343|406:241,1,180,0|0,0:0|0:0,0:0:0:0:
389,157,28177,2,0,B|477:202,1,90,8|0,0:0|0:0,0:0:0:0:
460,61,28530,2,0,B|371:15,1,90,0|0,0:0|0:0,0:0:0:0:
275,30,28883,5,8,0:0:0:0:
225,113,29059,1,0,0:0:0:0:
176,197,29236,2,0,P|74:193|37:100,1,180,4|8,0:0|0:0,0:0:0:0:
336,187,29941,2,0,P|438:191|475:284,1,180,0|8,0:0|0:0,0:0:0:0:
179,337,30647,5,0,0:0:0:0:
105,270,30824,1,0,0:0:0:0:
186,258,31000,1,8,0:0:0:0:
110,190,31177,2,0,P|81:124|160:30,1,180,0|8,0:0|0:0,0:0:0:0:
234,34,31706,2,0,B|282:111,1,90,8|0,0:0|0:0,0:0:0:0:
293,201,32059,5,4,0:0:0:0:
371,114,32236,1,0,0:0:0:0:
451,197,32412,2,0,B|407:304,1,90,8|0,0:0|0:0,0:0:0:0:
238,232,32765,5,0,0:0:0:0:
315,144,32941,1,0,0:0:0:0:
396,227,33118,2,0,B|352:334,1,90,8|0,0:0|0:0,0:0:0:0:
182,262,33471,5,0,0:0:0:0:
260,174,33647,1,0,0:0:0:0:
340,258,33824,2,0,B|296:365,1,90,8|0,0:0|0:0,0:0:0:0:
171,352,34177,2,0,P|107:314|115:200,1,180,4|8,0:0|0:0,0:0:0:0:
292,9,34883,6,0,B|441:152,1,180,4|8,0:0|0:0,0:0:0:0:
437,213,35412,1,0,0:0:0:0:
452,292,35588,2,0,P|365:344|295:303,1,180,0|8,0:0|0:0,0:0:0:0:
254,177,36118,5,0,0:0:0:0:
224,253,36294,2,0,P|177:284|135:277,2,90,0|0|8,0:0|0:0|0:0,0:0:0:0:
115,201,36824,2,0,P|65:257|121:365,1,180,0|0,0:0|0:0,0:0:0:0:
224,253,37353,5,8,0:0:0:0:
224,253,37530,2,0,L|305:346,1,90,4|0,0:0|0:0,0:0:0:0:
333,196,37883,2,0,B|261:112,1,90,0|8,0:0|0:0,0:0:0:0:
215,48,38236,1,0,0:0:0:0:
180,140,38412,2,0,P|144:171|92:169,2,90,0|0|8,0:0|0:0|0:0,0:0:0:0:
74,85,38941,6,0,P|20:137|41:239,1,180,0|0,0:0|0:0,0:0:0:0:
110,265,39471,1,8,0:0:0:0:
154,197,39647,2,0,P|240:167|316:251,1,180,0|0,0:0|0:0,0:0:0:0:
301,384,40177,5,8,0:0:0:0:
301,384,40353,2,0,P|231:345|232:238,1,180,4|0,0:0|0:0,0:0:0:0:
309,202,40883,2,0,L|226:141,1,90,8|0,0:0|0:0,0:0:0:0:
232,51,41236,5,0,0:0:0:0:
136,99,41412,1,0,0:0:0:0:
40,149,41588,2,0,P|39:200|86:237,1,90,8|0,0:0|0:0,0:0:0:0:
233,299,41941,2,0,P|234:248|187:211,2,90,0|0|8,0:0|0:0|0:0,0:0:0:0:
137,349,42471,1,0,0:0:0:0:
464,295,42824,5,0,0:0:0:0:
464,295,43177,2,0,P|379:318|306:270,1,180,4|0,0:0|0:0,0:0:0:0:
280,194,43706,1,8,0:0:0:0:
225,254,43883,1,0,0:0:0:0:
170,314,44059,2,0,B|136:346|136:346|49:352|20:252,1,180,0|8,0:0|0:0,0:0:0:0:
0,187,44588,1,0,0:0:0:0:
53,104,44765,6,0,B|138:24,1,90,0|0,0:0|0:0,0:0:0:0:
133,149,45118,2,0,B|235:94,1,90,8|0,0:0|0:0,0:0:0:0:
201,214,45471,2,0,B|314:187,1,90,0|0,0:0|0:0,0:0:0:0:
363,75,45824,6,0,B|444:57,3,45,8|0|0|0,0:0|0:0|0:0|0:0,0:0:0:0:
451,98,46177,2,0,P|468:136|446:192,1,90,4|0,0:0|0:0,0:0:0:0:
469,291,46530,2,0,P|428:301|376:271,1,90,8|0,0:0|0:0,0:0:0:0:
313,148,46883,5,0,0:0:0:0:
270,227,47059,1,0,0:0:0:0:
226,305,47236,2,0,P|143:303|86:188,1,180,8|0,0:0|0:0,0:0:0:0:
152,64,47765,5,0,0:0:0:0:
152,64,47941,1,8,0:0:0:0:
152,64,48118,2,0,P|213:142|174:218,1,180,0|0,0:0|0:0,0:0:0:0:
72,197,48647,1,8,0:0:0:0:
119,289,48824,6,0,P|157:372|264:346,1,180,4|0,0:0|0:0,0:0:0:0:
283,306,49353,1,8,0:0:0:0:
337,366,49530,1,0,0:0:0:0:
384,300,49706,1,0,0:0:0:0:
431,233,49883,2,0,B|370:168,1,90,0|8,0:0|0:0,0:0:0:0:
293,83,50236,5,0,0:0:0:0:
216,189,50412,1,0,0:0:0:0:
216,58,50588,1,0,0:0:0:0:
293,164,50765,1,8,0:0:0:0:
168,124,50941,2,0,P|88:145|54:249,1,180,0|0,0:0|0:0,0:0:0:0:
140,371,51471,5,8,0:0:0:0:
139,370,51647,2,0,P|189:300|151:224,1,180,4|0,0:0|0:0,0:0:0:0:
44,190,52177,2,0,B|118:110,1,90,8|0,0:0|0:0,0:0:0:0:
160,33,52530,5,0,0:0:0:0:
214,93,52706,1,0,0:0:0:0:
334,99,52883,1,8,0:0:0:0:
280,159,53059,1,0,0:0:0:0:
226,219,53236,2,0,P|224:290|336:343,1,180,0|8,0:0|0:0,0:0:0:0:
307,347,53765,1,0,0:0:0:0:
496,121,54118,5,0,0:0:0:0:
496,121,54471,2,0,B|464:90|464:90|388:73|334:135,1,180,4|0,0:0|0:0,0:0:0:0:
288,191,55000,1,8,0:0:0:0:
260,115,55177,1,0,0:0:0:0:
229,39,55353,1,0,0:0:0:0:
180,102,55530,2,0,P|136:121|82:107,1,90,0|8,0:0|0:0,0:0:0:0:
21,172,55883,6,0,P|7:252|105:325,1,180,0|0,0:0|0:0,0:0:0:0:
159,265,56412,1,8,0:0:0:0:
156,361,56588,1,0,0:0:0:0:
245,307,56765,2,0,P|314:304|398:389,1,180,4|8,0:0|0:0,0:0:0:0:
482,125,57471,6,0,P|496:72|478:32,2,90,0|8|0,0:0|0:0|0:0,0:0:0:0:
413,184,58530,1,8,0:0:0:0:
334,142,58883,2,0,P|286:147|251:185,1,90,0|8,0:0|0:0,0:0:0:0:
213,187,59412,2,0,P|174:155|171:99,1,90,0|0,0:0|0:0,0:0:0:0:
110,37,60118,6,0,P|45:37|-3:93,1,135,0|8,0:0|0:0,0:0:0:0:
45,162,61000,1,0,0:0:0:0:
27,250,61353,1,8,0:0:0:0:
72,327,61706,2,0,B|171:304,1,90,0|8,0:0|0:0,0:0:0:0:
198,330,62236,2,0,P|234:274|202:210,1,135,0|8,0:0|0:0,0:0:0:0:
182,40,63118,6,0,P|146:46|92:16,2,72,4|0|8,0:0|0:0|0:0,0:0:0:0:
255,10,63647,2,0,P|307:75|284:143,1,144,4|0,0:0|0:0,0:0:0:0:
231,176,64177,1,8,0:0:0:0:
166,221,64353,2,0,P|156:301|210:347,1,144,4|0,0:0|0:0,0:0:0:0:
197,342,64883,1,8,0:0:0:0:
503,251,65236,5,0,0:0:0:0:
503,251,65588,1,8,0:0:0:0:
503,251,65941,2,0,B|464:215|464:215|391:200|334:287,1,180,4|8,0:0|0:0,0:0:0:0:
351,352,66471,1,0,0:0:0:0:
263,257,66647,6,0,B|164:236,2,90,0|0|8,0:0|0:0|0:0,0:0:0:0:
219,156,67177,2,0,B|121:135,2,90,0|0|0,0:0|0:0|0:0,0:0:0:0:
176,56,67706,2,0,L|-36:12,2,180,8|0|8,0:0|0:0|0:0,0:0:0:0:
429,86,68765,5,4,0:0:0:0:
394,169,68941,2,0,P|397:223|450:261,2,90,0|8|0,0:0|0:0|0:0,0:0:0:0:
501,234,69471,2,0,P|465:322|386:327,1,180,0|8,0:0|0:0,0:0:0:0:
295,378,70000,6,0,B|300:317|219:286,1,90,0|0,0:0|0:0,0:0:0:0:
165,287,70353,1,0,0:0:0:0:
217,224,70530,1,8,0:0:0:0:
269,161,70706,2,0,B|271:119|271:119|228:50|126:83,1,180,0|8,0:0|0:0,0:0:0:0:
27,225,71236,5,8,0:0:0:0:
27,225,71412,2,0,P|97:242|165:136,1,180,4|0,0:0|0:0,0:0:0:0:
150,76,71941,1,8,0:0:0:0:
260,189,72118,1,0,0:0:0:0:
244,94,72294,2,0,P|266:50|330:32,1,90,0|0,0:0|0:0,0:0:0:0:
416,44,72647,5,8,0:0:0:0:
416,44,72824,2,0,B|439:161,1,90,0|0,0:0|0:0,0:0:0:0:
512,194,73177,2,0,B|429:279,1,90,0|8,0:0|0:0,0:0:0:0:
444,358,73530,2,0,B|326:339,1,90,0|0,0:0|0:0,0:0:0:0:
333,226,73883,5,8,0:0:0:0:
272,171,74059,1,8,0:0:0:0:
211,117,74236,2,0,B|168:110|168:110|94:148|102:238,1,180,4|0,0:0|0:0,0:0:0:0:
37,302,74765,2,0,P|82:330|147:315,1,90,8|0,0:0|0:0,0:0:0:0:
205,384,75118,2,0,P|236:349|230:284,1,90,0|0,0:0|0:0,0:0:0:0:
302,224,75471,2,0,P|270:189|205:188,1,90,8|0,0:0|0:0,0:0:0:0:
139,223,75824,5,0,0:0:0:0:
185,93,76000,1,0,0:0:0:0:
300,173,76177,1,8,0:0:0:0:
346,43,76353,2,0,P|441:17|516:82,1,180,0|8,0:0|0:0,0:0:0:0:
490,247,76883,5,8,0:0:0:0:
490,247,77059,2,0,P|395:273|320:208,1,180,0|0,0:0|0:0,0:0:0:0:
303,154,77588,1,8,0:0:0:0:
257,263,77765,1,0,0:0:0:0:
154,207,77941,2,0,P|111:218|77:270,1,90,0|0,0:0|0:0,0:0:0:0:
0,150,78294,2,0,P|43:139|77:87,1,90,8|0,0:0|0:0,0:0:0:0:
94,18,78647,5,0,0:0:0:0:
177,0,78824,1,0,0:0:0:0:
244,41,79000,1,8,0:0:0:0:
262,121,79177,1,0,0:0:0:0:
221,189,79353,2,0,P|213:289|302:336,1,180,0|8,0:0|0:0,0:0:0:0:
512,113,80059,6,0,B|489:73|489:73|405:65|370:125,1,180,4|8,0:0|0:0,0:0:0:0:
394,222,80588,1,0,0:0:0:0:
296,191,80765,2,0,P|284:145|236:114,2,90,0|0|8,0:0|0:0|0:0,0:0:0:0:
168,132,81294,6,0,P|199:50|293:44,1,180,0|0,0:0|0:0,0:0:0:0:
390,29,81824,2,0,B|360:125,1,90,8|0,0:0|0:0,0:0:0:0:
474,159,82177,1,0,0:0:0:0:
390,211,82353,2,0,B|360:307,1,90,8|8,0:0|0:0,0:0:0:0:
282,358,82706,6,0,B|243:380|243:380|159:352|151:266,1,180,4|0,0:0|0:0,0:0:0:0:
167,206,83236,1,8,0:0:0:0:
64,300,83412,1,0,0:0:0:0:
77,220,83588,2,0,P|66:173|26:148,1,90,0|0,0:0|0:0,0:0:0:0:
106,31,83941,2,0,P|117:78|157:103,1,90,8|0,0:0|0:0,0:0:0:0:
224,162,84294,6,0,B|300:54,1,90,0|0,0:0|0:0,0:0:0:0:
333,188,84647,2,0,B|443:116,1,90,8|0,0:0|0:0,0:0:0:0:
424,253,85000,2,0,B|551:228,2,90,0|0|8,0:0|0:0|0:0,0:0:0:0:
344,331,85530,6,0,P|274:383|178:323,1,180,4|0,0:0|0:0,0:0:0:0:
133,254,86059,2,0,B|70:335,1,90,8|0,0:0|0:0,0:0:0:0:
26,197,86412,2,0,B|89:116,1,90,0|0,0:0|0:0,0:0:0:0:
140,12,86765,5,8,0:0:0:0:
195,94,86941,2,0,B|226:127|226:127|309:145|349:70,1,180,0|0,0:0|0:0,0:0:0:0:
425,0,87471,2,0,B|465:87,1,90,8|0,0:0|0:0,0:0:0:0:
389,196,87824,2,0,B|426:277,1,90,0|0,0:0|0:0,0:0:0:0:
369,366,88177,5,8,0:0:0:0:
276,348,88353,1,0,0:0:0:0:
184,329,88530,2,0,B|141:314|141:314|104:244|173:163,1,180,0|8,0:0|0:0,0:0:0:0:
328,55,89236,2,0,B|371:70|371:70|408:140|339:221,1,180,0|8,0:0|0:0,0:0:0:0:
152,33,89941,5,0,0:0:0:0:
62,75,90118,1,0,0:0:0:0:
135,114,90294,1,8,0:0:0:0:
44,157,90471,2,0,P|10:234|70:299,1,180,0|8,0:0|0:0,0:0:0:0:
143,367,91000,2,0,B|193:285,1,90,8|0,0:0|0:0,0:0:0:0:
209,192,91353,5,4,0:0:0:0:
287,279,91530,1,0,0:0:0:0:
367,196,91706,2,0,B|323:89,1,90,8|0,0:0|0:0,0:0:0:0:
154,161,92059,5,0,0:0:0:0:
231,249,92236,1,0,0:0:0:0:
312,166,92412,2,0,B|268:59,1,90,8|0,0:0|0:0,0:0:0:0:
98,131,92765,5,0,0:0:0:0:
176,219,92941,1,0,0:0:0:0:
256,135,93118,2,0,B|212:28,1,90,8|0,0:0|0:0,0:0:0:0:
87,41,93471,2,0,P|23:79|31:193,1,180,4|8,0:0|0:0,0:0:0:0:
464,151,94177,6,0,P|501:180|505:234,1,90,4|0,0:0|0:0,0:0:0:0:
360,311,94530,2,0,P|323:282|319:228,1,90,8|0,0:0|0:0,0:0:0:0:
347,158,94883,1,0,0:0:0:0:
262,172,95059,1,0,0:0:0:0:
178,187,95236,1,8,0:0:0:0:
208,104,95412,6,0,B|220:59|220:59|181:-16|77:19,1,180,0|0,0:0|0:0,0:0:0:0:
21,65,95941,2,0,B|-2:161,1,90,8|0,0:0|0:0,0:0:0:0:
118,173,96294,1,0,0:0:0:0:
42,243,96471,2,0,B|20:335,1,90,8|8,0:0|0:0,0:0:0:0:
114,370,96824,6,0,B|225:413|275:290,1,180,4|0,0:0|0:0,0:0:0:0:
265,226,97353,1,8,0:0:0:0:
340,263,97530,1,0,0:0:0:0:
416,299,97706,2,0,B|462:293|462:293|517:223|461:147,1,180,0|8,0:0|0:0,0:0:0:0:
432,91,98236,5,0,0:0:0:0:
363,146,98412,2,0,P|314:162|277:143,2,90,0|0|8,0:0|0:0|0:0,0:0:0:0:
264,58,98941,2,0,P|197:111|207:197,1,180,0|8,0:0|0:0,0:0:0:0:
330,245,99471,5,8,0:0:0:0:
330,245,99647,2,0,P|340:330|273:384,1,180,4|0,0:0|0:0,0:0:0:0:
178,384,100177,2,0,L|104:281,1,90,8|0,0:0|0:0,0:0:0:0:
41,271,100530,5,0,0:0:0:0:
78,160,100706,1,0,0:0:0:0:
182,213,100883,1,8,0:0:0:0:
219,102,101059,2,0,P|286:61|377:92,1,180
484,86,101588,2,0,B|452:185,1,90,8|0,0:0|0:0,0:0:0:0:
493,267,101941,1,0,0:0:0:0:
367,237,102118,2,0,B|333:336,1,90,8|8,0:0|0:0,0:0:0:0:
261,384,102471,6,0,P|181:360|164:247,1,180,4|0,0:0|0:0,0:0:0:0:
198,195,103000,1,8,0:0:0:0:
63,262,103177,1,0,0:0:0:0:
106,183,103353,2,0,P|105:130|85:99,2,90,0|0|8,0:0|0:0|0:0,0:0:0:0:
0,73,103883,2,0,P|82:10|162:50,1,180,0|0,0:0|0:0,0:0:0:0:
147,32,104412,1,8,0:0:0:0:
467,96,104765,5,0,0:0:0:0:
467,96,105118,1,8,0:0:0:0:
467,96,105471,2,0,P|432:134|445:198,1,90
455,281,105824,2,0,P|406:303|344:267,1,90,8|0,0:0|0:0,0:0:0:0:
332,211,106177,5,0,0:0:0:0:
257,314,106353,1,0,0:0:0:0:
232,165,106530,1,8,0:0:0:0:
158,269,106706,2,0,P|64:286|5:227,1,180
13,132,107236,2,0,L|97:85,1,90,8|0,0:0|0:0,0:0:0:0:
152,7,107588,2,0,L|299:126,1,180,0|4,0:0|0:0,0:0:0:0:
256,192,108118,12,0,111118,0:0:0:0:
