osu file format v12

[General]
AudioFilename: dILEMMA.mp3
AudioLeadIn: 0
PreviewTime: -1
Countdown: 0
SampleSet: None
StackLeniency: 0.7
Mode: 0
LetterboxInBreaks: 1
WidescreenStoryboard: 0

[Editor]
Bookmarks: 308
DistanceSpacing: 0.5
BeatDivisor: 4
GridSize: 4
TimelineZoom: 1

[Metadata]
Title:dILEMMA
TitleUnicode:dILEMMA
Artist:ave;new feat.a.k.a.dRESS
ArtistUnicode:ave;new feat.a.k.a.dRESS
Creator:Meramipop
Version:aMMeLiD
Source:
Tags:a.k.a.dRESS avenew Enlever アンルヴェ
BeatmapID:392604
BeatmapSetID:160722

[Difficulty]
HPDrainRate:3
CircleSize:5
OverallDifficulty:8
ApproachRate:8
SliderMultiplier:1.6
SliderTickRate:1

[Events]
//Background and Video events
0,0,"64504c59252dd42af3b8ad5c033b5bb5c8eab80b.jpg",0,0
//Break Periods
2,15148,46191
//Storyboard Layer 0 (Background)
//Storyboard Layer 1 (Fail)
//Storyboard Layer 2 (Pass)
//Storyboard Layer 3 (Foreground)
//Storyboard Sound Samples
//Background Colour Transformations
3,100,163,162,255

[TimingPoints]
66,468.75,4,1,1,35,1,0
11316,-100,4,1,1,25,0,0
12605,-100,4,1,1,35,0,0
13191,-100,4,1,1,25,0,0

[Colours]
Combo1 : 251,145,187
Combo2 : 249,172,125
Combo3 : 130,238,194
Combo4 : 157,238,255

[HitObjects]
65,100,300,6,0,L|54:129,3,20
65,100,534,2,0,L|160:102,1,80
227,45,925,1,0,0:0:0:0:
240,42,1003,1,0,0:0:0:0:
253,40,1081,1,0,0:0:0:0:
283,46,1159,1,0,0:0:0:0:
296,43,1237,1,0,0:0:0:0:
309,41,1315,1,0,0:0:0:0:
322,38,1394,1,0,0:0:0:0:
361,49,1472,1,0,0:0:0:0:
374,46,1550,1,0,0:0:0:0:
447,72,1706,1,0,0:0:0:0:
459,68,1784,1,0,0:0:0:0:
512,145,1941,2,0,L|502:211,1,53.3333333333333
448,244,2175,1,0,0:0:0:0:
449,257,2253,1,0,0:0:0:0:
450,270,2331,1,0,0:0:0:0:
427,303,2409,1,0,0:0:0:0:
428,316,2487,1,0,0:0:0:0:
429,329,2565,1,0,0:0:0:0:
403,361,2644,2,0,L|372:366,3,26.6666666666667
299,347,2956,2,0,L|268:352,3,26.6666666666667
194,370,3269,1,0,0:0:0:0:
181,366,3347,1,0,0:0:0:0:
92,331,3503,1,0,0:0:0:0:
79,328,3581,1,0,0:0:0:0:
103,294,3737,2,0,L|176:293,1,53.3333333333333
163,282,3972,1,0,0:0:0:0:
170,271,4050,1,0,0:0:0:0:
211,257,4128,1,0,0:0:0:0:
216,244,4206,1,0,0:0:0:0:
221,231,4284,1,0,0:0:0:0:
262,211,4362,1,0,0:0:0:0:
267,198,4441,1,0,0:0:0:0:
272,185,4519,1,0,0:0:0:0:
277,172,4597,1,0,0:0:0:0:
282,159,4675,1,0,0:0:0:0:
316,135,4753,1,0,0:0:0:0:
415,114,4987,1,0,0:0:0:0:
255,82,5144,2,0,B|205:82|205:82|188:91|188:91|142:91,1,106.666666666667
43,48,5691,1,0,0:0:0:0:
43,48,5925,2,0,P|29:90|31:168,1,120
51,199,6394,1,0,0:0:0:0:
228,215,6628,1,0,0:0:0:0:
250,38,6862,1,0,0:0:0:0:
148,121,7097,2,0,P|142:169|151:251,1,120
177,275,7566,2,0,L|179:359,1,80
374,253,8269,1,0,0:0:0:0:
374,253,8503,2,0,B|373:182|373:182|384:158|384:158|385:94,1,160
318,44,9089,1,0,0:0:0:0:
318,44,9206,2,0,L|279:20,1,40
231,90,9441,2,0,B|170:88|170:88|138:73|138:73|72:73,1,160
3,152,10144,1,0,0:0:0:0:
78,234,10378,2,0,B|78:284|78:284|65:317,1,80
118,365,10730,1,0,0:0:0:0:
183,324,10847,1,0,0:0:0:0:
325,336,10964,1,0,0:0:0:0:
338,193,11081,1,0,0:0:0:0:
196,181,11198,1,0,0:0:0:0:
258,223,11316,2,0,P|262:249|262:250,16,20
369,44,12605,1,0,0:0:0:0:
504,93,12956,1,0,0:0:0:0:
504,93,13073,1,0,0:0:0:0:
452,147,13191,2,0,L|417:146,12,20
363,201,14128,2,0,L|278:201,1,80
217,154,14480,1,0,0:0:0:0:
151,200,14597,2,0,P|145:246|154:339,1,120
92,108,46941,6,0,L|72:236,1,120
88,248,47409,1,0,0:0:0:0:
4,180,47644,1,0,0:0:0:0:
168,116,47878,2,0,P|160:72|136:44,1,80
216,168,48347,1,0,0:0:0:0:
232,172,48464,1,0,0:0:0:0:
248,176,48581,1,0,0:0:0:0:
264,180,48698,1,0,0:0:0:0:
280,184,48816,2,0,L|320:172,1,40
336,180,49050,1,0,0:0:0:0:
396,216,49167,1,0,0:0:0:0:
416,204,49284,2,0,P|428:164|420:120,1,80
404,108,49636,2,0,P|448:116|488:108,1,80
500,96,49987,1,0,0:0:0:0:
384,32,50222,1,0,0:0:0:0:
368,28,50339,1,0,0:0:0:0:
352,24,50456,1,0,0:0:0:0:
336,20,50573,1,0,0:0:0:0:
320,16,50691,2,0,L|308:64,1,40
248,92,50925,2,0,L|236:140,1,40
184,180,51159,2,0,B|140:192|104:176|104:176|88:212,1,120
64,228,51628,2,0,L|40:308,1,80
128,360,52097,1,0,0:0:0:0:
144,356,52214,1,0,0:0:0:0:
160,352,52331,1,0,0:0:0:0:
176,348,52448,1,0,0:0:0:0:
192,344,52566,2,0,L|208:380,1,40
256,308,52800,2,0,L|272:344,1,40
320,264,53034,2,0,P|360:276|400:268,1,80
408,256,53386,1,0,0:0:0:0:
468,176,53620,1,0,0:0:0:0:
476,192,53737,1,0,0:0:0:0:
404,124,53972,1,0,0:0:0:0:
388,120,54089,1,0,0:0:0:0:
372,116,54206,1,0,0:0:0:0:
356,112,54323,1,0,0:0:0:0:
340,108,54441,2,0,B|308:120|264:104|264:104|284:88|308:80,1,120
288,96,54909,2,0,L|276:184,1,80
264,184,55261,1,0,0:0:0:0:
196,96,55495,1,0,0:0:0:0:
184,104,55612,1,0,0:0:0:0:
64,32,55847,1,0,0:0:0:0:
72,44,55964,1,0,0:0:0:0:
80,56,56081,1,0,0:0:0:0:
88,68,56198,1,0,0:0:0:0:
96,80,56316,2,0,L|92:124,1,40
76,140,56550,1,0,0:0:0:0:
132,208,56667,1,0,0:0:0:0:
108,228,56784,2,0,P|96:268|104:312,1,80
124,328,57136,2,0,L|208:332,1,80
224,352,57487,1,0,0:0:0:0:
348,296,57722,1,0,0:0:0:0:
332,288,57839,1,0,0:0:0:0:
316,280,57956,1,0,0:0:0:0:
300,272,58073,1,0,0:0:0:0:
284,264,58191,2,0,L|280:220,1,40
356,160,58425,2,0,L|364:212,1,40
444,224,58659,2,0,P|464:180|460:144,1,80
444,128,59011,1,0,0:0:0:0:
352,64,59245,1,0,0:0:0:0:
368,56,59362,1,0,0:0:0:0:
272,64,59597,1,0,0:0:0:0:
256,72,59714,1,0,0:0:0:0:
240,80,59831,1,0,0:0:0:0:
224,88,59948,1,0,0:0:0:0:
208,96,60066,2,0,L|160:96,1,40
140,108,60300,1,0,0:0:0:0:
188,28,60417,1,0,0:0:0:0:
212,52,60534,2,0,P|224:92|216:136,1,80
192,156,60886,2,0,L|280:168,1,80
292,188,61237,1,0,0:0:0:0:
388,108,61472,1,0,0:0:0:0:
396,124,61589,1,0,0:0:0:0:
404,140,61706,1,0,0:0:0:0:
412,156,61823,1,0,0:0:0:0:
420,172,61941,2,0,L|460:156,1,40
504,232,62175,2,0,L|460:228,1,40
408,272,62409,2,0,P|400:312|416:360,1,80
432,364,62761,1,0,0:0:0:0:
