osu file format v14

[General]
AudioFilename: snow_of_love.mp3
AudioLeadIn: 0
PreviewTime: 0
Countdown: 0
SampleSet: Soft
StackLeniency: 0.5
Mode: 0
LetterboxInBreaks: 1
WidescreenStoryboard: 0

[Editor]
DistanceSpacing: 1
BeatDivisor: 4
GridSize: 4
TimelineZoom: 1

[Metadata]
Title:snow of love
TitleUnicode:snow of love
Artist:ave;new feat. Sakura Saori
ArtistUnicode:ave;new feat.佐倉紗織
Creator:[CSGA]Ar3sgice
Version:2333333
Source:
Tags:inlay mix
BeatmapID:851486
BeatmapSetID:390746

[Difficulty]
HPDrainRate:5
CircleSize:4
OverallDifficulty:8
ApproachRate:8
SliderMultiplier:1.6
SliderTickRate:1

[Events]
//Background and Video events
0,0,"sol_bg.jpg",0,0
//Break Periods
2,105284,120073
//Storyboard Layer 0 (Background)
//Storyboard Layer 1 (Fail)
//Storyboard Layer 2 (Pass)
//Storyboard Layer 3 (Foreground)
//Storyboard Sound Samples

[TimingPoints]
1069,491.803278688525,4,2,0,70,1,0
42380,-100,4,2,0,60,0,0
73855,-83.3333333333333,4,2,0,80,0,1
105331,-100,4,2,0,60,0,0
152544,-100,4,2,0,80,0,1
152667,-100,4,2,0,60,0,0
168282,-83.3333333333333,4,2,0,80,0,1
199757,-125,4,2,0,60,0,0
223364,-100,4,2,0,60,0,0
232266,550.45871559633,4,2,0,60,1,0
233366,600,4,2,0,60,1,0
234566,774,4,2,0,60,1,0
235340,780,4,2,0,60,1,0
236120,793.473684210526,4,2,0,60,1,0
236913,683.955542889712,4,2,0,60,1,0
237684,811.300000000001,4,2,0,60,1,0

[Colours]
Combo1 : 214,255,172
Combo2 : 208,239,255
Combo3 : 255,196,243
Combo4 : 223,223,223

[HitObjects]
392,344,1069,6,0,P|432:340|472:320,2,80,2|0|0,0:0|0:0|0:0,0:0:0:0:
304,304,1806,1,0,0:0:0:0:
260,220,2052,2,0,B|212:236|144:212|92:228,1,160
32,156,2790,1,0,0:0:0:0:
96,84,3036,6,0,P|96:32|108:4,2,80,2|0|0,0:0|0:0|0:0,0:0:0:0:
188,60,3773,1,0,0:0:0:0:
188,60,4019,2,0,P|240:72|348:56,1,160
420,116,4757,1,0,0:0:0:0:
360,192,5003,5,2,0:0:0:0:
416,268,5249,1,0,0:0:0:0:
416,268,5372,1,0,0:0:0:0:
416,268,5495,2,0,P|408:316|392:348,1,80
304,312,5987,2,0,P|252:304|144:328,1,160
56,296,6724,1,0,0:0:0:0:
24,204,6970,6,0,L|36:120,1,80,2|0,0:0|0:0,0:0:0:0:
208,36,7708,2,0,L|219:115,1,80
248,304,8446,5,0,0:0:0:0:
332,352,8691,1,0,0:0:0:0:
332,352,8814,1,0,0:0:0:0:
332,352,8937,2,0,L|360:356,4,20,2|0|0|0|0,0:0|0:0|0:0|0:0|0:0,0:0:0:0:
404,108,9921,6,0,L|408:80,7,20
404,108,10413,2,0,L|392:200,1,80,2|0,0:0|0:0,0:0:0:0:
312,104,10905,5,4,0:0:0:0:
492,160,11150,1,0,0:0:0:0:
312,104,11396,1,2,0:0:0:0:
448,36,11642,1,0,0:0:0:0:
224,140,11888,1,0,0:0:0:0:
224,140,12011,1,0,0:0:0:0:
224,140,12257,2,0,B|236:180|208:216|232:264,1,120
68,128,12872,5,4,0:0:0:0:
32,352,13118,1,0,0:0:0:0:
56,224,13364,1,0,0:0:0:0:
136,344,13609,1,0,0:0:0:0:
320,268,13855,1,0,0:0:0:0:
320,268,13978,1,0,0:0:0:0:
320,268,14224,2,0,P|272:276|196:256,1,120
364,112,14839,6,0,P|404:112|448:124,1,80,4|0,0:0|0:0,0:0:0:0:
468,108,15208,2,0,P|480:160|468:232,1,120
288,44,15823,1,0,0:0:0:0:
288,44,15946,1,0,0:0:0:0:
180,104,16191,1,0,0:0:0:0:
180,104,16314,2,0,P|132:112|60:96,1,120
24,80,16806,6,0,P|13:126|13:162,1,80,4|0,0:0|0:0,0:0:0:0:
48,296,17175,2,0,P|64:248|60:176,1,120
152,236,17790,1,0,0:0:0:0:
176,232,17913,1,0,0:0:0:0:
200,228,18036,1,0,0:0:0:0:
336,200,18282,1,2,0:0:0:0:
272,348,18528,1,0,0:0:0:0:
288,144,18773,6,0,L|280:240,1,80,4|0,0:0|0:0,0:0:0:0:
436,140,19265,2,0,L|444:44,1,80
492,240,19757,1,0,0:0:0:0:
492,240,19880,1,0,0:0:0:0:
388,316,20126,1,0,0:0:0:0:
388,316,20249,2,0,P|344:328|256:320,1,120
236,312,20741,5,4,0:0:0:0:
352,232,20987,1,0,0:0:0:0:
176,196,21232,1,0,0:0:0:0:
124,356,21478,1,0,0:0:0:0:
268,176,21724,1,0,0:0:0:0:
268,176,21847,1,0,0:0:0:0:
172,72,22093,1,0,0:0:0:0:
200,104,22216,2,0,L|192:224,1,120
160,248,22708,6,0,P|108:248|72:236,1,80,4|0,0:0|0:0,0:0:0:0:
312,140,23200,2,0,P|364:140|400:152,1,80
472,200,23691,1,0,0:0:0:0:
472,200,23814,1,0,0:0:0:0:
384,360,24060,1,0,0:0:0:0:
384,360,24183,2,0,L|392:232,1,120
280,216,24675,6,0,L|232:220,1,40,4|0,0:0|0:0,0:0:0:0:
228,264,24921,2,0,L|184:248,1,40
144,252,25167,1,2,0:0:0:0:
128,208,25290,1,0,0:0:0:0:
136,160,25413,1,0,0:0:0:0:
164,120,25536,1,0,0:0:0:0:
204,92,25659,2,0,L|208:136,1,40,2|0,0:0|0:0,0:0:0:0:
104,20,25905,1,2,0:0:0:0:
296,68,26150,1,2,0:0:0:0:
352,224,26396,5,0,0:0:0:0:
356,252,26519,1,0,0:0:0:0:
352,280,26642,2,0,P|336:328|312:356,1,80,4|0,0:0|0:0,0:0:0:0:
444,164,27134,2,0,P|460:116|484:88,1,80,2|0,0:0|0:0,0:0:0:0:
276,192,27626,1,0,0:0:0:0:
276,192,27749,1,0,0:0:0:0:
168,220,27995,1,0,0:0:0:0:
168,220,28118,2,0,P|168:172|208:108,1,120,2|0,0:0|0:0,0:0:0:0:
240,96,28609,5,4,0:0:0:0:
32,56,28855,1,0,0:0:0:0:
240,96,29101,1,2,0:0:0:0:
88,140,29347,1,0,0:0:0:0:
48,272,29593,1,0,0:0:0:0:
48,272,29716,1,0,0:0:0:0:
164,356,29962,1,0,0:0:0:0:
164,356,30085,2,0,P|220:356|280:332,1,120,2|0,0:0|0:0,0:0:0:0:
328,340,30577,6,0,L|412:340,1,80,4|0,0:0|0:0,0:0:0:0:
500,248,31069,1,2,0:0:0:0:
448,132,31314,1,0,0:0:0:0:
328,96,31560,1,0,0:0:0:0:
328,96,31683,2,0,P|320:156|324:184,1,80
288,208,32052,2,0,L|200:208,1,80,2|0,0:0|0:0,0:0:0:0:
80,268,32544,6,0,P|28:256|-8:232,1,80,4|0,0:0|0:0,0:0:0:0:
152,148,32913,2,0,P|108:164|68:172,1,80
196,60,33282,1,0,0:0:0:0:
248,248,33528,1,2,0:0:0:0:
240,220,33650,1,0,0:0:0:0:
232,192,33773,1,0,0:0:0:0:
324,164,34019,1,2,0:0:0:0:
148,308,34265,1,2,0:0:0:0:
260,372,34511,6,0,P|304:368|348:352,1,80,4|0,0:0|0:0,0:0:0:0:
460,288,35003,2,0,P|472:248|472:208,1,80,2|0,0:0|0:0,0:0:0:0:
408,68,35495,1,0,0:0:0:0:
408,68,35618,1,0,0:0:0:0:
264,140,35864,1,0,0:0:0:0:
264,140,35987,2,0,P|328:140|388:116,1,120,2|0,0:0|0:0,0:0:0:0:
220,28,36478,5,4,0:0:0:0:
152,128,36724,1,0,0:0:0:0:
176,272,36970,1,2,0:0:0:0:
304,368,37216,1,0,0:0:0:0:
172,320,37462,1,0,0:0:0:0:
132,304,37585,2,0,P|100:268|84:224,1,80,2|0,0:0|0:0,0:0:0:0:
20,284,37954,2,0,P|8:240|12:200,1,80,2|0,0:0|0:0,0:0:0:0:
244,80,38446,5,4,0:0:0:0:
236,200,38691,1,0,0:0:0:0:
92,32,38937,1,2,0:0:0:0:
96,152,39183,1,0,0:0:0:0:
320,36,39429,2,0,P|336:40|360:56,1,40,0|2,0:0|0:0,0:0:0:0:
500,140,39798,1,0,0:0:0:0:
500,140,39921,2,0,P|452:156|376:148,1,120,2|0,0:0|0:0,0:0:0:0:
328,208,40413,6,0,L|336:296,1,80,4|0,0:0|0:0,0:0:0:0:
176,364,40782,2,0,L|168:276,1,80,4|0,0:0|0:0,0:0:0:0:
164,236,41150,1,0,0:0:0:0:
140,64,41396,1,2,0:0:0:0:
92,68,41519,1,0,0:0:0:0:
48,92,41642,1,0,0:0:0:0:
276,116,41888,1,2,0:0:0:0:
184,144,42134,1,0,0:0:0:0:
276,116,42380,6,0,P|324:116|432:156,1,160,0|2,0:0|0:0,0:0:0:0:
472,240,43118,1,0,0:0:0:0:
428,324,43364,2,0,P|355:356|275:361,1,160,0|2,0:0|0:0,0:0:0:0:
92,308,44347,5,0,0:0:0:0:
24,240,44593,1,0,0:0:0:0:
64,152,44839,1,2,0:0:0:0:
156,172,45085,6,0,L|200:156,1,40
232,140,45331,2,0,P|244:96|244:60,1,80
120,16,45823,2,0,P|108:60|108:96,1,80,2|0,0:0|0:0,0:0:0:0:
184,232,46314,1,0,0:0:0:0:
184,232,46560,2,0,B|240:248|288:220|344:244,1,160,2|0,0:0|0:0,0:0:0:0:
436,216,47298,2,0,L|464:188,2,40
404,308,47790,2,0,P|392:348|368:380,1,80,2|0,0:0|0:0,0:0:0:0:
280,340,48282,5,0,0:0:0:0:
184,352,48528,1,0,0:0:0:0:
128,276,48773,1,2,0:0:0:0:
168,188,49019,1,0,0:0:0:0:
176,164,49142,1,0,0:0:0:0:
184,140,49265,1,0,0:0:0:0:
192,116,49388,1,2,0:0:0:0:
100,32,49634,5,0,0:0:0:0:
100,32,49757,1,2,0:0:0:0:
20,124,50003,1,0,0:0:0:0:
20,124,50126,1,0,0:0:0:0:
20,124,50249,2,0,P|28:176|16:248,2,120,2|0|0,0:0|0:0|0:0,0:0:0:0:
124,172,51232,2,0,L|284:172,1,160,2|0,0:0|0:0,0:0:0:0:
364,116,51970,1,0,0:0:0:0:
332,24,52216,2,0,P|284:24|248:36,2,80,0|0|2,0:0|0:0|0:0,0:0:0:0:
464,92,52954,5,0,0:0:0:0:
464,92,53077,1,0,0:0:0:0:
464,92,53200,2,0,P|472:136|472:176,1,80
472,268,53691,2,0,P|471:307|463:347,1,80,2|0,0:0|0:0,0:0:0:0:
368,328,54183,2,0,B|312:344|240:312|200:332,1,160,0|2,0:0|0:0,0:0:0:0:
120,368,54921,1,0,0:0:0:0:
44,308,55167,2,0,L|12:280,2,40
100,228,55659,2,0,P|108:180|104:144,1,80,2|0,0:0|0:0,0:0:0:0:
152,64,56150,5,0,0:0:0:0:
244,32,56396,1,0,0:0:0:0:
336,56,56642,1,2,0:0:0:0:
400,128,56888,1,0,0:0:0:0:
400,128,57011,1,0,0:0:0:0:
400,128,57134,2,0,B|408:180|400:212|360:280|396:336|436:288|416:224,1,240
304,176,58118,6,0,P|256:172|144:208,1,160,0|2,0:0|0:0,0:0:0:0:
72,152,58855,1,0,0:0:0:0:
148,92,59101,2,0,P|160:144|148:260,1,160,0|2,0:0|0:0,0:0:0:0:
196,336,59839,1,0,0:0:0:0:
288,360,60085,6,0,P|332:348|368:328,2,80,0|0|2,0:0|0:0|0:0,0:0:0:0:
296,264,60823,1,0,0:0:0:0:
296,264,60946,1,0,0:0:0:0:
296,264,61069,2,0,P|300:216|296:180,1,80
168,96,61560,2,0,P|164:144|168:180,1,80,2|0,0:0|0:0,0:0:0:0:
88,228,62052,5,0,0:0:0:0:
20,160,62298,1,0,0:0:0:0:
20,160,62421,1,0,0:0:0:0:
20,160,62544,1,2,0:0:0:0:
52,68,62790,1,0,0:0:0:0:
148,84,63036,2,0,L|192:68,1,40,0|2,0:0|0:0,0:0:0:0:
280,88,63405,2,0,L|324:96,1,40,0|2,0:0|0:0,0:0:0:0:
408,60,63773,1,0,0:0:0:0:
408,60,64019,2,0,P|420:108|420:148,2,80,0|0|2,0:0|0:0|0:0,0:0:0:0:
388,248,64880,5,0,0:0:0:0:
388,248,65003,1,2,0:0:0:0:
388,248,65126,1,2,0:0:0:0:
332,324,65372,1,0,0:0:0:0:
332,324,65495,2,0,P|288:336|208:328,1,120,2|0,0:0|0:0,0:0:0:0:
168,312,65987,2,0,P|104:312|48:332,2,120,0|2|0,0:0|0:0|0:0,0:0:0:0:
200,220,66970,1,0,0:0:0:0:
200,220,67093,1,0,0:0:0:0:
140,144,67339,1,0,0:0:0:0:
140,144,67462,2,0,P|140:92|172:24,1,120,2|0,0:0|0:0,0:0:0:0:
208,56,67954,6,0,L|296:56,1,80
384,40,68446,1,2,0:0:0:0:
460,116,68691,1,0,0:0:0:0:
460,116,68814,1,0,0:0:0:0:
460,116,68937,1,0,0:0:0:0:
460,116,69060,1,2,0:0:0:0:
440,208,69306,1,0,0:0:0:0:
440,208,69429,1,2,0:0:0:0:
348,228,69675,5,0,0:0:0:0:
348,228,69798,1,0,0:0:0:0:
348,228,69921,2,0,P|344:284|368:352,2,120,2|2|0,0:0|0:0|0:0,0:0:0:0:
260,192,70905,2,0,B|208:204|136:180|96:196,1,160,0|2,0:0|0:0,0:0:0:0:
24,140,71642,5,0,0:0:0:0:
24,140,71765,1,0,0:0:0:0:
24,140,71888,1,0,0:0:0:0:
144,40,72134,1,0,0:0:0:0:
292,96,72380,1,2,0:0:0:0:
320,256,72626,1,0,0:0:0:0:
192,360,72872,1,0,0:0:0:0:
127,242,73118,5,0,0:0:0:0:
154,242,73241,1,0,0:0:0:0:
180,232,73364,1,2,0:0:0:0:
199,211,73487,1,0,0:0:0:0:
206,184,73609,1,0,0:0:0:0:
200,156,73732,1,0,0:0:0:0:
172,112,73855,5,4,0:0:0:0:
312,32,74101,1,0,0:0:0:0:
428,264,74347,1,2,0:0:0:0:
496,168,74593,1,0,0:0:0:0:
496,168,74716,1,2,0:0:0:0:
352,108,74962,1,2,0:0:0:0:
256,284,75208,1,0,0:0:0:0:
256,284,75331,1,2,0:0:0:0:
104,220,75577,1,0,0:0:0:0:
236,96,75823,6,0,P|244:148|228:244,2,143.999995605469,0|2|0,0:0|0:0|0:0,0:0:0:0:
48,104,76806,2,0,L|152:116,1,95.9999970703126,2|0,0:0|0:0,0:0:0:0:
328,32,77298,5,2,0:0:0:0:
328,32,77544,1,2,0:0:0:0:
328,32,77790,2,0,B|376:48|424:40|424:40|416:84|436:132,1,191.999994140625,0|2,0:0|0:0,0:0:0:0:
508,240,78528,1,0,0:0:0:0:
416,356,78773,2,0,P|360:364|272:340,1,143.999995605469
244,304,79265,2,0,L|256:208,1,95.9999970703126,2|0,0:0|0:0,0:0:0:0:
56,120,79757,5,0,0:0:0:0:
204,52,80003,1,0,0:0:0:0:
236,48,80126,1,2,0:0:0:0:
268,48,80249,1,0,0:0:0:0:
300,56,80372,1,2,0:0:0:0:
176,100,80618,1,0,0:0:0:0:
212,96,80741,1,2,0:0:0:0:
248,96,80864,1,0,0:0:0:0:
148,148,81109,1,0,0:0:0:0:
192,140,81232,2,0,P|248:140|290:149,1,95.9999970703126,2|0,0:0|0:0,0:0:0:0:
352,352,81724,5,0,0:0:0:0:
472,180,81970,1,2,0:0:0:0:
496,328,82216,1,2,0:0:0:0:
252,300,82462,1,0,0:0:0:0:
252,300,82585,1,2,0:0:0:0:
396,76,82831,1,2,0:0:0:0:
436,264,83077,1,0,0:0:0:0:
436,264,83200,1,2,0:0:0:0:
292,144,83446,1,2,0:0:0:0:
164,356,83691,6,0,P|144:312|140:216,2,143.999995605469,0|2|0,0:0|0:0|0:0,0:0:0:0:
32,192,84675,2,0,P|84:208|176:200,1,143.999995605469,2|0,0:0|0:0,0:0:0:0:
212,176,85167,6,0,P|228:128|228:76,1,95.9999970703126,2|0,0:0|0:0,0:0:0:0:
296,264,85659,2,0,P|344:264|480:200,1,191.999994140625,0|2,0:0|0:0,0:0:0:0:
432,24,86396,1,0,0:0:0:0:
504,124,86642,1,0,0:0:0:0:
504,124,86765,1,2,0:0:0:0:
372,104,87011,1,0,0:0:0:0:
364,136,87134,1,2,0:0:0:0:
224,116,87380,1,2,0:0:0:0:
96,272,87626,5,0,0:0:0:0:
196,264,87872,1,0,0:0:0:0:
192,296,87995,1,0,0:0:0:0:
180,328,88118,1,2,0:0:0:0:
160,352,88241,1,0,0:0:0:0:
132,368,88364,1,0,0:0:0:0:
0,284,88609,1,0,0:0:0:0:
4,252,88732,1,2,0:0:0:0:
16,220,88855,1,0,0:0:0:0:
36,196,88978,1,0,0:0:0:0:
64,180,89101,2,0,L|160:180,1,95.9999970703126,2|0,0:0|0:0,0:0:0:0:
336,128,89593,5,2,0:0:0:0:
176,88,89839,1,0,0:0:0:0:
396,56,90085,1,2,0:0:0:0:
232,16,90331,1,0,0:0:0:0:
232,16,90454,1,2,0:0:0:0:
196,240,90700,1,2,0:0:0:0:
416,164,90946,1,0,0:0:0:0:
416,164,91069,1,2,0:0:0:0:
288,112,91314,1,2,0:0:0:0:
372,256,91560,6,0,P|420:264|504:216,2,143.999995605469,0|2|2,0:0|0:0|0:0,0:0:0:0:
296,344,92544,2,0,B|248:352|192:336|144:348,1,143.999995605469,2|0,0:0|0:0,0:0:0:0:
108,352,93036,2,0,P|56:352|16:336,1,95.9999970703126,2|0,0:0|0:0,0:0:0:0:
80,244,93528,6,0,P|88:188|64:96,2,143.999995605469,0|2|0,0:0|0:0|0:0,0:0:0:0:
220,156,94511,1,0,0:0:0:0:
220,156,94634,1,2,0:0:0:0:
320,280,94880,1,0,0:0:0:0:
320,280,95003,1,2,0:0:0:0:
488,56,95495,6,0,P|428:36|340:40,2,143.999995605469,0|2|2,0:0|0:0|0:0,0:0:0:0:
500,184,96478,2,0,P|496:236|476:280,1,95.9999970703126
456,300,96847,1,0,0:0:0:0:
424,312,96970,2,0,L|328:312,1,95.9999970703126,2|0,0:0|0:0,0:0:0:0:
132,188,97462,5,0,0:0:0:0:
232,368,97708,1,2,0:0:0:0:
336,188,97954,1,2,0:0:0:0:
132,96,98200,1,0,0:0:0:0:
132,96,98323,1,2,0:0:0:0:
232,276,98569,1,2,0:0:0:0:
336,96,98814,1,0,0:0:0:0:
336,96,98937,1,2,0:0:0:0:
144,8,99183,1,2,0:0:0:0:
32,192,99429,6,0,P|24:244|76:372,1,191.999994140625,0|2,0:0|0:0,0:0:0:0:
240,300,100167,1,0,0:0:0:0:
240,300,100413,2,0,P|240:240|208:164,1,143.999995605469
240,120,100905,2,0,L|336:120,1,95.9999970703126,2|0,0:0|0:0,0:0:0:0:
484,84,101396,6,0,P|496:144|492:188,1,95.9999970703126
480,216,101765,1,0,0:0:0:0:
480,216,101888,1,2,0:0:0:0:
412,332,102134,1,0,0:0:0:0:
304,192,102380,1,0,0:0:0:0:
304,192,102503,1,2,0:0:0:0:
216,360,102749,1,0,0:0:0:0:
216,360,102872,1,2,0:0:0:0:
76,268,103118,1,2,0:0:0:0:
144,120,103364,6,0,L|128:20,2,95.9999970703126,0|2|2,0:0|0:0|0:0,0:0:0:0:
152,160,103978,1,0,0:0:0:0:
280,76,104224,1,0,0:0:0:0:
312,72,104347,1,2,0:0:0:0:
344,76,104470,1,0,0:0:0:0:
376,92,104593,1,2,0:0:0:0:
504,228,104839,2,0,P|452:236|408:228,1,95.9999970703126,2|0,0:0|0:0,0:0:0:0:
456,332,120823,5,0,0:0:0:0:
456,332,121069,2,0,P|408:344|296:332,1,160,0|2,0:0|0:0,0:0:0:0:
204,316,121806,1,0,0:0:0:0:
204,316,122052,2,0,P|156:312|40:340,1,160
24,144,123036,6,0,L|12:224,2,80,0|0|2,0:0|0:0|0:0,0:0:0:0:
76,64,123773,1,0,0:0:0:0:
168,40,124019,2,0,P|176:88|172:128,1,80
232,196,124511,2,0,P|272:200|312:196,1,80,2|0,0:0|0:0,0:0:0:0:
408,204,125003,6,0,P|412:252|384:368,1,160,0|2,0:0|0:0,0:0:0:0:
296,328,125741,1,0,0:0:0:0:
208,372,125987,2,0,P|160:376|48:336,1,160,0|2,0:0|0:0,0:0:0:0:
128,76,126970,5,0,0:0:0:0:
128,76,127093,1,2,0:0:0:0:
64,148,127339,1,2,0:0:0:0:
104,236,127585,1,0,0:0:0:0:
364,172,128200,5,0,0:0:0:0:
364,172,128323,1,2,0:0:0:0:
460,156,128569,1,0,0:0:0:0:
460,156,128691,1,2,0:0:0:0:
472,36,128937,6,0,P|412:28|348:44,1,120
312,64,129429,1,2,0:0:0:0:
220,88,129675,1,0,0:0:0:0:
128,56,129921,2,0,P|112:104|112:216,1,160,0|2,0:0|0:0,0:0:0:0:
168,288,130659,1,0,0:0:0:0:
96,352,130905,2,0,P|52:360|12:360,2,80,0|0|2,0:0|0:0|0:0,0:0:0:0:
252,316,131642,5,0,0:0:0:0:
252,316,131888,2,0,P|296:328|336:328,1,80
488,220,132380,2,0,P|444:208|404:208,1,80,2|0,0:0|0:0,0:0:0:0:
320,176,132872,2,0,P|268:184|160:160,1,160,0|2,0:0|0:0,0:0:0:0:
180,16,133609,1,0,0:0:0:0:
180,16,133855,2,0,P|232:8|340:32,1,160,0|2,0:0|0:0,0:0:0:0:
404,96,134593,1,0,0:0:0:0:
480,12,134839,5,0,0:0:0:0:
504,140,135085,1,0,0:0:0:0:
504,140,135208,1,0,0:0:0:0:
504,140,135331,1,2,0:0:0:0:
392,200,135577,1,0,0:0:0:0:
440,328,135823,5,0,0:0:0:0:
440,328,135946,1,2,0:0:0:0:
296,364,136191,1,0,0:0:0:0:
268,364,136314,1,2,0:0:0:0:
240,360,136437,1,0,0:0:0:0:
216,348,136560,1,0,0:0:0:0:
196,332,136683,1,0,0:0:0:0:
184,308,136806,6,0,L|184:144,1,160,0|2,0:0|0:0,0:0:0:0:
120,76,137544,1,0,0:0:0:0:
80,164,137790,2,0,P|124:176|244:168,1,160,0|2,0:0|0:0,0:0:0:0:
328,132,138528,1,0,0:0:0:0:
412,88,138773,2,0,L|424:8,2,80,0|0|2,0:0|0:0|0:0,0:0:0:0:
480,156,139511,5,0,0:0:0:0:
444,244,139757,2,0,P|440:300|428:336,1,80
348,368,140249,2,0,P|300:368|256:356,1,80,2|0,0:0|0:0,0:0:0:0:
192,300,140741,2,0,P|132:292|32:316,1,160,0|2,0:0|0:0,0:0:0:0:
36,168,141478,1,0,0:0:0:0:
36,168,141724,2,0,P|112:189|191:182,1,160,0|2,0:0|0:0,0:0:0:0:
280,144,142462,1,0,0:0:0:0:
364,28,142708,6,0,L|368:116,1,80
376,204,143200,2,0,P|376:248|368:288,1,80,2|0,0:0|0:0,0:0:0:0:
348,324,143569,1,0,0:0:0:0:
320,324,143691,1,0,0:0:0:0:
292,324,143814,1,0,0:0:0:0:
192,256,144060,1,0,0:0:0:0:
164,256,144183,2,0,P|116:260|76:252,1,80,2|0,0:0|0:0,0:0:0:0:
16,188,144675,6,0,P|8:144|36:32,1,160,0|2,0:0|0:0,0:0:0:0:
124,68,145413,1,0,0:0:0:0:
208,24,145659,2,0,P|264:20|364:52,1,160,0|2,0:0|0:0,0:0:0:0:
436,112,146396,1,0,0:0:0:0:
396,200,146642,6,0,L|384:284,1,80
384,279,147011,1,0,0:0:0:0:
384,279,147134,1,2,0:0:0:0:
332,360,147380,1,0,0:0:0:0:
248,312,147626,1,0,0:0:0:0:
248,312,147749,1,2,0:0:0:0:
164,360,147995,1,0,0:0:0:0:
164,360,148118,2,0,P|120:360|84:348,1,80,2|0,0:0|0:0,0:0:0:0:
16,280,148609,6,0,P|8:228|24:116,1,160,0|2,0:0|0:0,0:0:0:0:
176,76,149347,1,0,0:0:0:0:
176,76,149593,2,0,P|184:128|168:240,1,160,0|2,0:0|0:0,0:0:0:0:
436,304,150577,5,0,0:0:0:0:
340,300,150823,1,2,0:0:0:0:
436,208,151069,1,2,0:0:0:0:
340,200,151314,1,0,0:0:0:0:
312,208,151437,1,0,0:0:0:0:
284,212,151560,1,2,0:0:0:0:
160,184,151806,1,2,0:0:0:0:
96,80,152052,1,2,0:0:0:0:
108,56,152175,1,2,0:0:0:0:
128,40,152298,1,0,0:0:0:0:
156,28,152421,1,0,0:0:0:0:
204,52,152544,6,0,L|296:44,1,80,2|0,0:0|0:0,0:0:0:0:
380,52,153036,1,0,0:0:0:0:
476,60,153282,1,0,0:0:0:0:
476,60,153405,1,0,0:0:0:0:
292,144,153650,1,0,0:0:0:0:
388,156,153896,1,0,0:0:0:0:
388,156,154019,1,0,0:0:0:0:
484,164,154265,1,0,0:0:0:0:
304,252,154511,6,0,P|260:264|148:256,1,160,0|2,0:0|0:0,0:0:0:0:
68,204,155249,1,0,0:0:0:0:
68,204,155495,2,0,P|56:252|72:368,1,160,0|2,0:0|0:0,0:0:0:0:
236,332,156232,1,0,0:0:0:0:
236,332,156478,6,0,P|248:284|232:168,1,160,0|2,0:0|0:0,0:0:0:0:
168,104,157216,1,0,0:0:0:0:
240,40,157462,2,0,B|292:28|344:48|408:36,1,160,0|2,0:0|0:0,0:0:0:0:
396,228,158446,6,0,P|440:232|512:208,2,120,0|2|2,0:0|0:0|0:0,0:0:0:0:
308,264,159429,2,0,B|260:276|188:252|144:268,1,160,0|2,0:0|0:0,0:0:0:0:
36,64,160413,5,0,0:0:0:0:
24,160,160659,1,2,0:0:0:0:
12,256,160905,1,2,0:0:0:0:
136,40,161150,1,0,0:0:0:0:
136,40,161273,1,2,0:0:0:0:
124,136,161519,1,2,0:0:0:0:
112,232,161765,1,0,0:0:0:0:
112,232,161888,1,2,0:0:0:0:
236,16,162134,1,2,0:0:0:0:
224,112,162380,6,0,P|272:120|344:112,2,120,0|2|2,0:0|0:0|0:0,0:0:0:0:
420,52,163364,2,0,P|432:100|428:188,1,120,2|0,0:0|0:0,0:0:0:0:
412,208,163855,1,2,0:0:0:0:
416,304,164101,1,0,0:0:0:0:
336,356,164347,6,0,P|296:360|172:320,1,160,0|2,0:0|0:0,0:0:0:0:
204,232,165085,1,0,0:0:0:0:
124,176,165331,2,0,P|84:176|0:216,2,120,2|2|0,0:0|0:0|0:0,0:0:0:0:
164,88,166314,5,2,0:0:0:0:
252,48,166560,1,0,0:0:0:0:
344,80,166806,1,2,0:0:0:0:
380,168,167052,1,0,0:0:0:0:
380,168,167175,1,0,0:0:0:0:
380,168,167298,2,0,L|372:220,2,40,2|2|0,0:0|0:0|0:0,0:0:0:0:
472,196,167790,1,2,0:0:0:0:
496,316,168036,5,0,0:0:0:0:
496,316,168159,1,0,0:0:0:0:
496,316,168282,1,4,0:0:0:0:
272,364,168528,1,0,0:0:0:0:
296,160,168773,1,2,0:0:0:0:
376,296,169019,1,0,0:0:0:0:
376,296,169142,1,2,0:0:0:0:
208,200,169388,1,2,0:0:0:0:
352,44,169634,1,0,0:0:0:0:
352,44,169757,1,2,0:0:0:0:
404,208,170003,1,2,0:0:0:0:
212,304,170249,6,0,P|148:316|24:276,1,191.999994140625,0|2,0:0|0:0,0:0:0:0:
64,120,170987,1,0,0:0:0:0:
64,120,171232,2,0,P|128:108|208:128,1,143.999995605469
240,152,171724,5,2,0:0:0:0:
368,168,171970,1,2,0:0:0:0:
476,44,172216,2,0,P|464:96|484:236,1,191.999994140625,0|2,0:0|0:0,0:0:0:0:
432,336,172954,1,0,0:0:0:0:
328,288,173200,2,0,P|272:284|224:300,1,95.9999970703126
200,328,173569,1,0,0:0:0:0:
200,328,173691,2,0,L|104:328,1,95.9999970703126,2|0,0:0|0:0,0:0:0:0:
12,192,174183,6,0,P|12:120|64:56,2,143.999995605469,0|2|2,0:0|0:0|0:0,0:0:0:0:
124,160,175167,1,0,0:0:0:0:
156,172,175290,1,2,0:0:0:0:
188,180,175413,1,0,0:0:0:0:
220,172,175536,1,0,0:0:0:0:
252,160,175659,2,0,P|272:112|272:64,1,95.9999970703126,2|0,0:0|0:0,0:0:0:0:
424,16,176150,5,0,0:0:0:0:
512,172,176396,1,2,0:0:0:0:
432,332,176642,1,2,0:0:0:0:
368,96,176888,1,0,0:0:0:0:
368,96,177011,1,2,0:0:0:0:
440,220,177257,1,2,0:0:0:0:
344,328,177503,1,0,0:0:0:0:
344,328,177626,1,2,0:0:0:0:
216,276,177872,1,2,0:0:0:0:
208,128,178118,6,0,P|156:120|20:152,1,191.999994140625,0|2,0:0|0:0,0:0:0:0:
88,364,178855,1,0,0:0:0:0:
88,364,179101,2,0,P|108:312|108:216,1,143.999995605469
160,272,179593,2,0,L|256:272,1,95.9999970703126,2|0,0:0|0:0,0:0:0:0:
436,232,180085,5,0,0:0:0:0:
436,232,180208,1,2,0:0:0:0:
308,188,180454,1,0,0:0:0:0:
308,188,180577,1,2,0:0:0:0:
436,152,180823,1,0,0:0:0:0:
264,52,181069,1,0,0:0:0:0:
264,52,181191,1,2,0:0:0:0:
476,88,181437,1,0,0:0:0:0:
476,88,181560,1,2,0:0:0:0:
264,128,181806,1,0,0:0:0:0:
400,16,182052,6,0,L|400:128,1,95.9999970703126
400,156,182421,1,0,0:0:0:0:
400,156,182544,2,0,L|384:216,2,47.9999985351563,2|0|0,0:0|0:0|0:0,0:0:0:0:
484,284,183036,1,2,0:0:0:0:
468,320,183159,1,0,0:0:0:0:
436,344,183282,1,0,0:0:0:0:
400,352,183405,1,0,0:0:0:0:
360,348,183528,2,0,L|264:348,1,95.9999970703126,2|0,0:0|0:0,0:0:0:0:
104,200,184019,5,0,0:0:0:0:
164,364,184265,1,2,0:0:0:0:
224,200,184511,1,2,0:0:0:0:
36,152,184757,1,0,0:0:0:0:
36,152,184880,1,2,0:0:0:0:
164,248,185126,1,2,0:0:0:0:
292,152,185372,1,0,0:0:0:0:
292,152,185495,1,2,0:0:0:0:
164,60,185741,1,0,0:0:0:0:
328,228,185987,6,0,P|384:232|472:200,1,143.999995605469
492,164,186478,2,0,P|484:224|488:268,1,95.9999970703126,2|0,0:0|0:0,0:0:0:0:
360,104,186970,2,0,P|368:156|356:252,1,143.999995605469
328,292,187462,1,2,0:0:0:0:
212,360,187708,1,0,0:0:0:0:
56,232,187954,6,0,P|112:248|248:232,1,191.999994140625,0|2,0:0|0:0,0:0:0:0:
248,28,188691,1,0,0:0:0:0:
312,144,188937,1,0,0:0:0:0:
312,144,189060,1,2,0:0:0:0:
444,104,189306,1,0,0:0:0:0:
444,104,189429,2,0,P|440:164|452:208,1,95.9999970703126,2|0,0:0|0:0,0:0:0:0:
496,296,189921,2,0,P|448:316|304:312,1,191.999994140625,2|0,0:0|0:0,0:0:0:0:
208,260,190659,5,0,0:0:0:0:
68,240,190905,1,0,0:0:0:0:
64,272,191028,1,2,0:0:0:0:
60,304,191150,1,0,0:0:0:0:
56,336,191273,1,0,0:0:0:0:
52,368,191396,2,0,L|148:336,1,95.9999970703126,2|0,0:0|0:0,0:0:0:0:
292,184,191888,5,0,0:0:0:0:
140,136,192134,1,0,0:0:0:0:
140,136,192257,1,0,0:0:0:0:
140,136,192380,2,0,L|120:84,1,47.9999985351563,2|0,0:0|0:0,0:0:0:0:
264,56,192749,1,0,0:0:0:0:
264,56,192872,2,0,L|256:112,1,47.9999985351563,2|0,0:0|0:0,0:0:0:0:
396,24,193241,1,0,0:0:0:0:
396,24,193364,2,0,P|408:80|404:140,1,95.9999970703126,2|0,0:0|0:0,0:0:0:0:
504,180,193855,5,0,0:0:0:0:
408,244,194101,1,2,0:0:0:0:
376,356,194347,2,0,P|324:368|280:360,1,95.9999970703126,2|0,0:0|0:0,0:0:0:0:
180,308,194839,1,0,0:0:0:0:
180,308,194962,1,2,0:0:0:0:
76,360,195208,1,0,0:0:0:0:
76,360,195331,2,0,P|60:304|68:216,1,143.999995605469,2|0,0:0|0:0,0:0:0:0:
88,164,195823,6,0,P|77:86|48:28,2,143.999995605469,2|0|0,0:0|0:0|0:0,0:0:0:0:
192,216,196806,1,0,0:0:0:0:
192,216,196929,1,2,0:0:0:0:
320,216,197175,1,0,0:0:0:0:
320,216,197298,1,2,0:0:0:0:
416,280,197544,1,0,0:0:0:0:
424,164,197790,6,0,P|434:86|464:28,2,143.999995605469,2|0|0,0:0|0:0|0:0,0:0:0:0:
256,64,199265,5,2,0:0:0:0:
256,64,199757,2,0,B|280:144|232:240|260:320,1,256,2|0,0:0|0:0,0:0:0:0:
256,192,201724,12,0,205659,0:0:0:0:
448,136,207626,5,0,0:0:0:0:
124,104,208609,1,0,0:0:0:0:
252,336,209593,1,0,0:0:0:0:
256,192,210577,12,0,213528,0:0:0:0:
144,236,215495,5,0,0:0:0:0:
380,96,216478,1,0,0:0:0:0:
360,304,217462,1,0,0:0:0:0:
256,192,218446,12,0,221396,0:0:0:0:
472,100,223364,5,0,0:0:0:0:
388,52,223609,1,0,0:0:0:0:
340,136,223855,1,2,0:0:0:0:
424,184,224100,1,0,0:0:0:0:
440,280,224347,1,0,0:0:0:0:
440,280,224470,1,2,0:0:0:0:
368,344,224716,1,0,0:0:0:0:
368,344,224839,2,0,P|308:352|276:348,1,80,2|0,0:0|0:0,0:0:0:0:
200,312,225331,5,0,0:0:0:0:
116,360,225577,1,0,0:0:0:0:
32,312,225823,1,2,0:0:0:0:
32,216,226069,1,0,0:0:0:0:
116,168,226314,1,2,0:0:0:0:
116,168,226437,1,0,0:0:0:0:
200,216,226683,1,0,0:0:0:0:
200,216,226806,2,0,P|252:220|288:216,1,80,2|0,0:0|0:0,0:0:0:0:
364,172,227298,5,0,0:0:0:0:
280,124,227544,1,0,0:0:0:0:
364,76,227790,1,2,0:0:0:0:
280,32,228036,1,0,0:0:0:0:
452,64,228282,1,2,0:0:0:0:
452,64,228405,1,0,0:0:0:0:
492,152,228650,1,2,0:0:0:0:
492,152,228773,2,0,P|488:200|472:244,1,80
440,320,229265,6,0,P|396:328|316:316,2,120,2|2|0,0:0|0:0|0:0,0:0:0:0:
320,220,230249,1,2,0:0:0:0:
292,220,230372,1,2,0:0:0:0:
268,220,230495,1,2,0:0:0:0:
140,160,230741,1,2,0:0:0:0:
84,296,230987,1,0,0:0:0:0:
216,360,231232,5,2,0:0:0:0:
344,116,232266,6,0,P|352:160|328:280,1,160
228,244,233366,1,0,0:0:0:0:
180,140,234566,5,0,0:0:0:0:
228,28,235340,1,0,0:0:0:0:
376,76,236120,2,0,P|388:124|388:160,1,80
372,248,236913,2,0,P|368:292|356:328,1,80
272,304,237687,1,0,0:0:0:0:
216,224,239306,5,2,0:0:0:0:
