osu file format v13

[General]
AudioFilename: snow again.mp3
AudioLeadIn: 0
PreviewTime: 105251
Countdown: 0
SampleSet: Normal
StackLeniency: 0.7
Mode: 1
LetterboxInBreaks: 0
WidescreenStoryboard: 1

[Editor]
DistanceSpacing: 1
BeatDivisor: 4
GridSize: 32
TimelineZoom: 1

[Metadata]
Title:snow again
TitleUnicode:snow again
Artist:ave;new feat. Sakura Saori
ArtistUnicode:ave;new feat. 佐倉紗織
Creator:CoroQuetz
Version:Futsuu
Source:
Tags:christmas xmas
BeatmapID:339476
BeatmapSetID:135526

[Difficulty]
HPDrainRate:4
CircleSize:3
OverallDifficulty:3
ApproachRate:3
SliderMultiplier:1.4
SliderTickRate:1

[Events]
//Background and Video events
0,0,"bg.jpg",0,120
//Break Periods
//Storyboard Layer 0 (Background)
//Storyboard Layer 1 (Fail)
//Storyboard Layer 2 (Pass)
//Storyboard Layer 3 (Foreground)
//Storyboard Sound Samples
//Background Colour Transformations
3,100,163,162,255

[TimingPoints]
9763,555.555555555556,4,1,0,70,1,0
105318,-100,4,1,0,70,0,1
140874,-100,4,1,0,70,0,0
187541,-100,4,1,0,70,0,1
223096,-100,4,1,0,70,0,0
258652,-100,4,1,0,70,0,1
276430,-100,4,1,0,70,0,0

[HitObjects]
192,192,9763,5,4,0:0:0:0:
224,192,10040,1,0,0:0:0:0:
224,192,10318,1,8,0:0:0:0:
224,192,10874,1,8,0:0:0:0:
224,192,11151,1,0,0:0:0:0:
224,192,11429,1,8,0:0:0:0:
224,192,11707,1,0,0:0:0:0:
224,192,11985,1,8,0:0:0:0:
224,192,12540,1,0,0:0:0:0:
224,192,13096,1,0,0:0:0:0:
224,192,14207,1,0,0:0:0:0:
192,192,14763,1,8,0:0:0:0:
192,192,15318,1,0,0:0:0:0:
224,192,16429,1,8,0:0:0:0:
224,192,16985,1,0,0:0:0:0:
224,192,17540,1,0,0:0:0:0:
224,192,18651,1,4,0:0:0:0:
224,192,19207,1,8,0:0:0:0:
224,192,19763,1,0,0:0:0:0:
224,192,20874,1,8,0:0:0:0:
224,192,21429,1,0,0:0:0:0:
224,192,21985,1,0,0:0:0:0:
224,192,23096,1,0,0:0:0:0:
192,192,23651,1,8,0:0:0:0:
192,192,24207,1,0,0:0:0:0:
224,192,25318,1,8,0:0:0:0:
224,192,25874,1,0,0:0:0:0:
224,192,26429,1,8,0:0:0:0:
224,192,27540,1,0,0:0:0:0:
224,192,27818,1,0,0:0:0:0:
224,192,28096,1,8,0:0:0:0:
224,192,28651,1,8,0:0:0:0:
224,192,29207,1,8,0:0:0:0:
224,192,29763,1,4,0:0:0:0:
224,192,30318,1,8,0:0:0:0:
224,192,30874,1,0,0:0:0:0:
224,192,31151,1,0,0:0:0:0:
224,192,31429,1,8,0:0:0:0:
224,192,31985,1,0,0:0:0:0:
224,192,32540,1,8,0:0:0:0:
224,192,33096,1,0,0:0:0:0:
224,192,33374,1,0,0:0:0:0:
224,192,33651,1,8,0:0:0:0:
224,192,34207,1,8,0:0:0:0:
224,192,34763,1,8,0:0:0:0:
224,192,35318,1,0,0:0:0:0:
224,192,35596,1,0,0:0:0:0:
224,192,35874,1,8,0:0:0:0:
224,192,36429,1,12,0:0:0:0:
224,192,36985,1,8,0:0:0:0:
224,192,37540,1,0,0:0:0:0:
224,192,37818,1,8,0:0:0:0:
224,192,38096,1,8,0:0:0:0:
224,192,38651,1,4,0:0:0:0:
224,192,39207,1,8,0:0:0:0:
224,192,39763,1,8,0:0:0:0:
224,192,40318,1,8,0:0:0:0:
224,192,40874,1,0,0:0:0:0:
224,192,41151,1,0,0:0:0:0:
224,192,41429,1,8,0:0:0:0:
224,192,41985,1,8,0:0:0:0:
224,192,42540,1,8,0:0:0:0:
224,192,43096,1,0,0:0:0:0:
224,192,43374,1,0,0:0:0:0:
224,192,43651,1,8,0:0:0:0:
224,192,44207,1,8,0:0:0:0:
224,192,44763,1,8,0:0:0:0:
224,192,45318,1,4,0:0:0:0:
224,192,45596,1,0,0:0:0:0:
224,192,45874,1,8,0:0:0:0:
192,192,46429,1,8,0:0:0:0:
192,192,47540,1,0,0:0:0:0:
192,192,48096,1,0,0:0:0:0:
192,192,48651,1,8,0:0:0:0:
192,192,49207,1,0,0:0:0:0:
192,192,49485,1,0,0:0:0:0:
192,192,49763,1,8,0:0:0:0:
192,192,50318,1,0,0:0:0:0:
192,192,50874,1,8,0:0:0:0:
192,192,51985,1,0,0:0:0:0:
192,192,52540,1,0,0:0:0:0:
192,192,53096,1,8,0:0:0:0:
192,192,53651,1,8,0:0:0:0:
192,192,53929,1,0,0:0:0:0:
192,192,54207,1,0,0:0:0:0:
192,192,54763,1,8,0:0:0:0:
0,128,55318,1,0,0:0:0:0:
192,192,56429,1,8,0:0:0:0:
192,192,56985,1,0,0:0:0:0:
192,192,57540,1,8,0:0:0:0:
192,192,58096,1,0,0:0:0:0:
192,192,58374,1,0,0:0:0:0:
192,192,58651,1,8,0:0:0:0:
192,192,59207,1,0,0:0:0:0:
192,192,59763,1,8,0:0:0:0:
192,192,60318,1,8,0:0:0:0:
192,192,60596,1,8,0:0:0:0:
192,192,60874,1,0,0:0:0:0:
192,192,61429,1,0,0:0:0:0:
192,192,61985,1,0,0:0:0:0:
192,192,62540,1,8,0:0:0:0:
192,192,62818,1,0,0:0:0:0:
192,192,63096,1,0,0:0:0:0:
192,192,63651,1,8,0:0:0:0:
256,192,64207,12,0,64763,0:0:0:0:
192,192,65318,5,0,0:0:0:0:
192,192,65596,1,0,0:0:0:0:
192,192,65874,1,8,0:0:0:0:
192,192,66429,1,8,0:0:0:0:
192,192,66707,1,0,0:0:0:0:
192,192,66985,1,8,0:0:0:0:
192,192,67540,1,4,0:0:0:0:
192,192,67818,1,0,0:0:0:0:
192,192,68096,1,8,0:0:0:0:
192,192,68651,1,0,0:0:0:0:
192,192,68929,1,0,0:0:0:0:
192,192,69207,1,8,0:0:0:0:
192,192,69763,1,0,0:0:0:0:
192,192,70318,1,8,0:0:0:0:
192,192,70874,1,0,0:0:0:0:
192,192,71151,1,8,0:0:0:0:
192,192,71429,1,8,0:0:0:0:
192,192,71985,1,0,0:0:0:0:
192,192,72263,1,0,0:0:0:0:
192,192,72540,1,8,0:0:0:0:
192,192,73096,1,0,0:0:0:0:
192,192,73374,1,0,0:0:0:0:
192,192,73651,1,8,0:0:0:0:
192,192,74207,1,0,0:0:0:0:
192,192,74763,1,8,0:0:0:0:
192,192,75040,1,0,0:0:0:0:
192,192,75318,1,0,0:0:0:0:
192,192,75596,1,0,0:0:0:0:
192,192,75874,1,8,0:0:0:0:
192,192,76429,1,0,0:0:0:0:
192,192,76707,1,0,0:0:0:0:
192,192,76985,1,8,0:0:0:0:
192,192,77540,1,0,0:0:0:0:
192,192,77818,1,0,0:0:0:0:
192,192,78096,1,8,0:0:0:0:
192,192,78651,1,0,0:0:0:0:
192,192,78929,1,0,0:0:0:0:
192,192,79207,1,8,0:0:0:0:
192,192,79485,1,0,0:0:0:0:
192,192,79763,1,0,0:0:0:0:
192,192,80318,1,8,0:0:0:0:
192,192,80874,1,0,0:0:0:0:
192,192,81151,1,0,0:0:0:0:
192,192,81429,1,8,0:0:0:0:
192,192,81985,1,0,0:0:0:0:
192,192,82540,1,8,0:0:0:0:
192,192,83096,1,0,0:0:0:0:
192,192,83374,1,0,0:0:0:0:
192,192,83651,1,8,0:0:0:0:
192,192,84207,1,0,0:0:0:0:
192,192,84485,1,8,0:0:0:0:
192,192,84763,1,8,0:0:0:0:
192,192,85318,1,0,0:0:0:0:
192,192,85874,1,8,0:0:0:0:
192,192,86429,1,0,0:0:0:0:
192,192,86707,1,0,0:0:0:0:
192,192,86985,1,8,0:0:0:0:
192,192,87540,1,0,0:0:0:0:
192,192,88096,1,8,0:0:0:0:
192,192,88651,1,0,0:0:0:0:
192,192,88929,1,8,0:0:0:0:
192,192,89207,1,8,0:0:0:0:
192,192,89763,1,12,0:0:0:0:
192,192,90318,1,0,0:0:0:0:
192,192,90874,1,12,0:0:0:0:
192,192,91429,1,8,0:0:0:0:
192,192,91707,1,0,0:0:0:0:
192,192,91985,1,12,0:0:0:0:
192,192,92540,1,8,0:0:0:0:
192,192,92818,1,0,0:0:0:0:
192,192,93374,1,8,0:0:0:0:
192,192,93651,1,8,0:0:0:0:
192,192,94207,1,0,0:0:0:0:
192,192,94763,1,8,0:0:0:0:
192,192,95318,1,0,0:0:0:0:
192,192,95596,1,0,0:0:0:0:
192,192,95874,1,8,0:0:0:0:
192,192,96429,1,0,0:0:0:0:
192,192,96985,1,8,0:0:0:0:
192,192,97540,1,0,0:0:0:0:
192,192,97818,1,8,0:0:0:0:
192,192,98096,1,8,0:0:0:0:
192,192,98651,1,0,0:0:0:0:
192,192,99207,1,8,0:0:0:0:
160,192,99485,1,0,0:0:0:0:
192,192,100040,1,8,0:0:0:0:
192,192,100318,1,8,0:0:0:0:
192,192,100874,1,4,0:0:0:0:
192,192,101151,1,0,0:0:0:0:
192,192,101429,1,8,0:0:0:0:
192,192,101985,1,0,0:0:0:0:
192,192,102263,1,0,0:0:0:0:
192,192,102540,1,8,0:0:0:0:
160,192,103096,1,12,0:0:0:0:
192,192,103374,1,0,0:0:0:0:
192,192,103651,1,8,0:0:0:0:
192,192,104207,1,0,0:0:0:0:
192,192,104763,1,8,0:0:0:0:
192,192,105318,1,12,0:0:0:0:
192,192,105874,1,8,0:0:0:0:
192,192,106151,1,0,0:0:0:0:
192,192,106429,1,0,0:0:0:0:
192,192,106707,1,0,0:0:0:0:
192,192,106985,1,8,0:0:0:0:
192,192,107540,1,0,0:0:0:0:
192,192,108096,1,8,0:0:0:0:
192,192,108651,1,0,0:0:0:0:
192,192,108929,1,0,0:0:0:0:
192,192,109207,1,8,0:0:0:0:
192,192,109763,1,0,0:0:0:0:
192,192,110040,1,0,0:0:0:0:
192,192,110318,1,8,0:0:0:0:
192,192,110874,1,0,0:0:0:0:
192,192,111151,1,8,0:0:0:0:
192,192,111429,1,8,0:0:0:0:
192,192,111985,1,4,0:0:0:0:
192,192,112540,1,8,0:0:0:0:
192,192,113096,1,4,0:0:0:0:
192,192,113651,1,8,0:0:0:0:
192,192,114207,1,4,0:0:0:0:
192,192,114763,1,8,0:0:0:0:
192,192,115040,1,0,0:0:0:0:
192,192,115318,1,0,0:0:0:0:
192,192,115596,1,0,0:0:0:0:
192,192,115874,1,8,0:0:0:0:
192,192,116429,1,0,0:0:0:0:
192,192,116985,1,8,0:0:0:0:
192,192,117263,1,0,0:0:0:0:
192,192,117540,1,0,0:0:0:0:
192,192,117818,1,0,0:0:0:0:
192,192,118096,1,8,0:0:0:0:
192,192,118651,1,4,0:0:0:0:
160,192,119207,1,8,0:0:0:0:
160,192,119763,1,0,0:0:0:0:
160,192,120040,1,0,0:0:0:0:
160,192,120318,1,8,0:0:0:0:
160,192,120874,1,8,0:0:0:0:
160,192,121429,1,8,0:0:0:0:
128,192,121985,1,0,0:0:0:0:
128,192,122263,1,8,0:0:0:0:
160,192,122540,1,8,0:0:0:0:
160,192,123096,1,4,0:0:0:0:
160,192,123651,1,8,0:0:0:0:
160,192,124207,1,0,0:0:0:0:
160,192,124485,1,0,0:0:0:0:
160,192,124763,1,8,0:0:0:0:
160,192,125318,1,0,0:0:0:0:
160,192,125596,1,0,0:0:0:0:
160,192,125874,1,8,0:0:0:0:
160,192,126429,1,0,0:0:0:0:
160,192,126707,1,8,0:0:0:0:
160,192,126985,1,8,0:0:0:0:
160,192,127540,1,0,0:0:0:0:
160,192,128096,1,8,0:0:0:0:
160,192,128651,1,0,0:0:0:0:
160,192,128929,1,0,0:0:0:0:
160,192,129207,1,8,0:0:0:0:
160,192,129763,1,4,0:0:0:0:
160,192,130318,1,8,0:0:0:0:
128,192,130874,1,0,0:0:0:0:
128,192,131429,1,8,0:0:0:0:
160,192,131985,1,0,0:0:0:0:
160,192,132540,1,8,0:0:0:0:
160,192,132818,1,0,0:0:0:0:
160,192,133096,1,0,0:0:0:0:
160,192,133374,1,0,0:0:0:0:
160,192,133651,1,8,0:0:0:0:
160,192,134207,1,4,0:0:0:0:
160,192,134485,1,0,0:0:0:0:
160,192,134763,1,8,0:0:0:0:
160,192,135318,1,0,0:0:0:0:
160,192,135874,1,8,0:0:0:0:
160,192,136429,1,0,0:0:0:0:
160,192,136985,1,8,0:0:0:0:
160,192,137263,1,0,0:0:0:0:
160,192,137540,1,0,0:0:0:0:
160,192,137818,1,0,0:0:0:0:
160,192,138096,1,8,0:0:0:0:
160,192,138651,1,0,0:0:0:0:
160,192,138929,1,0,0:0:0:0:
160,160,139207,1,8,0:0:0:0:
160,192,139763,1,0,0:0:0:0:
160,192,140040,1,0,0:0:0:0:
160,192,140318,1,8,0:0:0:0:
160,192,140874,1,4,0:0:0:0:
160,192,141429,1,8,0:0:0:0:
160,192,141985,1,0,0:0:0:0:
160,192,142263,1,0,0:0:0:0:
160,192,142540,1,8,0:0:0:0:
160,192,143096,1,0,0:0:0:0:
160,192,143651,1,8,0:0:0:0:
160,192,144207,1,0,0:0:0:0:
160,192,144485,1,8,0:0:0:0:
160,192,144763,1,8,0:0:0:0:
160,192,145318,1,4,0:0:0:0:
128,192,145874,1,8,0:0:0:0:
128,192,146429,1,0,0:0:0:0:
128,192,146707,1,0,0:0:0:0:
128,192,146985,1,8,0:0:0:0:
128,192,147540,1,0,0:0:0:0:
128,192,147818,1,0,0:0:0:0:
128,192,148096,1,8,0:0:0:0:
128,192,148651,1,0,0:0:0:0:
128,192,148929,1,8,0:0:0:0:
128,192,149207,1,8,0:0:0:0:
128,192,149763,1,0,0:0:0:0:
128,192,150318,1,8,0:0:0:0:
128,192,150596,1,0,0:0:0:0:
128,192,150874,1,0,0:0:0:0:
160,192,151151,1,0,0:0:0:0:
160,192,151429,1,8,0:0:0:0:
128,192,151985,1,0,0:0:0:0:
128,192,152540,1,8,0:0:0:0:
128,192,153096,1,0,0:0:0:0:
160,192,153374,1,0,0:0:0:0:
160,192,153651,1,8,0:0:0:0:
128,192,154207,1,0,0:0:0:0:
128,192,154763,1,8,0:0:0:0:
128,192,155040,1,0,0:0:0:0:
128,192,155318,1,0,0:0:0:0:
160,192,155596,1,0,0:0:0:0:
160,192,155874,1,8,0:0:0:0:
128,192,156429,1,0,0:0:0:0:
128,192,156985,1,8,0:0:0:0:
128,192,157540,1,0,0:0:0:0:
128,192,157818,1,8,0:0:0:0:
160,192,158096,1,8,0:0:0:0:
128,192,158651,1,4,0:0:0:0:
128,192,159207,1,8,0:0:0:0:
128,192,159763,1,8,0:0:0:0:
160,192,160318,1,8,0:0:0:0:
128,192,160874,1,0,0:0:0:0:
128,192,161151,1,0,0:0:0:0:
128,192,161429,1,8,0:0:0:0:
128,192,161985,1,8,0:0:0:0:
160,192,162263,1,0,0:0:0:0:
160,192,162540,1,8,0:0:0:0:
128,192,163096,1,0,0:0:0:0:
128,192,163651,1,8,0:0:0:0:
128,192,164207,1,0,0:0:0:0:
160,192,164485,1,0,0:0:0:0:
160,192,164763,1,8,0:0:0:0:
128,192,165318,1,0,0:0:0:0:
128,192,165596,1,0,0:0:0:0:
128,192,165874,1,8,0:0:0:0:
128,192,166429,1,0,0:0:0:0:
160,192,166707,1,8,0:0:0:0:
160,192,166985,1,8,0:0:0:0:
192,192,167540,1,0,0:0:0:0:
192,192,168096,1,8,0:0:0:0:
192,192,168651,1,0,0:0:0:0:
192,192,168929,1,0,0:0:0:0:
192,192,169207,1,8,0:0:0:0:
192,192,169762,1,0,0:0:0:0:
192,192,170318,1,8,0:0:0:0:
192,192,170873,1,0,0:0:0:0:
192,192,171151,1,8,0:0:0:0:
192,192,171429,1,8,0:0:0:0:
192,192,171985,1,12,0:0:0:0:
192,192,172540,1,0,0:0:0:0:
192,192,173096,1,12,0:0:0:0:
192,192,173651,1,8,0:0:0:0:
192,192,173929,1,0,0:0:0:0:
192,192,174207,1,12,0:0:0:0:
192,192,174762,1,8,0:0:0:0:
192,192,175040,1,0,0:0:0:0:
192,192,175596,1,8,0:0:0:0:
192,192,175873,1,8,0:0:0:0:
192,192,176429,1,0,0:0:0:0:
192,192,176985,1,8,0:0:0:0:
192,192,177540,1,0,0:0:0:0:
192,192,177818,1,0,0:0:0:0:
192,192,178096,1,8,0:0:0:0:
192,192,178651,1,0,0:0:0:0:
192,192,179207,1,8,0:0:0:0:
192,192,179762,1,0,0:0:0:0:
192,192,180040,1,8,0:0:0:0:
192,192,180318,1,8,0:0:0:0:
192,192,180874,1,0,0:0:0:0:
192,192,181429,1,8,0:0:0:0:
192,192,181985,1,0,0:0:0:0:
192,192,182263,1,0,0:0:0:0:
192,192,182540,1,8,0:0:0:0:
192,192,183096,1,4,0:0:0:0:
192,192,183651,1,8,0:0:0:0:
192,192,184207,1,0,0:0:0:0:
192,192,184485,1,0,0:0:0:0:
192,192,184763,1,12,0:0:0:0:
160,192,185318,1,12,0:0:0:0:
192,192,185596,1,0,0:0:0:0:
192,192,185874,1,8,0:0:0:0:
192,192,186429,1,0,0:0:0:0:
192,192,186707,1,0,0:0:0:0:
192,192,186985,1,12,0:0:0:0:
192,192,187540,1,4,0:0:0:0:
192,192,188096,1,8,0:0:0:0:
192,192,188374,1,0,0:0:0:0:
192,192,188651,1,0,0:0:0:0:
192,192,188929,1,0,0:0:0:0:
192,192,189207,1,8,0:0:0:0:
192,192,189763,1,0,0:0:0:0:
192,192,190318,1,8,0:0:0:0:
192,192,190874,1,0,0:0:0:0:
192,192,191151,1,0,0:0:0:0:
192,192,191429,1,8,0:0:0:0:
192,192,191985,1,0,0:0:0:0:
192,192,192540,1,8,0:0:0:0:
192,192,193096,1,0,0:0:0:0:
192,192,193374,1,0,0:0:0:0:
192,192,193651,1,8,0:0:0:0:
192,192,194207,1,4,0:0:0:0:
192,192,194763,1,8,0:0:0:0:
192,192,195318,1,4,0:0:0:0:
192,192,195874,1,8,0:0:0:0:
192,192,196429,1,4,0:0:0:0:
192,192,196985,1,8,0:0:0:0:
192,192,197263,1,0,0:0:0:0:
192,192,197540,1,0,0:0:0:0:
192,192,197818,1,0,0:0:0:0:
192,192,198096,1,8,0:0:0:0:
192,192,198651,1,0,0:0:0:0:
192,192,199207,1,8,0:0:0:0:
192,192,199485,1,0,0:0:0:0:
192,192,199763,1,0,0:0:0:0:
192,192,200040,1,0,0:0:0:0:
192,192,200318,1,8,0:0:0:0:
192,192,200874,1,4,0:0:0:0:
160,192,201151,1,0,0:0:0:0:
160,192,201429,1,8,0:0:0:0:
160,192,201985,1,8,0:0:0:0:
160,192,202263,1,0,0:0:0:0:
160,192,202540,1,8,0:0:0:0:
160,192,203096,1,0,0:0:0:0:
160,192,203651,1,8,0:0:0:0:
128,192,204207,1,0,0:0:0:0:
128,192,204485,1,8,0:0:0:0:
160,192,204763,1,8,0:0:0:0:
160,192,205318,1,4,0:0:0:0:
160,192,205874,1,8,0:0:0:0:
160,192,206429,1,0,0:0:0:0:
160,192,206707,1,0,0:0:0:0:
160,192,206985,1,8,0:0:0:0:
160,192,207540,1,0,0:0:0:0:
160,192,208096,1,8,0:0:0:0:
160,192,208651,1,0,0:0:0:0:
160,192,208929,1,8,0:0:0:0:
160,192,209207,1,8,0:0:0:0:
160,192,209763,1,0,0:0:0:0:
160,192,210318,1,8,0:0:0:0:
160,192,210874,1,0,0:0:0:0:
160,192,211151,1,8,0:0:0:0:
160,192,211429,1,8,0:0:0:0:
160,192,211985,1,4,0:0:0:0:
160,192,212540,1,8,0:0:0:0:
128,192,213096,1,0,0:0:0:0:
128,192,213374,1,0,0:0:0:0:
128,192,213651,1,8,0:0:0:0:
160,192,214207,1,0,0:0:0:0:
160,192,214763,1,8,0:0:0:0:
160,192,215040,1,0,0:0:0:0:
160,192,215318,1,0,0:0:0:0:
160,192,215596,1,0,0:0:0:0:
160,192,215874,1,8,0:0:0:0:
160,192,216429,1,4,0:0:0:0:
160,192,216985,1,8,0:0:0:0:
160,192,217540,1,0,0:0:0:0:
160,192,217818,1,0,0:0:0:0:
160,192,218096,1,8,0:0:0:0:
160,192,218651,1,0,0:0:0:0:
160,192,219207,1,8,0:0:0:0:
160,192,219485,1,0,0:0:0:0:
160,192,219763,1,0,0:0:0:0:
160,192,220040,1,0,0:0:0:0:
160,192,220318,1,8,0:0:0:0:
160,192,220874,1,0,0:0:0:0:
160,192,221151,1,0,0:0:0:0:
160,160,221429,1,8,0:0:0:0:
160,192,221985,1,0,0:0:0:0:
160,192,222263,1,0,0:0:0:0:
160,192,222540,1,8,0:0:0:0:
160,192,223096,1,12,0:0:0:0:
160,192,223651,1,8,0:0:0:0:
160,192,224207,1,8,0:0:0:0:
160,192,224763,1,8,0:0:0:0:
160,192,225040,1,0,0:0:0:0:
160,192,225318,1,8,0:0:0:0:
160,192,225874,1,8,0:0:0:0:
160,192,226429,1,8,0:0:0:0:
160,192,226985,1,8,0:0:0:0:
160,192,227263,1,0,0:0:0:0:
160,192,227540,1,8,0:0:0:0:
160,192,228096,1,8,0:0:0:0:
160,192,228651,1,8,0:0:0:0:
160,192,229207,1,8,0:0:0:0:
160,192,229763,1,4,0:0:0:0:
160,192,230040,1,4,0:0:0:0:
160,192,230318,1,8,0:0:0:0:
160,192,230874,1,4,0:0:0:0:
160,192,231429,1,8,0:0:0:0:
160,192,231707,1,0,0:0:0:0:
128,192,231985,1,4,0:0:0:0:
128,192,232540,1,0,0:0:0:0:
128,192,233096,1,0,0:0:0:0:
128,192,233651,1,0,0:0:0:0:
128,192,233929,1,8,0:0:0:0:
128,192,234207,1,0,0:0:0:0:
128,192,234763,1,0,0:0:0:0:
128,192,235318,1,0,0:0:0:0:
128,192,235874,1,0,0:0:0:0:
128,192,236151,1,8,0:0:0:0:
128,192,236429,1,0,0:0:0:0:
128,192,236985,1,8,0:0:0:0:
128,192,237263,1,0,0:0:0:0:
128,192,237540,1,8,0:0:0:0:
160,192,238096,1,0,0:0:0:0:
160,192,238374,1,0,0:0:0:0:
128,192,238651,1,0,0:0:0:0:
128,192,239207,1,8,0:0:0:0:
128,192,239485,1,0,0:0:0:0:
128,192,239763,1,8,0:0:0:0:
128,192,240318,1,8,0:0:0:0:
128,192,240874,1,0,0:0:0:0:
128,192,241151,1,0,0:0:0:0:
128,192,241429,1,8,0:0:0:0:
128,192,241985,1,0,0:0:0:0:
128,192,242263,1,0,0:0:0:0:
128,192,242540,1,8,0:0:0:0:
128,192,243096,1,0,0:0:0:0:
128,192,243651,1,8,0:0:0:0:
128,192,244207,1,0,0:0:0:0:
128,192,244485,1,0,0:0:0:0:
128,192,244763,1,8,0:0:0:0:
128,192,245318,1,0,0:0:0:0:
128,192,245596,1,0,0:0:0:0:
128,192,245874,1,8,0:0:0:0:
128,192,246429,1,8,0:0:0:0:
128,192,246707,1,0,0:0:0:0:
128,192,246985,1,8,0:0:0:0:
128,192,247540,1,0,0:0:0:0:
128,192,248096,1,8,0:0:0:0:
128,192,248651,1,0,0:0:0:0:
128,192,248929,1,8,0:0:0:0:
128,192,249207,1,8,0:0:0:0:
128,192,249763,1,0,0:0:0:0:
128,192,250318,1,8,0:0:0:0:
128,192,250874,1,0,0:0:0:0:
128,192,251151,1,0,0:0:0:0:
128,192,251429,1,8,0:0:0:0:
128,192,251985,1,8,0:0:0:0:
128,192,252263,1,0,0:0:0:0:
128,192,252540,1,8,0:0:0:0:
128,192,253096,1,8,0:0:0:0:
128,192,253374,1,0,0:0:0:0:
128,192,253651,1,8,0:0:0:0:
128,192,254207,1,0,0:0:0:0:
128,192,254763,1,8,0:0:0:0:
128,192,255318,1,0,0:0:0:0:
128,192,255596,1,0,0:0:0:0:
128,192,255874,1,8,0:0:0:0:
128,192,256429,1,0,0:0:0:0:
128,192,256985,1,8,0:0:0:0:
128,192,257540,1,0,0:0:0:0:
128,192,257818,1,8,0:0:0:0:
128,192,258096,1,8,0:0:0:0:
128,192,258651,1,4,0:0:0:0:
128,192,259207,1,8,0:0:0:0:
128,192,259763,1,0,0:0:0:0:
128,192,260040,1,0,0:0:0:0:
128,192,260318,1,8,0:0:0:0:
128,192,260874,1,0,0:0:0:0:
128,192,261151,1,0,0:0:0:0:
128,192,261429,1,8,0:0:0:0:
128,192,261985,1,0,0:0:0:0:
128,192,262263,1,0,0:0:0:0:
128,192,262540,1,8,0:0:0:0:
128,192,263096,1,0,0:0:0:0:
128,192,263651,1,8,0:0:0:0:
128,192,264207,1,0,0:0:0:0:
128,192,264485,1,0,0:0:0:0:
128,192,264763,1,8,0:0:0:0:
128,192,265318,1,0,0:0:0:0:
128,192,265596,1,0,0:0:0:0:
128,192,265874,1,8,0:0:0:0:
128,192,266429,1,0,0:0:0:0:
128,192,266707,1,0,0:0:0:0:
128,192,266985,1,8,0:0:0:0:
128,192,267263,1,0,0:0:0:0:
128,192,267540,1,12,0:0:0:0:
128,192,268096,1,8,0:0:0:0:
128,192,268651,1,0,0:0:0:0:
128,192,268929,1,8,0:0:0:0:
128,192,269207,1,8,0:0:0:0:
128,192,269763,1,0,0:0:0:0:
128,192,270318,1,8,0:0:0:0:
128,192,270874,1,0,0:0:0:0:
128,192,271151,1,8,0:0:0:0:
128,192,271429,1,8,0:0:0:0:
128,192,271985,1,8,0:0:0:0:
128,192,272263,1,0,0:0:0:0:
128,192,272540,1,8,0:0:0:0:
128,192,273096,1,8,0:0:0:0:
128,192,273374,1,8,0:0:0:0:
128,192,273651,1,8,0:0:0:0:
128,192,274207,1,8,0:0:0:0:
96,192,274485,1,0,0:0:0:0:
128,192,274763,1,0,0:0:0:0:
128,192,275318,1,8,0:0:0:0:
128,192,275596,1,0,0:0:0:0:
128,192,275874,1,0,0:0:0:0:
128,192,276429,1,12,0:0:0:0:
128,192,276985,1,8,0:0:0:0:
128,192,277263,1,0,0:0:0:0:
128,192,277540,1,0,0:0:0:0:
128,192,277818,1,0,0:0:0:0:
128,192,278096,1,8,0:0:0:0:
128,192,278651,1,0,0:0:0:0:
128,192,279207,1,8,0:0:0:0:
128,192,279485,1,0,0:0:0:0:
128,192,279763,1,0,0:0:0:0:
128,192,280040,1,0,0:0:0:0:
128,192,280318,1,8,0:0:0:0:
128,192,280874,1,0,0:0:0:0:
128,192,281429,1,8,0:0:0:0:
128,192,281707,1,8,0:0:0:0:
128,192,281985,1,0,0:0:0:0:
128,192,282263,1,0,0:0:0:0:
128,192,282540,1,8,0:0:0:0:
128,192,283096,1,8,0:0:0:0:
128,224,283374,1,0,0:0:0:0:
128,192,283651,1,8,0:0:0:0:
128,192,284207,1,0,0:0:0:0:
128,192,284485,1,0,0:0:0:0:
128,192,284763,1,8,0:0:0:0:
128,192,285318,1,8,0:0:0:0:
128,192,285874,1,8,0:0:0:0:
128,192,286151,1,0,0:0:0:0:
128,192,286429,1,0,0:0:0:0:
128,192,286707,1,0,0:0:0:0:
128,192,286985,1,8,0:0:0:0:
128,192,287540,1,0,0:0:0:0:
128,192,288096,1,8,0:0:0:0:
128,192,288651,1,0,0:0:0:0:
128,192,289207,1,8,0:0:0:0:
128,192,289485,1,0,0:0:0:0:
128,192,289763,1,0,0:0:0:0:
128,192,290318,1,8,0:0:0:0:
128,192,290596,1,0,0:0:0:0:
128,192,290874,1,0,0:0:0:0:
128,192,291151,1,0,0:0:0:0:
128,192,291429,1,8,0:0:0:0:
128,192,291985,1,0,0:0:0:0:
128,192,292540,1,8,0:0:0:0:
128,192,292818,1,0,0:0:0:0:
128,192,293096,1,0,0:0:0:0:
128,192,293374,1,0,0:0:0:0:
128,192,293651,1,8,0:0:0:0:
256,192,294207,12,0,296429,0:0:0:0:
