osu file format v12

[General]
AudioFilename: ave__new_feat._Saori_Sakura_-_Kiss_My_Lips.mp3
AudioLeadIn: 0
PreviewTime: 66579
Countdown: 0
SampleSet: Soft
StackLeniency: 0.7
Mode: 0
LetterboxInBreaks: 0

[Editor]
DistanceSpacing: 1
BeatDivisor: 4
GridSize: 4

[Metadata]
Title:kiss my lips
TitleUnicode:kiss my lips
Artist:ave;new feat. Sakura Saori
ArtistUnicode:ave;new feat. 佐倉紗織
Creator:Miya
Version:Hard
Source:
Tags:true my heart
BeatmapID:252606
BeatmapSetID:93704

[Difficulty]
HPDrainRate:6
CircleSize:4
OverallDifficulty:7
ApproachRate:8
SliderMultiplier:1.6
SliderTickRate:2

[Events]
//Background and Video events
0,0,"Nursery.Rhyme.full.1009465.jpg",0,0
//Break Periods
2,24099,31346
2,100378,107625
2,172936,177103
2,180378,182044
//Storyboard Layer 0 (Background)
//Storyboard Layer 1 (Fail)
//Storyboard Layer 2 (Pass)
//Storyboard Layer 3 (Foreground)
//Storyboard Sound Samples
//Background Colour Transformations
3,100,163,162,255

[TimingPoints]
5295,465.116279069767,4,2,1,80,1,0
6690,-100,4,2,2,75,0,0
6806,-100,4,2,1,80,0,0
14132,-100,4,2,2,75,0,0
14248,-100,4,2,1,80,0,0
40178,-100,4,2,2,75,0,0
40294,-100,4,2,1,80,0,0
44829,-100,4,2,2,75,0,0
44946,-100,4,2,1,80,0,0
55062,-100,4,2,2,75,0,0
55178,-100,4,2,1,80,0,0
59713,-100,4,2,2,75,0,0
59829,-100,4,2,1,80,0,0
66690,-90.9090909090909,4,2,1,90,0,1
68085,-90.9090909090909,4,2,2,85,0,1
68201,-90.9090909090909,4,2,1,90,0,1
70876,-90.9090909090909,4,2,2,85,0,1
70992,-90.9090909090909,4,2,1,90,0,1
72736,-90.9090909090909,4,2,2,85,0,1
72853,-90.9090909090909,4,2,1,90,0,1
75527,-90.9090909090909,4,2,2,85,0,1
75643,-90.9090909090909,4,2,1,90,0,1
78318,-90.9090909090909,4,2,2,85,0,1
78434,-90.9090909090909,4,2,1,90,0,1
81457,-90.9090909090909,4,2,1,90,0,0
81574,-90.9090909090909,4,2,1,90,0,1
82969,-90.9090909090909,4,2,2,85,0,1
83085,-90.9090909090909,4,2,1,90,0,1
85760,-90.9090909090909,4,2,2,85,0,1
85876,-90.9090909090909,4,2,1,90,0,1
90411,-90.9090909090909,4,2,2,85,0,1
90527,-90.9090909090909,4,2,1,90,0,1
95062,-90.9090909090909,4,2,2,85,0,1
95178,-90.9090909090909,4,2,1,90,0,1
96457,-100,4,2,1,80,0,0
121108,-100,4,2,2,75,0,0
121225,-100,4,2,1,80,0,0
135992,-100,4,2,2,75,0,0
136108,-100,4,2,1,80,0,0
142969,-90.9090909090909,4,2,1,90,0,1
143434,-90.9090909090909,4,2,2,85,0,1
143550,-90.9090909090909,4,2,1,90,0,1
144364,-90.9090909090909,4,2,2,85,0,1
144481,-90.9090909090909,4,2,1,90,0,1
147155,-90.9090909090909,4,2,2,85,0,1
147271,-90.9090909090909,4,2,1,90,0,1
149015,-90.9090909090909,4,2,2,85,0,1
149132,-90.9090909090909,4,2,1,90,0,1
151806,-90.9090909090909,4,2,2,85,0,1
151922,-90.9090909090909,4,2,1,90,0,1
157736,-90.9090909090909,4,2,1,90,0,0
157853,-90.9090909090909,4,2,1,90,0,1
158318,-90.9090909090909,4,2,2,85,0,1
158434,-90.9090909090909,4,2,1,90,0,1
159248,-90.9090909090909,4,2,2,85,0,1
159364,-90.9090909090909,4,2,1,90,0,1
162039,-90.9090909090909,4,2,2,85,0,1
162155,-90.9090909090909,4,2,1,90,0,1
163899,-90.9090909090909,4,2,2,85,0,1
164015,-90.9090909090909,4,2,1,90,0,1
166690,-90.9090909090909,4,2,2,90,0,1
166806,-90.9090909090909,4,2,1,90,0,1
171341,-90.9090909090909,4,2,2,85,0,1
171457,-90.9090909090909,4,2,1,90,0,1
172736,-100,4,2,1,70,0,0
183667,-100,4,2,1,80,0,0
184364,-100,4,2,2,75,0,0
184481,-100,4,2,1,80,0,0
187620,-83.3333333333333,4,2,1,90,0,1
189015,-83.3333333333333,4,2,2,85,0,1
189132,-83.3333333333333,4,2,1,90,0,1
191806,-83.3333333333333,4,2,2,85,0,1
191922,-83.3333333333333,4,2,1,90,0,1
193667,-83.3333333333333,4,2,2,85,0,1
193783,-83.3333333333333,4,2,1,90,0,1
196457,-83.3333333333333,4,2,2,85,0,1
196574,-83.3333333333333,4,2,1,90,0,1
201108,-83.3333333333333,4,2,2,85,0,1
201225,-83.3333333333333,4,2,1,90,0,1
202504,-83.3333333333333,4,2,1,90,0,0

[Colours]
Combo1 : 255,192,0
Combo2 : 255,128,255
Combo3 : 183,91,0
Combo4 : 0,128,255

[HitObjects]
200,308,5295,1,4,0:0:0:0:
124,216,5643,1,0,0:0:0:0:
200,124,5992,1,0,0:0:0:0:
200,124,6225,2,0,P|160:80|104:56,2,120,2|0|0,0:0|0:0|0:0,0:0:0:0:
256,180,7155,1,2,0:0:0:0:
368,40,7504,1,2,0:0:0:0:
480,180,7853,1,2,0:0:0:0:
480,180,8085,2,0,L|480:260,1,80
476,340,8550,1,8,0:0:0:0:
476,340,8667,1,0,0:0:0:0:
256,248,9015,5,2,0:0:0:0:
84,192,9364,1,0,0:0:0:0:
256,140,9713,2,0,P|296:116|316:80,1,80,0|2,0:0|0:0,0:0:0:0:
236,60,10178,1,0,0:0:0:0:
164,28,10411,1,8,0:0:0:0:
128,40,10527,1,0,0:0:0:0:
88,28,10643,1,0,0:0:0:0:
28,80,10876,1,2,0:0:0:0:
96,248,11225,1,0,0:0:0:0:
256,328,11574,2,0,P|296:320|336:328,1,80,0|2,0:0|0:0,0:0:0:0:
476,256,12271,1,8,0:0:0:0:
364,140,12736,5,4,0:0:0:0:
256,84,13085,1,0,0:0:0:0:
148,140,13434,1,0,0:0:0:0:
92,196,13667,2,0,P|40:232|4:288,2,120,2|0|0,0:0|0:0|0:0,0:0:0:0:
212,272,14597,1,2,0:0:0:0:
376,348,14946,1,2,0:0:0:0:
468,196,15294,2,0,P|508:168|528:124,1,80,2|0,0:0|0:0,0:0:0:0:
444,116,15760,2,0,P|412:84|380:72,2,80,0|8|0,0:0|0:0|0:0,0:0:0:0:
348,188,16457,5,4,0:0:0:0:
140,312,16922,1,2,0:0:0:0:
68,84,17388,1,2,0:0:0:0:
268,212,17853,6,0,P|348:188|421:214,1,160,0|2,0:0|0:0,0:0:0:0:
496,108,18667,1,0,0:0:0:0:
404,32,19015,1,0,0:0:0:0:
328,60,19248,1,2,0:0:0:0:
256,28,19481,1,0,0:0:0:0:
184,60,19713,1,8,0:0:0:0:
112,28,19946,1,0,0:0:0:0:
40,60,20178,1,4,0:0:0:0:
256,192,20411,12,4,23899,0:0:0:0:
256,192,33201,12,4,35062,0:0:0:0:
260,344,35527,5,8,0:0:0:0:
184,316,35760,2,0,P|136:248|56:212,1,160
100,140,36457,1,8,0:0:0:0:
172,100,36690,2,0,P|256:120|328:100,1,160
352,28,37388,1,8,0:0:0:0:
432,32,37620,1,0,0:0:0:0:
456,108,37853,1,0,0:0:0:0:
388,148,38085,1,0,0:0:0:0:
325,101,38318,2,0,P|280:124|256:152,1,80,8|0,0:0|0:0,0:0:0:0:
332,240,38783,6,0,P|308:276|260:296,1,80,2|0,0:0|0:0,0:0:0:0:
131,346,39248,2,0,P|156:320|196:304,1,80,8|0,0:0|0:0,0:0:0:0:
48,244,39946,2,0,P|16:176|52:104,1,160
192,180,40876,2,0,L|280:180,1,80,0|8,0:0|0:0,0:0:0:0:
292,260,41341,2,0,L|392:260,1,80
416,328,41806,1,0,0:0:0:0:
416,328,41922,1,0,0:0:0:0:
416,328,42039,2,0,L|497:327,1,80,8|0,0:0|0:0,0:0:0:0:
452,216,42504,6,0,P|416:144|340:96,1,160,4|8,0:0|0:0,0:0:0:0:
284,140,43201,2,0,P|244:148|204:136,1,80
144,88,43667,2,0,P|106:77|68:88,1,80,0|8,0:0|0:0,0:0:0:0:
16,148,44132,1,0,0:0:0:0:
16,148,44364,2,0,P|-4:208|12:264,2,120,4|0|0,0:0|0:0|0:0,0:0:0:0:
68,88,45294,1,0,0:0:0:0:
120,148,45527,2,0,P|132:188|120:228,2,80,0|8|0,0:0|0:0|0:0,0:0:0:0:
172,88,46225,6,0,L|336:88,1,160,4|8,0:0|0:0,0:0:0:0:
452,196,47155,2,0,L|368:196,1,80
396,272,47620,2,0,L|316:272,1,80,8|0,0:0|0:0,0:0:0:0:
244,304,48085,1,2,0:0:0:0:
168,336,48318,1,0,0:0:0:0:
96,300,48550,1,8,0:0:0:0:
64,228,48783,2,0,P|36:200|-12:180,2,80
100,156,49481,2,0,P|143:91|220:52,1,160,8|4,0:0|0:0,0:0:0:0:
224,176,50178,5,0,0:0:0:0:
292,220,50411,1,8,0:0:0:0:
356,172,50643,2,0,P|440:220|472:272,1,160
292,116,51574,1,0,0:0:0:0:
112,276,52039,2,0,L|28:276,1,80,0|8,0:0|0:0,0:0:0:0:
68,204,52504,2,0,L|156:204,1,80
180,132,52969,1,0,0:0:0:0:
180,132,53085,1,0,0:0:0:0:
180,132,53201,2,0,L|100:132,1,80,8|0,0:0|0:0,0:0:0:0:
32,32,53667,5,2,0:0:0:0:
148,56,53899,1,0,0:0:0:0:
264,32,54132,1,8,0:0:0:0:
380,60,54364,1,0,0:0:0:0:
492,272,54829,2,0,P|416:304|368:368,1,160
256,152,55760,2,0,L|196:96,1,80,0|8,0:0|0:0,0:0:0:0:
116,88,56225,2,0,L|57:33,1,80
24,104,56690,1,0,0:0:0:0:
24,144,56806,1,0,0:0:0:0:
24,184,56922,2,0,L|24:264,1,80,8|0,0:0|0:0,0:0:0:0:
124,332,57388,6,0,P|180:264|260:240,1,160,6|8,0:0|0:0,0:0:0:0:
308,292,58085,1,0,0:0:0:0:
368,236,58318,2,0,P|408:216|440:180,1,80
452,156,58667,1,0,0:0:0:0:
468,120,58783,2,0,L|468:32|468:32,1,80,8|0,0:0|0:0,0:0:0:0:
352,72,59248,6,0,B|312:68|312:68|272:80|272:80|220:72,2,120,4|0|0,0:0|0:0|0:0,0:0:0:0:
388,144,60178,1,0,0:0:0:0:
352,216,60411,1,0,0:0:0:0:
352,216,60527,1,0,0:0:0:0:
352,216,60643,1,8,0:0:0:0:
388,288,60876,2,0,L|452:344,1,80,0|2,0:0|0:0,0:0:0:0:
244,216,61574,5,8,0:0:0:0:
194,279,61806,1,0,0:0:0:0:
118,252,62039,1,0,0:0:0:0:
121,171,62271,1,0,0:0:0:0:
198,149,62504,1,8,0:0:0:0:
244,216,62736,1,0,0:0:0:0:
336,140,62969,6,0,P|400:104|448:32,1,160,2|8,0:0|0:0,0:0:0:0:
336,244,63899,2,0,P|400:280|447:350,1,160,0|8,0:0|0:0,0:0:0:0:
256,192,64829,12,8,66225,0:0:0:0:
256,296,66690,5,4,0:0:0:0:
136,244,67039,1,0,0:0:0:0:
68,132,67388,1,0,0:0:0:0:
68,132,67620,2,0,P|40:76|-16:28,2,132.00000402832,2|0|0,0:0|0:0|0:0,0:0:0:0:
152,32,68550,1,2,0:0:0:0:
256,200,68899,1,0,0:0:0:0:
360,32,69248,2,0,P|452:64|508:124,1,176.000005371094,2|0,0:0|0:0,0:0:0:0:
504,208,69946,1,8,0:0:0:0:
504,208,70062,1,0,0:0:0:0:
388,272,70411,6,0,P|428:320|500:344,2,132.00000402832,2|0|0,0:0|0:0|0:0,0:0:0:0:
304,244,71341,2,0,P|216:220|136:244,1,176.000005371094,2|8,0:0|0:0,0:0:0:0:
104,272,71922,1,0,0:0:0:0:
80,308,72039,1,0,0:0:0:0:
137,243,72271,2,0,P|85:203|21:183,2,132.00000402832,2|0|0,0:0|0:0|0:0,0:0:0:0:
220,276,73201,1,2,0:0:0:0:
352,160,73667,2,0,P|392:84|468:32,1,176.000005371094,8|4,0:0|0:0,0:0:0:0:
500,228,74481,5,0,0:0:0:0:
360,368,74829,1,0,0:0:0:0:
276,336,75062,2,0,L|135:336,2,132.00000402832,2|0|0,0:0|0:0|0:0,0:0:0:0:
368,240,75992,1,2,0:0:0:0:
440,56,76341,1,2,0:0:0:0:
256,132,76690,1,2,0:0:0:0:
256,132,77155,2,0,L|168:132,1,88.000002685547,0|8,0:0|0:0,0:0:0:0:
256,232,77620,1,0,0:0:0:0:
388,256,77853,6,0,P|436:308|500:336,2,132.00000402832,4|0|0,0:0|0:0|0:0,0:0:0:0:
404,124,78783,2,0,L|448:48,1,88.000002685547,2|0,0:0|0:0,0:0:0:0:
324,96,79248,2,0,L|324:8,1,88.000002685547,8|0,0:0|0:0,0:0:0:0:
232,104,79713,5,2,0:0:0:0:
232,104,79829,2,0,L|188:28,1,88.000002685547,0|0,0:0|0:0,0:0:0:0:
187,27,80178,1,8,0:0:0:0:
120,84,80411,1,0,0:0:0:0:
68,156,80643,1,2,0:0:0:0:
104,236,80876,1,0,0:0:0:0:
56,312,81108,1,8,0:0:0:0:
56,312,81225,1,0,0:0:0:0:
56,312,81341,1,0,0:0:0:0:
176,364,81574,5,4,0:0:0:0:
256,184,81922,1,0,0:0:0:0:
336,364,82271,1,0,0:0:0:0:
336,364,82504,2,0,L|472:364,2,132.00000402832,2|0|0,0:0|0:0|0:0,0:0:0:0:
256,264,83434,1,2,0:0:0:0:
260,64,83783,1,2,0:0:0:0:
88,164,84132,1,2,0:0:0:0:
352,168,84597,2,0,L|456:168,1,88.000002685547,0|8,0:0|0:0,0:0:0:0:
484,168,84946,1,0,0:0:0:0:
404,64,85294,6,0,P|368:28|292:8,2,132.00000402832,2|0|0,0:0|0:0|0:0,0:0:0:0:
480,108,86225,1,2,0:0:0:0:
412,272,86690,1,8,0:0:0:0:
388,308,86806,1,0,0:0:0:0:
364,344,86922,1,0,0:0:0:0:
256,264,87155,1,2,0:0:0:0:
76,348,87504,1,0,0:0:0:0:
76,148,87853,2,0,P|52:108|8:80,2,88.000002685547,0|2|0,0:0|0:0|0:0,0:0:0:0:
132,80,88550,2,0,P|224:40|280:88,1,176.000005371094,8|4,0:0|0:0,0:0:0:0:
204,240,89364,5,0,0:0:0:0:
368,352,89713,1,0,0:0:0:0:
368,352,89946,2,0,P|416:308|484:292,2,132.00000402832,2|0|0,0:0|0:0|0:0,0:0:0:0:
292,308,90876,2,0,L|200:308,1,88.000002685547,2|0,0:0|0:0,0:0:0:0:
159,308,91225,1,0,0:0:0:0:
20,164,91574,1,2,0:0:0:0:
148,44,92039,2,0,L|252:44,1,88.000002685547,0|8,0:0|0:0,0:0:0:0:
280,44,92388,1,0,0:0:0:0:
456,136,92736,5,4,0:0:0:0:
308,352,93201,1,8,0:0:0:0:
56,280,93667,1,2,0:0:0:0:
148,44,94132,1,8,0:0:0:0:
212,104,94364,1,0,0:0:0:0:
212,104,94481,1,0,0:0:0:0:
212,104,94597,6,0,P|256:52|320:28,2,132.00000402832,2|0|0,0:0|0:0|0:0,0:0:0:0:
284,156,95527,1,2,0:0:0:0:
169,239,95760,1,0,0:0:0:0:
213,104,95992,1,8,0:0:0:0:
257,239,96225,1,0,0:0:0:0:
142,156,96457,1,4,0:0:0:0:
256,192,96690,12,4,100178,0:0:0:0:
256,192,109481,12,8,110876,0:0:0:0:
180,268,111341,6,0,L|100:268,1,80,4|0,0:0|0:0,0:0:0:0:
208,192,111806,2,0,L|128:192,1,80,8|0,0:0|0:0,0:0:0:0:
256,96,112504,1,0,0:0:0:0:
328,60,112736,1,8,0:0:0:0:
400,96,112969,2,0,P|472:140|512:208,1,160
496,280,113667,1,8,0:0:0:0:
440,340,113899,1,0,0:0:0:0:
364,320,114132,1,0,0:0:0:0:
288,340,114364,1,0,0:0:0:0:
248,340,114481,1,0,0:0:0:0:
208,340,114597,2,0,L|120:340,1,80,8|0,0:0|0:0,0:0:0:0:
40,256,115062,6,0,L|88:184,1,80,2|0,0:0|0:0,0:0:0:0:
206,94,115527,2,0,L|160:160,1,80,8|0,0:0|0:0,0:0:0:0:
256,288,116225,1,0,0:0:0:0:
328,324,116457,1,8,0:0:0:0:
400,288,116690,1,0,0:0:0:0:
488,156,117155,2,0,B|464:120|424:112,1,80,0|8,0:0|0:0,0:0:0:0:
416,192,117620,1,0,0:0:0:0:
416,192,117853,1,0,0:0:0:0:
348,152,118085,1,0,0:0:0:0:
348,152,118201,1,0,0:0:0:0:
348,152,118318,2,0,L|264:152,1,80,8|0,0:0|0:0,0:0:0:0:
188,64,118783,6,0,B|104:64|104:64|28:120,1,160,4|8,0:0|0:0,0:0:0:0:
40,188,119481,2,0,B|68:216|68:216|120:216,1,80
256,284,120178,2,0,L|312:344,1,80,8|0,0:0|0:0,0:0:0:0:
348,352,120527,1,0,0:0:0:0:
384,340,120643,2,0,L|480:240,2,120,4|0|0,0:0|0:0|0:0,0:0:0:0:
348,268,121574,1,0,0:0:0:0:
348,188,121806,2,0,L|348:108,1,80,0|8,0:0|0:0,0:0:0:0:
348,28,122271,1,0,0:0:0:0:
256,104,122504,6,0,P|144:68|116:84,2,160,4|8|0,0:0|0:0|0:0,0:0:0:0:
300,172,123667,1,0,0:0:0:0:
380,168,123899,2,0,P|428:176|452:200,1,80,8|0,0:0|0:0,0:0:0:0:
388,248,124364,1,2,0:0:0:0:
448,304,124597,1,0,0:0:0:0:
388,248,124829,1,8,0:0:0:0:
308,248,125062,2,0,P|264:272|244:304,1,80
188,348,125527,1,0,0:0:0:0:
188,348,125643,1,0,0:0:0:0:
188,348,125760,2,0,L|96:348,1,80,8|0,0:0|0:0,0:0:0:0:
24,264,126225,5,4,0:0:0:0:
100,168,126457,1,0,0:0:0:0:
28,72,126690,1,8,0:0:0:0:
140,24,126922,1,0,0:0:0:0:
276,108,127388,2,0,L|360:140,2,80,0|8|0,0:0|0:0|0:0,0:0:0:0:
236,264,128318,2,0,L|152:232,2,80,0|8|0,0:0|0:0|0:0,0:0:0:0:
312,292,129015,1,0,0:0:0:0:
384,260,129248,1,0,0:0:0:0:
416,236,129364,1,0,0:0:0:0:
448,212,129481,2,0,P|467:173|500:148,1,80,8|0,0:0|0:0,0:0:0:0:
384,108,129946,6,0,P|300:104|244:56,1,160,2|8,0:0|0:0,0:0:0:0:
64,28,130643,2,0,P|144:60|188:116,1,160
164,192,131341,1,8,0:0:0:0:
216,252,131574,2,0,P|260:308|340:340,1,160
416,320,132271,1,8,0:0:0:0:
492,344,132504,1,0,0:0:0:0:
508,264,132736,1,0,0:0:0:0:
448,212,132969,1,0,0:0:0:0:
448,172,133085,1,0,0:0:0:0:
448,132,133201,2,0,L|448:48,1,80,8|0,0:0|0:0,0:0:0:0:
340,108,133667,6,0,P|268:128|184:104,1,160,4|8,0:0|0:0,0:0:0:0:
116,68,134364,1,0,0:0:0:0:
92,144,134597,2,0,P|56:172|36:208,1,80
28,240,134946,1,0,0:0:0:0:
36,280,135062,2,0,P|64:316|100:336,1,80,8|0,0:0|0:0,0:0:0:0:
128,348,135411,1,0,0:0:0:0:
168,336,135527,2,0,L|300:336,2,120,4|0|0,0:0|0:0|0:0,0:0:0:0:
228,188,136690,1,0,0:0:0:0:
228,188,136806,1,0,0:0:0:0:
228,188,136922,2,0,L|312:188,1,80,8|0,0:0|0:0,0:0:0:0:
404,260,137388,6,0,P|436:188|404:116,1,160,2|8,0:0|0:0,0:0:0:0:
344,68,138085,1,0,0:0:0:0:
264,84,138318,1,0,0:0:0:0:
188,64,138550,1,0,0:0:0:0:
108,80,138783,1,8,0:0:0:0:
32,64,139015,1,0,0:0:0:0:
0,176,139248,5,2,0:0:0:0:
168,348,139713,1,8,0:0:0:0:
337,178,140178,1,0,0:0:0:0:
504,348,140643,1,8,0:0:0:0:
256,192,141108,12,8,142504,0:0:0:0:
244,236,142969,6,0,L|148:332,2,132.00000402832,4|0|0,0:0|0:0|0:0,0:0:0:0:
280,156,143899,2,0,L|376:60,2,132.00000402832,2|0|0,0:0|0:0|0:0,0:0:0:0:
348,268,144829,1,2,0:0:0:0:
373,62,145178,1,2,0:0:0:0:
168,120,145527,1,2,0:0:0:0:
164,296,145992,2,0,L|100:356,1,88.000002685547,0|8,0:0|0:0,0:0:0:0:
55,356,146341,1,0,0:0:0:0:
68,224,146690,6,0,P|40:172|-16:124,2,132.00000402832,2|0|0,0:0|0:0|0:0,0:0:0:0:
136,168,147620,1,2,0:0:0:0:
272,284,148085,2,0,L|308:328,2,44.0000013427735,8|0|0,0:0|0:0|0:0,0:0:0:0:
332,220,148550,2,0,P|380:176|448:152,2,132.00000402832,2|0|0,0:0|0:0|0:0,0:0:0:0:
272,284,149481,1,2,0:0:0:0:
156,152,149946,2,0,L|-16:92,1,176.000005371094,8|4,0:0|0:0,0:0:0:0:
180,44,150760,5,0,0:0:0:0:
360,124,151108,1,0,0:0:0:0:
360,124,151341,2,0,P|424:160|464:212,2,132.00000402832,2|0|0,0:0|0:0|0:0,0:0:0:0:
332,252,152271,1,2,0:0:0:0:
156,160,152620,1,2,0:0:0:0:
76,340,152969,1,2,0:0:0:0:
224,244,153434,1,0,0:0:0:0:
264,164,153667,1,8,0:0:0:0:
224,84,153899,1,0,0:0:0:0:
344,28,154132,5,4,0:0:0:0:
480,172,154481,1,0,0:0:0:0:
344,316,154829,1,0,0:0:0:0:
344,316,155062,2,0,P|304:232|220:224,1,176.000005371094,2|8,0:0|0:0,0:0:0:0:
256,304,155760,1,0,0:0:0:0:
180,348,155992,6,0,L|128:348,1,44.0000013427735,2|0,0:0|0:0,0:0:0:0:
32,284,156341,2,0,L|76:284,1,44.0000013427735,0|8,0:0|0:0,0:0:0:0:
132,216,156690,1,0,0:0:0:0:
176,140,156922,1,2,0:0:0:0:
88,136,157155,1,0,0:0:0:0:
136,64,157388,1,8,0:0:0:0:
168,32,157504,1,0,0:0:0:0:
212,20,157620,1,0,0:0:0:0:
300,120,157853,6,0,P|344:176|404:196,2,132.00000402832,4|0|0,0:0|0:0|0:0,0:0:0:0:
212,116,158783,2,0,P|168:172|108:192,2,132.00000402832,2|0|0,0:0|0:0|0:0,0:0:0:0:
256,240,159713,1,2,0:0:0:0:
400,376,160062,1,2,0:0:0:0:
508,208,160411,1,2,0:0:0:0:
392,72,160876,2,0,B|356:48|356:48|312:36,1,88.000002685547,0|8,0:0|0:0,0:0:0:0:
268,28,161225,1,0,0:0:0:0:
144,176,161574,6,0,P|88:212|52:276,2,132.00000402832,2|0|0,0:0|0:0|0:0,0:0:0:0:
220,220,162504,1,2,0:0:0:0:
364,320,162969,1,8,0:0:0:0:
408,328,163085,1,0,0:0:0:0:
452,320,163201,1,0,0:0:0:0:
408,244,163434,2,0,P|436:184|488:136,2,132.00000402832,2|0|0,0:0|0:0|0:0,0:0:0:0:
408,328,164364,1,2,0:0:0:0:
236,284,164829,2,0,L|56:284,1,176.000005371094,8|4,0:0|0:0,0:0:0:0:
156,108,165643,5,0,0:0:0:0:
332,196,165992,1,0,0:0:0:0:
332,196,166225,2,0,L|440:100,2,132.00000402832,2|0|0,0:0|0:0|0:0,0:0:0:0:
256,304,167155,1,0,0:0:0:0:
88,192,167504,1,2,0:0:0:0:
256,80,167853,1,2,0:0:0:0:
420,148,168318,2,0,B|456:180|456:180|476:224,1,88.000002685547,0|8,0:0|0:0,0:0:0:0:
484,260,168667,1,0,0:0:0:0:
492,304,168783,1,0,0:0:0:0:
296,344,169015,5,4,0:0:0:0:
60,228,169481,1,8,0:0:0:0:
320,188,169946,1,2,0:0:0:0:
84,72,170411,1,8,0:0:0:0:
164,108,170643,1,0,0:0:0:0:
164,108,170760,1,0,0:0:0:0:
164,108,170876,6,0,L|300:108,2,132.00000402832,2|0|0,0:0|0:0|0:0,0:0:0:0:
19,176,171806,2,0,L|108:176,1,88.000002685547,2|0,0:0|0:0,0:0:0:0:
256,244,172271,2,0,L|168:244,1,88.000002685547,8|0,0:0|0:0,0:0:0:0:
20,312,172736,1,4,0:0:0:0:
256,188,177853,5,0,0:0:0:0:
256,188,177969,1,0,0:0:0:0:
256,188,178085,1,0,0:0:0:0:
196,132,178318,2,0,L|88:56,2,120,2|0|0,0:0|0:0|0:0,0:0:0:0:
256,188,179248,2,0,P|336:208|396:264,1,160,2|0,0:0|0:0,0:0:0:0:
256,352,180178,1,4,0:0:0:0:
256,308,183667,5,0,0:0:0:0:
188,264,183899,2,0,L|52:264,2,120,4|0|0,0:0|0:0|0:0,0:0:0:0:
260,224,184829,2,0,L|340:224,1,80,2|0,0:0|0:0,0:0:0:0:
256,144,185294,2,0,L|176:144,1,80,8|0,0:0|0:0,0:0:0:0:
256,64,185760,5,2,0:0:0:0:
256,64,185876,1,0,0:0:0:0:
324,24,186108,1,0,0:0:0:0:
324,24,186225,1,8,0:0:0:0:
396,60,186457,1,0,0:0:0:0:
444,124,186690,1,0,0:0:0:0:
396,188,186922,1,0,0:0:0:0:
444,252,187155,1,8,0:0:0:0:
456,288,187271,1,0,0:0:0:0:
444,328,187388,1,0,0:0:0:0:
416,356,187504,1,0,0:0:0:0:
380,360,187620,5,4,0:0:0:0:
256,184,187969,1,0,0:0:0:0:
128,356,188318,1,0,0:0:0:0:
128,356,188550,2,0,P|80:296|16:264,2,143.999995605469
204,296,189481,1,2,0:0:0:0:
420,320,189829,1,2,0:0:0:0:
480,112,190178,2,0,P|456:60|328:44,1,191.999994140625,2|0,0:0|0:0,0:0:0:0:
384,124,190876,1,8,0:0:0:0:
384,124,190992,1,0,0:0:0:0:
256,296,191341,6,0,P|192:320|124:296,2,143.999995605469,4|0|0,0:0|0:0|0:0,0:0:0:0:
192,224,192271,2,0,P|136:136|48:120,1,191.999994140625,2|8,0:0|0:0,0:0:0:0:
55,118,192853,1,0,0:0:0:0:
55,118,192969,1,0,0:0:0:0:
112,40,193201,2,0,L|264:40,2,143.999995605469,2|0|0,0:0|0:0|0:0,0:0:0:0:
55,118,194132,1,2,0:0:0:0:
224,212,194597,2,0,B|260:274|260:274|316:292|316:292|360:344,1,191.999994140625,8|4,0:0|0:0,0:0:0:0:
428,136,195411,5,0,0:0:0:0:
224,212,195760,1,0,0:0:0:0:
224,212,195992,2,0,L|76:212,2,143.999995605469,2|0|0,0:0|0:0|0:0,0:0:0:0:
308,256,196922,1,2,0:0:0:0:
372,328,197155,1,0,0:0:0:0:
372,328,197271,1,2,0:0:0:0:
468,220,197620,1,2,0:0:0:0:
368,56,198085,1,0,0:0:0:0:
276,88,198318,2,0,L|236:40,2,47.9999985351563,8|0|0,0:0|0:0|0:0,0:0:0:0:
176,192,198783,5,4,0:0:0:0:
428,332,199248,1,8,0:0:0:0:
276,88,199713,1,2,0:0:0:0:
108,320,200178,2,4,L|108:216,1,95.9999970703126,8|0,0:0|0:0,0:0:0:0:
108,176,200527,1,0,0:0:0:0:
108,128,200643,6,0,P|72:68|4:32,2,143.999995605469,2|0|0,0:0|0:0|0:0,0:0:0:0:
108,128,201574,1,2,0:0:0:0:
199,253,201806,1,0,0:0:0:0:
51,205,202039,1,8,0:0:0:0:
199,157,202271,1,0,0:0:0:0:
107,283,202504,1,4,0:0:0:0:
256,192,202736,12,4,206225,0:0:0:0:
