osu file format v12

[General]
AudioFilename: vivid affection.mp3
AudioLeadIn: 2000
PreviewTime: 72904
Countdown: 0
SampleSet: Soft
StackLeniency: 0.5
Mode: 0
LetterboxInBreaks: 1

[Editor]
DistanceSpacing: 2
BeatDivisor: 4
GridSize: 4

[Metadata]
Title:Vivid Affection (Short Ver.)
TitleUnicode:Vivid Affection (Short Ver.)
Artist:ave;new feat. Sakura Saori
ArtistUnicode:ave;new feat. 佐倉紗織
Creator:Rare
Version:Insane
Source:Hinata Terrace -We don't abandon you.-
Tags:Giga game opening phoon Ryafuka
BeatmapID:201134
BeatmapSetID:69835

[Difficulty]
HPDrainRate:6
CircleSize:4
OverallDifficulty:8
ApproachRate:8
SliderMultiplier:1.7
SliderTickRate:2

[Events]
//Background and Video events
0,0,"moe.jpg",0,0
Video,0,"movie.avi"
//Break Periods
//Storyboard Layer 0 (Background)
//Storyboard Layer 1 (Fail)
//Storyboard Layer 2 (Pass)
//Storyboard Layer 3 (Foreground)
//Storyboard Sound Samples
//Background Colour Transformations
3,100,163,162,255

[TimingPoints]
852,441.176470588235,4,2,1,60,1,0
2175,-100,4,2,2,60,0,0
2616,441.176470588235,4,2,1,60,1,0
4380,-100,4,2,4,60,0,0
5483,-100,4,2,2,60,0,0
5924,-100,4,2,4,60,0,0
6145,-100,4,2,1,60,0,0
7910,-100,4,2,4,60,0,0
9013,-100,4,2,1,40,0,0
9233,-100,4,2,2,60,0,0
11218,-100,4,2,1,60,0,0
11439,-100,4,2,2,50,0,0
11660,-100,4,2,2,60,0,0
14748,-100,4,2,1,60,0,0
14968,-100,4,2,2,60,0,0
15189,-100,4,2,1,60,0,0
15630,-100,4,2,4,60,0,0
16071,-100,4,1,4,30,0,0
16292,-100,4,1,4,40,0,0
16733,-100,4,2,1,60,0,0
16843,-100,4,2,4,60,0,0
17836,-100,4,2,2,50,0,0
18057,-100,4,2,1,60,0,0
18277,-100,4,2,1,60,0,0
18498,-100,4,2,1,60,0,1
18608,-100,4,2,1,60,0,0
19380,-100,4,2,4,60,0,0
19821,-100,4,2,1,60,0,0
20263,-100,4,1,1,40,0,0
20924,-100,4,2,1,60,0,0
21145,-100,4,2,2,40,0,0
21365,-100,4,2,4,40,0,0
21586,-100,4,2,1,60,0,0
26439,-100,4,2,4,60,0,0
26660,-100,4,2,1,60,0,0
26880,-100,4,2,1,50,0,0
27321,-100,4,1,1,40,0,0
27983,-100,4,2,1,60,0,0
28204,-100,4,2,0,60,0,0
28424,-100,4,2,1,60,0,0
28865,-100,4,2,1,60,0,0
29307,-100,4,2,4,40,0,0
29527,-100,4,2,1,60,0,0
32174,-100,4,2,2,60,0,0
36145,-100,4,2,2,60,0,0
36365,-100,4,2,1,60,0,0
37027,-100,4,2,2,60,0,0
37248,-100,4,2,1,60,0,0
37468,-100,4,2,1,50,0,0
37689,-100,4,2,1,60,0,0
37910,-100,4,2,2,60,0,0
38130,-100,4,2,1,60,0,0
38792,-100,4,2,1,50,0,0
40557,-100,4,2,2,50,0,0
40777,-100,4,2,1,50,0,0
42321,-100,4,2,2,40,0,0
42542,-100,4,2,1,50,0,0
43204,-100,4,2,2,50,0,0
43314,-100,4,2,1,50,0,0
44086,-100,4,2,2,40,0,0
44527,-100,4,2,1,50,0,0
44968,-100,4,1,1,40,0,0
46733,-100,4,2,1,50,0,0
46954,-100,4,2,4,50,0,0
47174,-100,4,2,1,50,0,0
47395,-100,4,2,2,50,0,0
48057,-100,4,2,1,50,0,0
48277,-100,4,2,2,50,0,0
48498,-100,4,2,1,50,0,0
49380,-100,4,2,4,50,0,0
49821,-100,4,2,1,50,0,0
50042,-100,4,2,2,50,0,0
50483,-100,4,2,4,50,0,0
50704,-100,4,2,1,50,0,0
50924,-100,4,2,2,40,0,0
51365,-100,4,2,1,50,0,0
52027,-100,4,2,4,50,0,0
52248,-100,4,2,1,50,0,0
52689,-100,4,2,2,40,0,0
53351,-100,4,1,4,40,0,0
53792,-100,4,2,1,50,0,0
55998,-100,4,2,1,40,0,0
56218,-100,4,2,1,50,0,0
56880,-100,4,1,1,30,0,0
57321,-100,4,2,1,50,0,0
59968,-100,4,2,4,50,0,0
60079,-100,4,2,2,50,0,0
60189,-100,4,2,1,50,0,0
60410,-100,4,1,1,40,0,0
60851,-100,4,2,1,60,0,0
61071,-100,4,2,4,40,0,0
61513,-100,4,2,2,50,0,0
62174,-100,4,2,1,50,0,0
62615,-100,4,2,2,50,0,0
62836,-100,4,1,4,40,0,0
63277,-100,4,2,1,40,0,0
63388,-100,4,2,4,40,0,0
64380,-100,4,2,2,50,0,0
64601,-100,4,2,4,40,0,0
65042,-100,4,2,2,50,0,0
65152,-100,4,2,1,50,0,0
65483,-100,4,2,2,50,0,0
65924,-100,4,2,2,40,0,0
66035,-100,4,2,1,50,0,0
66365,-100,4,2,2,60,0,0
68351,-100,4,2,2,50,0,0
68571,-100,4,2,4,40,0,0
68792,-100,4,2,2,50,0,0
68902,-100,4,2,4,40,0,0
69233,-100,4,2,2,50,0,0
69674,-100,4,2,1,50,0,0
72763,-100,4,2,2,40,0,0
73204,441.176470588235,4,2,1,60,1,1
74086,-100,4,2,2,50,0,1
74527,-100,4,2,1,60,0,1
74968,-100,4,2,1,50,0,1
75189,-100,4,1,1,40,0,1
75409,-100,4,2,1,60,0,1
75851,-100,4,2,2,50,0,1
76292,-100,4,2,1,60,0,1
81145,-100,4,2,2,50,0,1
81586,-100,4,2,1,50,0,1
81806,-100,4,2,1,60,0,1
82689,-100,4,2,4,60,0,1
83351,-100,4,2,1,60,0,1
84012,-100,4,2,4,60,0,1
84233,-100,4,2,1,60,0,1
86880,-100,4,2,2,60,0,1
87321,-100,4,2,1,60,0,0
92174,-100,4,2,1,50,0,0
92395,-100,4,2,1,60,0,0
94601,-100,4,2,4,60,0,0
94821,-100,4,2,1,60,0,0
95262,-100,4,2,4,60,0,0
95703,-100,4,2,1,60,0,0
96145,-100,4,2,4,60,0,0
96586,-100,4,2,1,60,0,0
97027,-100,4,1,1,40,0,0
97468,-100,4,2,2,50,0,0

[Colours]
Combo1 : 45,150,255
Combo2 : 255,170,215
Combo3 : 255,200,85
Combo4 : 165,255,165

[HitObjects]
168,348,1513,1,2,0:0:0:0:
67,307,1734,1,2,0:0:0:0:
75,199,1954,1,2,0:0:0:0:
180,173,2175,1,8,0:0:0:0:
180,173,2616,5,4,0:0:0:0:
180,172,3057,2,0,L|272:176,1,85,2|0,0:0|0:0,0:0:0:0:
332,116,3498,2,0,L|420:112,1,85,2|2,0:0|0:0,0:0:0:0:
241,37,3939,1,0,0:0:0:0:
180,172,4160,2,0,P|100:181|32:124,2,170,2|2|0,0:0|0:0|0:0,0:0:0:0:
276,188,5263,2,0,L|284:276,1,85,0|8,0:0|0:0,0:0:0:0:
336,348,5704,2,0,P|388:328|404:264,1,127.5,8|0,0:0|0:0,0:0:0:0:
376,232,6145,6,0,L|368:144,1,85,4|0,0:0|0:0,0:0:0:0:
256,272,6586,2,0,L|248:356,1,85,2|0,0:0|0:0,0:0:0:0:
156,376,7027,1,2,0:0:0:0:
156,376,7248,2,0,P|116:376|68:372,1,85,2|0,0:0|0:0,0:0:0:0:
0,224,7689,2,0,P|78:225|112:300,1,170,2|2,0:0|0:0,0:0:0:0:
335,267,8351,2,0,P|279:321|196:288,1,170,2|0,0:0|0:0,0:0:0:0:
256,224,9013,1,8,0:0:0:0:
156,196,9233,2,0,P|140:152|144:108,1,85,8|0,0:0|0:0,0:0:0:0:
236,72,9674,5,4,0:0:0:0:
320,128,9895,2,0,L|409:134,1,85,0|2,0:0|0:0,0:0:0:0:
252,239,10336,2,0,L|168:236,1,85,0|2,0:0|0:0,0:0:0:0:
309,350,10777,2,0,L|224:352,1,85,0|2,0:0|0:0,0:0:0:0:
351,270,11218,2,0,P|411:215|492:232,1,170,2|0,0:0|0:0,0:0:0:0:
491,231,11880,2,0,L|480:140,1,85,2|0,0:0|0:0,0:0:0:0:
351,270,12321,2,0,L|288:204,1,85,2|0,0:0|0:0,0:0:0:0:
200,204,12763,5,2,0:0:0:0:
126,143,12983,2,0,B|104:106|116:56|116:56,1,85,2|2,0:0|0:0,0:0:0:0:
198,22,13424,1,0,0:0:0:0:
268,192,13645,1,2,0:0:0:0:
158,338,13866,2,0,P|144:304|148:256,1,85,0|2,0:0|0:0,0:0:0:0:
185,154,14307,6,0,P|223:159|264:188,1,85,0|2,0:0|0:0,0:0:0:0:
395,342,14748,2,0,P|356:336|320:304,1,85,2|2,0:0|0:0,0:0:0:0:
420,148,15189,1,0,0:0:0:0:
269,159,15410,2,0,P|339:121|424:152,1,170,2|0,0:0|0:0,0:0:0:0:
349,214,16071,5,0,0:0:0:0:
498,176,16292,1,0,0:0:0:0:
498,176,16402,1,0,0:0:0:0:
498,176,16513,1,0,0:0:0:0:
455,261,16733,2,0,L|464:312,1,42.5,2|0,0:0|0:0,0:0:0:0:
349,214,17064,2,0,L|356:168,1,42.5,2|0,0:0|0:0,0:0:0:0:
248,292,17395,2,0,P|172:328|96:288,1,170,2|0,0:0|0:0,0:0:0:0:
52,168,18057,1,2,0:0:0:0:
171,80,18277,5,2,0:0:0:0:
171,80,18388,1,0,0:0:0:0:
171,80,18498,2,0,L|156:168,1,85,4|0,0:0|0:0,0:0:0:0:
36,293,18939,1,10,0:0:0:0:
123,254,19160,2,0,P|202:265|272:216,1,170,2|0,0:0|0:0,0:0:0:0:
431,198,19821,2,0,L|344:192,1,85,8|0,0:0|0:0,0:0:0:0:
255,189,20263,5,0,0:0:0:0:
145,79,20483,1,0,0:0:0:0:
159,174,20704,1,8,0:0:0:0:
230,35,20924,2,0,P|304:8|368:72,1,170,2|0,0:0|0:0,0:0:0:0:
436,116,21586,1,8,0:0:0:0:
400,204,21807,5,0,0:0:0:0:
400,204,21917,1,0,0:0:0:0:
400,204,22027,1,2,0:0:0:0:
312,304,22248,1,0,0:0:0:0:
248,192,22468,2,0,L|164:196,1,85,10|0,0:0|0:0,0:0:0:0:
72,200,22910,1,2,0:0:0:0:
72,200,23130,1,0,0:0:0:0:
304,120,23351,2,0,L|392:124,1,85,10|0,0:0|0:0,0:0:0:0:
456,188,23792,5,10,0:0:0:0:
320,272,24013,1,2,0:0:0:0:
320,112,24233,1,8,0:0:0:0:
220,202,24454,2,0,L|228:244,1,42.5,8|2,0:0|0:0,0:0:0:0:
72,328,24785,2,0,L|82:286,1,42.5,2|0,0:0|0:0,0:0:0:0:
108,196,25116,1,10,0:0:0:0:
164,120,25336,5,2,0:0:0:0:
164,120,25446,1,0,0:0:0:0:
164,120,25557,2,0,P|203:100|251:104,1,85,4|0,0:0|0:0,0:0:0:0:
264,80,25888,2,0,L|280:132,1,42.5,0|8,0:0|0:0,0:0:0:0:
286,245,26218,2,0,P|365:272|456:248,2,170,2|2|0,0:0|0:0|0:0,0:0:0:0:
309,151,27321,5,0,0:0:0:0:
191,261,27542,2,0,P|154:277|104:276,1,85,0|8,0:0|0:0,0:0:0:0:
218,168,27983,2,0,P|232:128|228:80,1,85,4|0,0:0|0:0,0:0:0:0:
208,8,28424,1,0,0:0:0:0:
144,112,28645,1,8,0:0:0:0:
294,216,28866,5,2,0:0:0:0:
294,216,28976,1,0,0:0:0:0:
294,216,29086,2,0,P|273:278|304:384,1,170,4|8,0:0|0:0,0:0:0:0:
360,296,29748,1,0,0:0:0:0:
292,128,29968,2,0,P|252:136|224:168,1,85,2|0,0:0|0:0,0:0:0:0:
200,256,30410,1,10,0:0:0:0:
176,40,30630,1,10,0:0:0:0:
176,40,31071,5,10,0:0:0:0:
260,176,31292,1,8,0:0:0:0:
404,104,31513,1,2,0:0:0:0:
404,104,31623,1,0,0:0:0:0:
404,104,31733,1,2,0:0:0:0:
424,232,31954,1,2,0:0:0:0:
308,284,32174,2,0,L|220:280,1,85,8|0,0:0|0:0,0:0:0:0:
208,280,32505,1,0,0:0:0:0:
208,280,32616,1,4,0:0:0:0:
256,192,32726,12,2,35704,0:0:0:0:
256,192,36145,5,2,0:0:0:0:
164,216,36366,1,2,0:0:0:0:
24,136,36586,5,10,0:0:0:0:
116,112,36807,1,2,0:0:0:0:
100,272,37027,5,2,0:0:0:0:
192,292,37248,2,0,P|260:328|348:304,1,170,2|2,0:0|0:0,0:0:0:0:
420,236,37910,1,2,0:0:0:0:
428,336,38130,1,0,0:0:0:0:
328,112,38351,1,8,0:0:0:0:
304,204,38571,1,0,0:0:0:0:
328,296,38792,5,2,0:0:0:0:
424,276,39013,1,8,0:0:0:0:
396,184,39233,1,10,0:0:0:0:
304,204,39454,1,0,0:0:0:0:
328,112,39674,5,4,0:0:0:0:
328,112,39895,1,0,0:0:0:0:
236,136,40115,2,0,P|192:144|148:136,1,85,8|0,0:0|0:0,0:0:0:0:
76,88,40557,1,2,0:0:0:0:
132,240,40777,1,0,0:0:0:0:
56,180,40998,2,0,P|44:216|48:268,1,85,8|0,0:0|0:0,0:0:0:0:
104,336,41439,5,2,0:0:0:0:
280,312,41660,1,0,0:0:0:0:
132,240,41880,1,8,0:0:0:0:
192,304,42101,2,0,P|216:224|164:156,1,170,2|2,0:0|0:0,0:0:0:0:
144,72,42763,1,10,0:0:0:0:
240,52,42983,1,2,0:0:0:0:
240,52,43204,6,0,L|248:144,1,85,2|0,0:0|0:0,0:0:0:0:
256,228,43645,1,8,0:0:0:0:
336,280,43865,2,0,B|388:304|388:304|448:312|488:264,1,170,0|0,0:0|0:0,0:0:0:0:
408,208,44527,2,0,L|328:172,1,85,8|0,0:0|0:0,0:0:0:0:
248,132,44968,5,0,0:0:0:0:
96,180,45189,1,0,0:0:0:0:
201,252,45410,1,8,0:0:0:0:
112,344,45630,2,0,P|40:320|32:224,1,170
120,228,46292,2,0,L|148:208,7,21.25
112,208,46733,6,0,P|52:156|60:72,1,170,4|8,0:0|0:0,0:0:0:0:
140,36,47395,1,2,0:0:0:0:
196,180,47615,2,0,L|200:264,1,85,2|0,0:0|0:0,0:0:0:0:
272,120,48057,2,0,L|276:36,1,85,8|2,0:0|0:0,0:0:0:0:
276,35,48498,1,2,0:0:0:0:
356,88,48718,2,0,P|396:92|444:72,1,85,0|8,0:0|0:0,0:0:0:0:
316,216,49160,2,0,P|257:165|168:176,1,170,2|0,0:0|0:0,0:0:0:0:
64,356,49821,2,0,P|104:335|128:300,1,85,10|2,0:0|0:0,0:0:0:0:
216,280,50263,6,0,P|140:288|80:216,2,170,2|8|2,0:0|0:0|0:0,0:0:0:0:
158,123,51365,2,0,P|174:163|172:208,1,85,0|8,0:0|0:0,0:0:0:0:
152,292,51807,2,0,P|84:328|-8:312,1,170,2|8,0:0|0:0,0:0:0:0:
232,312,52468,2,0,P|300:276|388:296,1,170,8|2,0:0|0:0,0:0:0:0:
316,360,53130,1,2,0:0:0:0:
232,248,53351,1,0,0:0:0:0:
232,264,53461,1,0,0:0:0:0:
232,280,53571,1,0,0:0:0:0:
232,296,53682,1,0,0:0:0:0:
232,312,53792,6,0,P|192:328|144:328,1,85,4|0,0:0|0:0,0:0:0:0:
60,344,54233,1,10,0:0:0:0:
108,260,54454,1,0,0:0:0:0:
20,112,54674,1,2,0:0:0:0:
20,208,54895,1,0,0:0:0:0:
108,160,55115,2,0,P|128:124|124:76,1,85,10|0,0:0|0:0,0:0:0:0:
56,20,55557,5,10,0:0:0:0:
212,140,55777,2,0,P|292:148|368:100,1,170,10|4,0:0|0:0,0:0:0:0:
365,102,56660,1,0,0:0:0:0:
212,140,56880,1,8,0:0:0:0:
172,228,57101,5,0,0:0:0:0:
172,228,57211,1,0,0:0:0:0:
172,228,57321,2,0,L|168:312,1,85,2|0,0:0|0:0,0:0:0:0:
128,144,57763,2,0,L|124:52,1,85,10|0,0:0|0:0,0:0:0:0:
216,32,58204,1,2,0:0:0:0:
328,144,58424,1,0,0:0:0:0:
476,80,58645,1,10,0:0:0:0:
352,0,58865,1,0,0:0:0:0:
252,108,59086,5,10,0:0:0:0:
392,84,59307,1,10,0:0:0:0:
304,12,59527,1,8,0:0:0:0:
312,180,59748,2,0,P|380:196|432:160,1,127.5,4|2,0:0|0:0,0:0:0:0:
464,136,60189,1,0,0:0:0:0:
435,45,60410,2,0,L|428:68,7,21.25
396,76,60851,6,0,P|356:80|312:68,1,85,2|0,0:0|0:0,0:0:0:0:
240,0,61292,2,0,L|232:88,1,85,2|2,0:0|0:0,0:0:0:0:
252,168,61733,1,0,0:0:0:0:
348,132,61954,1,0,0:0:0:0:
220,264,62174,2,0,P|176:264|140:244,1,85,2|0,0:0|0:0,0:0:0:0:
104,128,62615,5,2,0:0:0:0:
216,244,62836,1,0,0:0:0:0:
176,80,63057,1,0,0:0:0:0:
148,292,63277,2,0,P|204:344|296:328,1,170,4|0,0:0|0:0,0:0:0:0:
288,220,63939,1,0,0:0:0:0:
384,184,64160,1,0,0:0:0:0:
488,168,64380,6,0,P|456:96|364:88,1,170,2|4,0:0|0:0,0:0:0:0:
160,142,65042,1,2,0:0:0:0:
160,142,65152,1,0,0:0:0:0:
160,142,65263,2,0,P|234:170|304:120,1,170,0|4,0:0|0:0,0:0:0:0:
132,32,65924,1,0,0:0:0:0:
132,32,66035,1,0,0:0:0:0:
132,32,66145,2,0,P|59:63|48:148,1,170,0|4,0:0|0:0,0:0:0:0:
172,192,66807,5,2,0:0:0:0:
272,128,67027,2,0,L|360:124,1,85,0|2,0:0|0:0,0:0:0:0:
440,172,67468,1,2,0:0:0:0:
448,156,67579,1,0,0:0:0:0:
452,136,67689,1,0,0:0:0:0:
452,116,67799,1,0,0:0:0:0:
448,96,67910,2,0,P|432:64|388:40,1,85,4|0,0:0|0:0,0:0:0:0:
358,124,68351,2,0,P|350:198|426:244,2,170,0|2|2,0:0|0:0|0:0,0:0:0:0:
358,124,69674,6,0,L|274:128,1,85,0|2,0:0|0:0,0:0:0:0:
256,292,70115,2,0,L|172:288,1,85,2|2,0:0|0:0,0:0:0:0:
88,332,70557,2,0,L|76:284,1,42.5,0|2,0:0|0:0,0:0:0:0:
24,212,70888,2,0,L|36:168,1,42.5,0|2,0:0|0:0,0:0:0:0:
108,112,71218,1,0,0:0:0:0:
192,64,71439,5,2,0:0:0:0:
217,56,71549,1,0,0:0:0:0:
244,55,71660,1,0,0:0:0:0:
269,61,71770,1,0,0:0:0:0:
293,73,71880,1,2,0:0:0:0:
312,91,71990,1,0,0:0:0:0:
327,114,72101,1,2,0:0:0:0:
368,200,72321,1,2,0:0:0:0:
392,231,72432,1,0,0:0:0:0:
426,251,72542,1,0,0:0:0:0:
465,256,72652,1,0,0:0:0:0:
504,245,72763,1,10,0:0:0:0:
456,164,72983,5,0,0:0:0:0:
456,164,73093,1,0,0:0:0:0:
456,164,73204,2,0,L|448:80,1,85,4|0,0:0|0:0,0:0:0:0:
508,12,73645,1,8,0:0:0:0:
372,168,73865,2,0,P|298:190|228:132,1,170,2|0,0:0|0:0,0:0:0:0:
300,24,74527,2,0,L|308:108,1,85,8|0,0:0|0:0,0:0:0:0:
280,276,74968,5,2,0:0:0:0:
104,268,75189,1,0,0:0:0:0:
280,276,75410,1,8,0:0:0:0:
220,340,75630,2,0,P|191:281|244:192,1,170,2|0,0:0|0:0,0:0:0:0:
316,160,76292,1,8,0:0:0:0:
220,340,76513,5,0,0:0:0:0:
220,340,76623,1,0,0:0:0:0:
220,340,76733,2,0,P|248:308|252:256,1,85,2|0,0:0|0:0,0:0:0:0:
204,168,77174,2,0,L|120:160,1,85,10|0,0:0|0:0,0:0:0:0:
255,267,77615,2,0,L|339:275,1,85,2|0,0:0|0:0,0:0:0:0:
188,140,78057,2,0,L|104:132,1,85,10|0,0:0|0:0,0:0:0:0:
60,344,78498,5,8,0:0:0:0:
188,252,78718,1,0,0:0:0:0:
36,200,78939,1,8,0:0:0:0:
140,320,79160,2,0,L|184:328,1,42.5,8|2,0:0|0:0,0:0:0:0:
268,292,79490,2,0,L|312:284,1,42.5,2|0,0:0|0:0,0:0:0:0:
400,260,79821,1,10,0:0:0:0:
460,184,80042,5,2,0:0:0:0:
460,184,80152,1,0,0:0:0:0:
460,184,80263,2,0,P|432:156|376:144,1,85,4|0,0:0|0:0,0:0:0:0:
380,116,80593,2,0,L|352:156,1,42.5,0|8,0:0|0:0,0:0:0:0:
236,176,80924,2,0,P|156:187|100:124,2,170,2|0|0,0:0|0:0|0:0,0:0:0:0:
188,96,82027,1,2,0:0:0:0:
32,156,82248,6,0,P|48:192|88:228,1,85,2|8,0:0|0:0,0:0:0:0:
164,320,82689,2,0,P|208:256|188:168,1,170,2|0,0:0|0:0,0:0:0:0:
108,132,83351,1,8,0:0:0:0:
14,294,83571,5,2,0:0:0:0:
14,294,83682,1,0,0:0:0:0:
14,294,83792,2,0,P|78:338|166:318,1,170,4|10,0:0|0:0,0:0:0:0:
236,256,84454,1,0,0:0:0:0:
116,208,84674,1,2,0:0:0:0:
164,320,84895,1,8,0:0:0:0:
203,136,85116,1,10,0:0:0:0:
28,204,85336,1,10,0:0:0:0:
220,268,85777,5,10,0:0:0:0:
304,224,85998,2,0,L|392:212,1,85,8|0,0:0|0:0,0:0:0:0:
408,208,86329,1,2,0:0:0:0:
424,196,86439,2,0,P|440:156|440:112,1,85,2|0,0:0|0:0,0:0:0:0:
312,52,86880,1,8,0:0:0:0:
240,176,87101,1,2,0:0:0:0:
240,176,87211,1,0,0:0:0:0:
240,176,87321,1,4,0:0:0:0:
256,192,87432,12,2,90410,0:0:0:0:
256,332,90851,5,0,0:0:0:0:
296,244,91071,1,2,0:0:0:0:
236,168,91292,1,8,0:0:0:0:
276,80,91513,1,2,0:0:0:0:
336,152,91733,1,0,0:0:0:0:
180,88,91954,2,0,P|104:68|40:124,1,170,2|0,0:0|0:0,0:0:0:0:
100,212,92616,5,2,0:0:0:0:
196,208,92836,1,0,0:0:0:0:
40,140,93057,1,8,0:0:0:0:
72,300,93277,1,2,0:0:0:0:
160,288,93498,1,2,0:0:0:0:
100,212,93718,1,0,0:0:0:0:
244,336,93939,2,0,P|280:348|336:340,1,85,10|0,0:0|0:0,0:0:0:0:
340,252,94380,6,0,P|404:208|504:232,1,170,4|8,0:0|0:0,0:0:0:0:
160,144,95042,2,0,P|224:188|320:164,1,170,2|0,0:0|0:0,0:0:0:0:
380,120,95704,1,8,0:0:0:0:
437,39,95924,6,0,P|360:28|288:80,1,170,2|0,0:0|0:0,0:0:0:0:
192,112,96586,2,0,L|156:88,2,42.5,8|0|0,0:0|0:0|0:0,0:0:0:0:
200,224,97027,1,0,0:0:0:0:
171,251,97138,1,0,0:0:0:0:
136,269,97248,1,0,0:0:0:0:
96,276,97358,1,0,0:0:0:0:
57,270,97468,1,12,0:0:0:0:
