osu file format v12

[General]
AudioFilename: .mp3
AudioLeadIn: 0
PreviewTime: 116107
Countdown: 0
SampleSet: Soft
StackLeniency: 0.7
Mode: 0
LetterboxInBreaks: 0
WidescreenStoryboard: 0

[Editor]
DistanceSpacing: 1.3
BeatDivisor: 4
GridSize: 8

[Metadata]
Title:Shokuzai Belladonna
TitleUnicode:贖罪ベラドンナ
Artist:ave;new feat. Sakura Saori
ArtistUnicode:ave;new feat. 佐倉紗織
Creator:Tsukuyomi
Version:Hyper
Source:
Tags:Enlever〜アンルヴェ〜 BLENHEIM baldrace [CSGA]Ar3sgice CloudSplash16
BeatmapID:335436
BeatmapSetID:123078

[Difficulty]
HPDrainRate:5
CircleSize:4
OverallDifficulty:6
ApproachRate:8
SliderMultiplier:1.4
SliderTickRate:1

[Events]
//Background and Video events
0,0,"BG.jpg",0,0
//Break Periods
2,38142,40165
2,176499,187857
2,238806,244010
//Storyboard Layer 0 (Background)
//Storyboard Layer 1 (Fail)
//Storyboard Layer 2 (Pass)
//Storyboard Layer 3 (Foreground)
//Storyboard Sound Samples
//Background Colour Transformations
3,100,163,162,255

[TimingPoints]
12343.7325709584,714.285714285714,4,2,1,50,1,0
15200,-100,4,2,2,50,0,0
17343,-100,4,2,1,50,0,0
20915,-100,4,2,2,50,0,0
21093,-100,4,2,1,50,0,0
23058,-100,4,2,2,50,0,0
23415,-100,4,2,1,50,0,0
25200,-100,4,2,2,50,0,0
26629,-100,4,2,2,50,0,0
26808,-100,4,2,1,50,0,0
30915,810.810810810811,4,2,2,50,1,0
30915,-100,4,2,2,50,0,0
32536,675.818181818182,4,2,2,50,1,0
37942,743.418181818182,4,2,2,5,1,0
40915,384.615384615385,4,1,2,50,1,0
42453,-100,4,1,2,50,0,1
44953,-100,4,2,1,50,0,1
45049,-100,4,1,2,50,0,1
47838,-100,4,2,2,50,0,1
48222,-100,4,1,2,50,0,1
54761,-100,4,2,1,50,0,0
57453,-100,4,2,1,50,0,0
57645,-100,4,1,2,50,0,0
60818,-100,4,1,2,50,0,0
73126,-100,4,2,1,60,0,0
74665,-100,4,2,1,60,0,0
79857,-100,4,2,1,60,0,0
80530,-100,4,2,2,60,0,0
80626,-100,4,1,2,50,0,0
85818,-100,4,2,1,50,0,0
86972,-133.333333333333,4,2,1,60,0,0
88991,-133.333333333333,4,2,2,60,0,0
89184,-133.333333333333,4,2,1,60,0,0
90145,-133.333333333333,4,2,2,60,0,0
90241,-133.333333333333,4,2,1,60,0,0
96299,-133.333333333333,4,2,2,60,0,0
96491,-133.333333333333,4,2,1,60,0,0
102453,-133.333333333333,4,2,2,60,0,0
102645,-133.333333333333,4,2,1,60,0,0
108607,-133.333333333333,4,2,2,60,0,0
108703,-133.333333333333,4,2,1,60,0,0
110241,-100,4,1,2,50,0,0
110530,-100,4,1,2,25,0,0
110722,-100,4,1,2,30,0,0
110915,-100,4,1,2,35,0,0
111107,-100,4,1,2,40,0,0
111299,-100,4,1,2,45,0,0
111491,-100,4,1,2,50,0,0
114376,-100,4,2,2,50,0,0
114761,-100,4,2,1,50,0,0
116011,-100,4,1,2,50,0,0
116299,-100,4,1,2,50,0,1
120915,-100,4,2,2,50,0,1
121107,-100,4,1,2,50,0,1
133222,-100,4,1,2,50,0,0
134665,-100,4,2,1,60,0,0
139376,-100,4,2,2,60,0,0
139472,-100,4,2,1,60,0,0
140915,-100,4,2,2,60,0,0
142261,-100,4,1,2,50,0,0
147357,-100,4,2,1,50,0,0
148511,-133.333333333333,4,2,1,50,0,0
151684,-133.333333333333,4,2,2,50,0,0
151876,-133.333333333333,4,2,1,50,0,0
157838,-133.333333333333,4,2,2,50,0,0
157934,-133.333333333333,4,2,1,50,0,0
162453,-133.333333333333,4,2,2,50,0,0
162645,-133.333333333333,4,2,1,50,0,0
165530,-133.333333333333,4,2,2,50,0,0
165722,-133.333333333333,4,2,1,50,0,0
170145,-133.333333333333,4,2,2,50,0,0
170241,-133.333333333333,4,2,1,50,0,0
172068,-100,4,1,2,25,0,0
172261,-100,4,1,2,30,0,0
172453,-100,4,1,2,35,0,0
172645,-100,4,1,2,40,0,0
172838,-100,4,1,2,45,0,0
188607,384.615384615385,3,2,1,50,1,0
188607,-133.333333333333,3,2,2,50,0,0
188703,-133.333333333333,3,2,1,50,0,0
189632,-133.333333333333,3,2,1,20,0,0
189760,-133.333333333333,3,2,2,50,0,0
193222,-133.333333333333,3,2,1,50,0,0
194376,-133.333333333333,3,3,2,50,0,0
194568,-133.333333333333,3,2,1,50,0,0
196683,-133.333333333333,3,2,2,50,0,0
196780,-133.333333333333,3,2,1,50,0,0
197933,-133.333333333333,3,2,2,50,0,0
200241,-133.333333333333,3,2,1,50,0,0
202068,-133.333333333333,3,2,2,50,0,0
203607,-133.333333333333,3,2,2,50,0,0
207837,384.615384615385,4,1,2,50,1,0
208221,-100,4,1,2,30,0,0
208606,-100,4,1,2,40,0,0
218990,-133.333333333333,4,1,2,23,0,0
219183,-100,4,1,2,26,0,0
219375,-111.111111111111,4,1,2,29,0,0
219567,-100,4,1,2,32,0,0
219760,-95.2380952380952,4,1,2,35,0,0
219952,-100,4,1,2,38,0,0
220144,-83.3333333333333,4,1,2,41,0,0
220337,-100,4,1,2,44,0,0
220529,-74.0740740740741,4,1,2,47,0,0
220913,-100,4,1,2,50,0,0
221683,-100,4,1,2,50,0,1
227837,-100,4,1,2,50,0,0
233990,-100,4,1,2,50,0,1
236683,-100,4,2,2,50,0,1
237067,-100,4,1,2,50,0,1
238606,-100,4,2,1,80,0,0
244663,-133.333333333333,4,1,2,35,0,0
246779,-133.333333333333,4,2,2,35,0,0
246875,-133.333333333333,4,1,2,35,0,0
247067,-133.333333333333,4,1,2,35,0,0
247260,-133.333333333333,4,2,1,35,0,0
247644,-133.333333333333,4,1,2,35,0,0
247740,-133.333333333333,4,1,2,50,0,0
249663,-100,4,1,2,50,0,0
250433,-100,4,1,2,50,0,0
252452,-100,4,1,2,50,0,1
253894,-100,4,2,1,50,0,1
253990,-100,4,1,2,50,0,1
269375,-100,4,1,2,50,0,0
272452,-100,4,2,1,70,0,0
277356,-100,4,1,2,35,0,0
278413,-100,4,2,1,70,0,0
280913,-100,4,2,2,70,0,0
281010,-100,4,2,1,70,0,0
283317,-100,4,1,2,35,0,0

[Colours]
Combo1 : 202,143,231
Combo2 : 121,131,244
Combo3 : 121,244,131
Combo4 : 253,157,157

[HitObjects]
74,291,12343,2,0,B|110:278|144:288|144:288|179:333|231:324,1,140,4|2,0:0|0:0,0:0:0:0:
218,235,13415,1,0,0:0:0:0:
214,144,13772,2,0,B|171:138|139:183|139:183|105:193|69:180,1,140,0|2,0:0|0:0,0:0:0:0:
104,95,14843,1,0,0:0:0:0:
186,55,15200,5,8,0:0:0:0:
273,80,15558,2,0,P|306:131|268:224,1,140,2|0,0:0|0:0,0:0:0:0:
270,293,16629,1,4,0:0:0:0:
270,293,17343,2,0,L|351:273,1,70,0|0,0:0|0:0,0:0:0:0:
428,263,18058,6,0,B|448:218|409:164|432:107,1,140,4|0,0:0|0:0,0:0:0:0:
360,61,19129,1,0,0:0:0:0:
273,87,19486,2,0,B|217:90|182:69|182:69|140:89|117:92,2,140,2|0|8,0:0|0:0|0:0,0:0:0:0:
387,302,21986,6,0,L|373:225,1,70,0|0,0:0|0:0,0:0:0:0:
283,226,22700,2,0,L|296:303,1,70,0|8,0:0|0:0,0:0:0:0:
294,295,23415,1,0,0:0:0:0:
204,305,23772,6,0,P|163:292|128:255,2,70,4|0|2,0:0|0:0|0:0,0:0:0:0:
211,214,24843,1,0,0:0:0:0:
216,123,25200,2,0,P|257:136|290:172,2,70,4|0|8,0:0|0:0|0:0,0:0:0:0:
145,65,26272,1,0,0:0:0:0:
69,115,26629,5,2,0:0:0:0:
19,191,26986,2,0,P|15:256|103:263,1,140,2|0,0:0|0:0,0:0:0:0:
158,238,28058,2,0,L|203:311,1,70,0|2,0:0|0:0,0:0:0:0:
256,231,28772,2,0,L|300:304,1,70,2|0,0:0|0:0,0:0:0:0:
378,319,29486,6,0,B|413:275|446:276|446:276|467:220|479:208,2,140,4|0|8,0:0|0:0|0:0,0:0:0:0:
289,134,31725,2,0,P|347:64|424:64,1,140,0|2,0:0|0:0,0:0:0:0:
256,192,32761,12,0,37942,0:0:0:0:
380,81,40915,6,0,L|363:33,2,35,0|0|0,0:0|0:0|0:0,0:0:0:0:
417,163,41299,2,0,L|458:188,3,35,8|0|0|0,0:0|0:0|0:0|0:0,0:0:0:0:
413,201,41684,2,0,L|440:238,3,35,2|0|2|0,0:0|0:0|0:0|0:0,0:0:0:0:
395,232,42068,2,0,L|406:277,3,35,8|0|0|0,0:0|0:0|0:0|0:0,0:0:0:0:
364,268,42453,6,0,B|317:289|317:289|279:244|206:276,1,140,4|10,0:0|0:0,0:0:0:0:
145,261,43030,1,0,0:0:0:0:
80,201,43222,1,2,0:0:0:0:
60,287,43415,1,2,0:0:0:0:
145,261,43607,1,2,0:0:0:0:
175,175,43799,6,0,B|154:128|154:128|197:88|173:20,1,140,0|0,0:0|0:0,0:0:0:0:
90,64,44376,1,8,0:0:0:0:
270,58,44568,2,0,L|278:13,2,35,2|0|0,0:0|0:0|0:0,0:0:0:0:
347,107,44953,1,0,0:0:0:0:
285,169,45145,1,8,0:0:0:0:
369,143,45338,1,0,0:0:0:0:
459,144,45530,6,0,P|448:97|424:72,2,70,4|0|10,0:0|0:0|0:0,0:0:0:0:
430,230,46107,1,0,0:0:0:0:
389,311,46299,2,0,P|450:317|474:305,1,70,2|2,0:0|0:0,0:0:0:0:
456,314,46684,1,10,0:0:0:0:
430,230,46876,6,0,P|357:226|305:277,1,140,0|0,0:0|0:0,0:0:0:0:
294,303,47357,1,0,0:0:0:0:
294,303,47453,2,0,P|228:294|211:282,1,70,10|2,0:0|0:0,0:0:0:0:
153,237,47838,1,8,0:0:0:0:
88,149,48030,1,8,0:0:0:0:
0,215,48222,1,8,0:0:0:0:
66,302,48415,1,0,0:0:0:0:
153,237,48607,6,0,B|194:204|194:204|237:228|306:197,1,140,4|10,0:0|0:0,0:0:0:0:
361,167,49184,1,0,0:0:0:0:
396,251,49376,1,2,0:0:0:0:
455,186,49568,1,2,0:0:0:0:
361,167,49761,1,10,0:0:0:0:
384,79,49953,6,0,B|339:54|339:54|294:83|239:65,1,140,0|2,0:0|0:0,0:0:0:0:
168,38,50530,1,8,0:0:0:0:
78,52,50722,1,0,0:0:0:0:
76,143,50915,2,0,L|86:205,1,35,2|0,0:0|0:0,0:0:0:0:
117,191,51107,2,0,L|126:257,1,35,2|0,0:0|0:0,0:0:0:0:
159,231,51299,2,0,L|173:323,1,70,8|2,0:0|0:0,0:0:0:0:
258,320,51684,6,0,P|308:307|374:324,1,105,4|0,0:0|0:0,0:0:0:0:
396,325,52068,2,0,L|426:229,1,70,10|0,0:0|0:0,0:0:0:0:
462,178,52453,1,2,0:0:0:0:
446,91,52645,1,0,0:0:0:0:
421,175,52838,1,10,0:0:0:0:
353,117,53030,6,0,B|306:93|306:93|254:133|199:115,1,140,2|0,0:0|0:0,0:0:0:0:
186,115,53511,2,0,L|190:168,1,35,0|10,0:0|0:0,0:0:0:0:
232,229,53799,2,0,L|245:273,2,35,2|0|2,0:0|0:0|0:0,0:0:0:0:
144,254,54184,2,0,L|132:217,2,35,0|0|8,0:0|0:0|0:0,0:0:0:0:
65,299,54568,1,0,0:0:0:0:
45,159,54761,5,4,0:0:0:0:
103,89,54953,2,0,L|86:56,2,35,0|0|2,0:0|0:0|0:0,0:0:0:0:
191,68,55338,1,0,0:0:0:0:
191,68,55530,2,0,P|240:73|289:57,2,70,2|0|0,0:0|0:0|0:0,0:0:0:0:
171,157,56107,6,0,P|228:163|330:136,1,140,2|2,0:0|0:0,0:0:0:0:
390,106,56684,1,0,0:0:0:0:
466,56,56876,1,0,0:0:0:0:
477,146,57068,2,0,P|474:209|467:232,2,70,2|0|0,0:0|0:0|0:0,0:0:0:0:
395,187,57645,5,0,0:0:0:0:
395,187,57741,1,0,0:0:0:0:
395,187,57838,2,0,P|346:252|262:281,1,140,6|2,0:0|0:0,0:0:0:0:
206,302,58415,1,8,0:0:0:0:
117,283,58607,1,0,0:0:0:0:
117,283,58703,2,0,P|105:227|118:198,1,70,10|0,0:0|0:0,0:0:0:0:
133,187,58991,2,0,L|135:110,1,70,10|0,0:0|0:0,0:0:0:0:
192,46,59376,5,6,0:0:0:0:
281,59,59568,2,0,L|296:24,2,35,0|0|8,0:0|0:0|0:0,0:0:0:0:
366,92,59953,1,2,0:0:0:0:
441,142,60145,2,0,L|447:187,3,35,2|0|0|0,0:0|0:0|0:0|0:0,0:0:0:0:
406,177,60530,2,0,L|402:223,3,35,8|0|0|0,0:0|0:0|0:0|0:0,0:0:0:0:
370,233,60915,6,0,P|313:233|273:225,1,70,6|0,0:0|0:0,0:0:0:0:
263,218,61203,1,0,0:0:0:0:
263,218,61299,2,0,P|214:213|174:216,1,70,8|2,0:0|0:0,0:0:0:0:
102,212,61684,1,2,0:0:0:0:
51,283,61876,1,0,0:0:0:0:
64,196,62068,1,8,0:0:0:0:
140,298,62261,6,0,B|181:331|181:331|237:310|296:334,1,140,2|2,0:0|0:0,0:0:0:0:
348,284,62838,2,0,P|358:339|352:361,1,70,8|2,0:0|0:0,0:0:0:0:
443,329,63222,1,0,0:0:0:0:
483,248,63415,1,0,0:0:0:0:
447,164,63607,1,10,0:0:0:0:
486,81,63799,1,0,0:0:0:0:
486,81,63895,1,0,0:0:0:0:
486,81,63991,6,0,P|430:69|370:114,1,105,6|0,0:0|0:0,0:0:0:0:
364,119,64376,2,0,L|276:98,1,70,10|0,0:0|0:0,0:0:0:0:
257,110,64665,1,0,0:0:0:0:
257,110,64761,2,0,L|177:89,1,70,2|0,0:0|0:0,0:0:0:0:
107,55,65145,2,0,P|92:100|97:142,1,70,8|2,0:0|0:0,0:0:0:0:
175,242,65530,5,2,0:0:0:0:
40,198,65722,1,0,0:0:0:0:
175,154,65915,1,8,0:0:0:0:
91,269,66107,1,2,0:0:0:0:
91,269,66299,2,0,L|62:357,2,70,2|0|8,0:0|0:0|0:0,0:0:0:0:
175,242,66876,2,0,L|230:252,1,35,0|0,0:0|0:0,0:0:0:0:
235,276,67068,6,0,L|330:287,1,70,2|2,0:0|0:0,0:0:0:0:
264,365,67453,2,0,L|174:355,1,70,10|0,0:0|0:0,0:0:0:0:
110,321,67838,2,0,P|82:281|79:236,1,70,10|8,0:0|0:0,0:0:0:0:
46,175,68222,2,0,L|91:181,3,35
116,186,68607,6,0,P|155:141|150:79,1,105,6|0,0:0|0:0,0:0:0:0:
179,66,68991,2,0,P|236:80|253:78,1,70,8|0,0:0|0:0,0:0:0:0:
331,45,69376,1,0,0:0:0:0:
331,45,69472,2,0,P|336:97|315:127,1,70,10|0,0:0|0:0,0:0:0:0:
307,143,69761,2,0,L|306:224,1,70,8|0,0:0|0:0,0:0:0:0:
308,306,70145,6,0,L|259:324,3,35,10|0|0|0,0:0|0:0|0:0|0:0,0:0:0:0:
242,321,70530,2,0,L|216:230,1,70,0|0,0:0|0:0,0:0:0:0:
205,164,70915,1,8,0:0:0:0:
205,164,71011,2,0,P|166:154|134:115,1,70,2|0,0:0|0:0,0:0:0:0:
113,117,71299,2,0,L|60:185,1,70
46,259,71684,6,0,P|90:289|97:332,1,70,2|0,0:0|0:0,0:0:0:0:
122,329,71972,1,8,0:0:0:0:
122,329,72068,2,0,L|200:304,1,70,4|8,0:0|0:0,0:0:0:0:
279,321,72453,2,0,L|324:303,3,35,0|10|0|0,0:0|0:0|0:0|0:0,0:0:0:0:
350,308,72838,2,0,L|377:216,1,70,4|0,0:0|0:0,0:0:0:0:
445,186,73222,6,0,L|477:156,3,35,0|0|0|0,0:0|0:0|0:0|0:0,0:0:0:0:
432,154,73607,2,0,L|452:111,3,35,0|0|0|0,0:0|0:0|0:0|0:0,0:0:0:0:
413,103,73991,5,2,0:0:0:0:
387,91,74088,1,0,0:0:0:0:
359,86,74184,1,2,0:0:0:0:
331,84,74280,1,0,0:0:0:0:
303,87,74376,2,0,B|270:72|270:72|256:97|256:97|235:81|235:81|198:88,1,105,0|0,0:0|0:0,0:0:0:0:
182,81,74761,6,0,P|139:47|119:48,2,70,4|0|2,0:0|0:0|0:0,0:0:0:0:
106,132,75338,2,0,L|72:155,2,35,0|0|2,0:0|0:0|0:0,0:0:0:0:
174,191,75722,1,2,0:0:0:0:
254,233,75915,2,0,L|348:204,1,70,2|2,0:0|0:0,0:0:0:0:
399,167,76299,5,0,0:0:0:0:
421,255,76491,1,0,0:0:0:0:
374,333,76684,2,0,L|288:325,1,70,2|2,0:0|0:0,0:0:0:0:
216,350,77068,1,0,0:0:0:0:
136,305,77261,1,0,0:0:0:0:
45,293,77453,2,0,L|38:215,1,70,2|2,0:0|0:0,0:0:0:0:
60,194,77741,1,0,0:0:0:0:
60,194,77838,6,0,L|54:108,1,70,4|2,0:0|0:0,0:0:0:0:
124,65,78222,1,2,0:0:0:0:
211,89,78415,1,0,0:0:0:0:
265,161,78607,1,2,0:0:0:0:
274,251,78799,1,2,0:0:0:0:
246,337,78991,1,2,0:0:0:0:
337,338,79184,6,0,L|376:335,2,35,2|0|0,0:0|0:0|0:0,0:0:0:0:
246,337,79568,1,0,0:0:0:0:
401,255,79761,1,2,0:0:0:0:
447,176,79953,1,2,0:0:0:0:
425,158,80049,1,0,0:0:0:0:
410,134,80145,1,2,0:0:0:0:
408,106,80241,1,0,0:0:0:0:
413,78,80338,1,0,0:0:0:0:
333,34,80530,1,4,0:0:0:0:
252,75,80722,2,0,L|228:119,1,35,2|2,0:0|0:0,0:0:0:0:
241,144,80915,6,0,P|294:166|306:195,2,70,4|0|8,0:0|0:0|0:0,0:0:0:0:
217,231,81491,1,0,0:0:0:0:
217,231,81588,1,2,0:0:0:0:
217,231,81684,2,0,P|174:210|159:184,2,70,0|2|8,0:0|0:0|0:0,0:0:0:0:
303,200,82261,1,2,0:0:0:0:
393,203,82453,6,0,L|467:150,1,70,0|0,0:0|0:0,0:0:0:0:
477,249,82838,1,2,0:0:0:0:
441,332,83030,2,0,L|462:372,2,35,2|0|0,0:0|0:0|0:0,0:0:0:0:
349,331,83415,1,2,0:0:0:0:
349,331,83607,1,8,0:0:0:0:
269,287,83799,1,2,0:0:0:0:
269,287,83991,6,0,P|218:292|190:280,1,70,0|2,0:0|0:0,0:0:0:0:
125,204,84376,2,0,P|176:199|204:211,1,70,8|2,0:0|0:0,0:0:0:0:
106,279,84761,5,2,0:0:0:0:
30,159,84953,2,0,L|30:75,1,70,2|8,0:0|0:0,0:0:0:0:
171,90,85338,2,0,P|227:94|259:82,1,70,2|0,0:0|0:0,0:0:0:0:
326,62,85722,5,0,0:0:0:0:
326,62,85818,1,0,0:0:0:0:
326,62,85915,2,0,L|367:37,3,35,2|0|0|0,0:0|0:0|0:0|0:0,0:0:0:0:
393,69,86299,1,2,0:0:0:0:
433,150,86491,1,2,0:0:0:0:
361,207,86684,1,2,0:0:0:0:
274,233,86876,2,0,L|256:282,1,35,0|0,0:0|0:0,0:0:0:0:
255,299,87068,6,0,B|293:295|293:295|311:335|370:330,1,105.000004005432,4|0,0:0|0:0,0:0:0:0:
477,292,87838,2,0,L|481:235,1,52.5000020027161,8|0,0:0|0:0,0:0:0:0:
397,228,88222,2,0,L|406:163,1,52.5000020027161,2|0,0:0|0:0,0:0:0:0:
224,64,88799,6,0,P|176:56|168:56,1,52.5000020027161,0|8,0:0|0:0,0:0:0:0:
59,184,89376,1,8,0:0:0:0:
59,184,89568,2,0,B|106:204|106:204|181:200,1,105.000004005432,0|0,0:0|0:0,0:0:0:0:
244,217,90145,6,0,B|297:214|297:214|346:234,2,105.000004005432,4|0|8,0:0|0:0|0:0,0:0:0:0:
452,195,91299,2,0,P|459:231|452:258,1,52.5000020027161,2|0,0:0|0:0,0:0:0:0:
456,246,92068,5,0,0:0:0:0:
316,298,92453,2,0,P|278:303|248:298,1,52.5000020027161,10|0,0:0|0:0,0:0:0:0:
233,316,92741,1,0,0:0:0:0:
233,316,92838,2,0,L|181:280,1,52.5000020027161,0|0,0:0|0:0,0:0:0:0:
78,217,93222,6,0,P|137:211|188:165,1,105.000004005432,4|0,0:0|0:0,0:0:0:0:
226,119,93799,1,0,0:0:0:0:
279,55,93991,2,0,P|317:71|389:71,1,105.000004005432,8|0,0:0|0:0,0:0:0:0:
459,100,94568,1,0,0:0:0:0:
458,184,94761,6,0,P|414:191|361:232,2,105.000004005432,2|0|8,0:0|0:0|0:0,0:0:0:0:
338,64,95915,1,0,0:0:0:0:
256,46,96107,1,0,0:0:0:0:
182,84,96299,6,0,B|126:91|126:91|67:71,2,105.000004005432,4|0|8,0:0|0:0|0:0,0:0:0:0:
132,243,97453,2,0,L|148:312,1,52.5000020027161,0|0,0:0|0:0,0:0:0:0:
388,341,98222,5,0,0:0:0:0:
221,322,98607,1,8,0:0:0:0:
77,234,98991,2,0,P|74:195|79:172,1,52.5000020027161,2|0,0:0|0:0,0:0:0:0:
148,137,99376,6,0,B|198:140|198:140|259:177,2,105.000004005432,4|0|8,0:0|0:0|0:0,0:0:0:0:
276,248,100530,2,0,P|313:238|336:224,1,52.5000020027161,2|0,0:0|0:0,0:0:0:0:
94,128,101299,6,0,P|57:138|34:152,2,52.5000020027161,0|0|8,0:0|0:0|0:0,0:0:0:0:
257,78,102068,1,0,0:0:0:0:
326,126,102261,1,0,0:0:0:0:
409,142,102453,6,0,P|444:136|467:118,1,52.5000020027161,4|0,0:0|0:0,0:0:0:0:
440,232,102838,2,0,P|405:238|382:256,1,52.5000020027161,0|0,0:0|0:0,0:0:0:0:
329,303,103222,1,8,0:0:0:0:
117,276,103607,2,0,L|142:333,1,52.5000020027161,0|2,0:0|0:0,0:0:0:0:
166,203,104376,6,0,L|140:145,2,52.5000020027161,0|0|8,0:0|0:0|0:0,0:0:0:0:
166,203,105145,1,0,0:0:0:0:
238,246,105338,1,0,0:0:0:0:
321,249,105530,6,0,B|356:239|356:239|364:208|409:184,1,105.000004005432,4|0,0:0|0:0,0:0:0:0:
460,129,106107,1,0,0:0:0:0:
381,98,106299,2,0,P|346:84|302:30,1,105.000004005432,8|0,0:0|0:0,0:0:0:0:
220,47,106876,1,0,0:0:0:0:
220,47,107261,5,2,0:0:0:0:
168,115,107453,2,0,L|99:98,1,52.5000020027161,0|0,0:0|0:0,0:0:0:0:
212,195,107838,2,0,L|270:176,1,52.5000020027161,8|2,0:0|0:0,0:0:0:0:
312,248,108222,2,0,L|378:226,1,52.5000020027161,0|0,0:0|0:0,0:0:0:0:
283,338,108607,6,0,P|246:342|168:311,1,105.000004005432,4|0,0:0|0:0,0:0:0:0:
110,280,109184,1,0,0:0:0:0:
57,214,109376,1,8,0:0:0:0:
163,32,109761,2,0,L|138:82,1,52.5000020027161,0|0,0:0|0:0,0:0:0:0:
234,86,110145,6,0,L|219:145,1,52.5000020027161,0|0,0:0|0:0,0:0:0:0:
311,136,110530,2,0,L|300:215,1,70,0|0,0:0|0:0,0:0:0:0:
392,176,110915,2,0,L|396:259,1,70,0|0,0:0|0:0,0:0:0:0:
428,332,111299,1,0,0:0:0:0:
428,332,111491,1,0,0:0:0:0:
337,324,111684,6,0,L|323:361,2,35,0|0|0,0:0|0:0|0:0,0:0:0:0:
251,291,112068,2,0,L|222:328,2,35,8|0|0,0:0|0:0|0:0,0:0:0:0:
188,225,112453,2,0,L|141:244,3,35,10|0|2|0,0:0|0:0|0:0|0:0,0:0:0:0:
130,208,112838,2,0,L|80:218,3,35,8|0|0|0,0:0|0:0|0:0|0:0,0:0:0:0:
61,196,113222,5,2,0:0:0:0:
256,192,113318,12,4,114376,0:0:0:0:
152,89,114953,6,0,L|128:47,2,35,0|0|10,0:0|0:0|0:0,0:0:0:0:
100,164,115338,1,0,0:0:0:0:
102,254,115530,2,0,L|156:265,1,35,2|0,0:0|0:0,0:0:0:0:
150,296,115722,2,0,L|206:306,1,35,2|0,0:0|0:0,0:0:0:0:
213,328,115915,2,0,L|272:331,3,35,8|0|0|0,0:0|0:0|0:0|0:0,0:0:0:0:
285,338,116299,5,6,0:0:0:0:
375,328,116491,1,0,0:0:0:0:
442,267,116684,2,0,L|446:182,1,70,8|2,0:0|0:0,0:0:0:0:
430,107,117068,1,2,0:0:0:0:
358,163,117261,1,0,0:0:0:0:
393,79,117453,1,8,0:0:0:0:
302,74,117645,1,2,0:0:0:0:
302,74,117838,6,0,P|253:65|220:39,1,70,0|0,0:0|0:0,0:0:0:0:
106,107,118222,2,0,P|155:116|188:142,1,70,8|2,0:0|0:0,0:0:0:0:
248,242,118607,2,0,P|199:233|166:207,2,70,2|0|8,0:0|0:0|0:0,0:0:0:0:
320,297,119184,1,0,0:0:0:0:
320,297,119280,1,0,0:0:0:0:
320,297,119376,6,0,L|383:240,1,70,6|0,0:0|0:0,0:0:0:0:
410,332,119761,2,0,L|352:382,1,70,10|2,0:0|0:0,0:0:0:0:
266,369,120145,1,2,0:0:0:0:
179,340,120338,1,0,0:0:0:0:
120,270,120530,1,8,0:0:0:0:
114,179,120722,1,2,0:0:0:0:
114,179,120915,6,0,P|145:136|149:111,1,70,12|0,0:0|0:0,0:0:0:0:
164,85,121203,1,0,0:0:0:0:
164,85,121299,2,0,L|237:71,1,70,8|2,0:0|0:0,0:0:0:0:
319,101,121684,2,0,P|341:71|344:30,2,70,2|0|8,0:0|0:0|0:0,0:0:0:0:
398,146,122261,2,0,L|435:192,1,35,0|0,0:0|0:0,0:0:0:0:
440,205,122453,6,0,L|370:260,1,70,6|0,0:0|0:0,0:0:0:0:
349,262,122741,1,0,0:0:0:0:
349,262,122838,2,0,L|264:264,1,70,8|2,0:0|0:0,0:0:0:0:
188,271,123222,1,2,0:0:0:0:
105,231,123415,1,2,0:0:0:0:
112,321,123607,1,10,0:0:0:0:
188,271,123799,6,0,B|203:229|203:229|188:187|216:133,1,140,2|0,0:0|0:0,0:0:0:0:
285,193,124376,2,0,P|302:160|307:119,1,70,8|0,0:0|0:0,0:0:0:0:
253,53,124761,1,2,0:0:0:0:
162,63,124953,2,0,L|146:28,2,35,2|2|10,0:0|0:0|0:0,0:0:0:0:
80,104,125338,1,2,0:0:0:0:
80,104,125434,1,0,0:0:0:0:
80,104,125530,6,0,B|57:141|57:141|74:169|50:215,1,105,6|0,0:0|0:0,0:0:0:0:
58,238,125915,2,0,L|142:256,1,70,10|8,0:0|0:0,0:0:0:0:
157,275,126203,1,0,0:0:0:0:
157,275,126299,2,0,L|230:288,1,70,2|0,0:0|0:0,0:0:0:0:
304,333,126684,1,8,0:0:0:0:
394,326,126876,2,0,L|406:269,1,35,2|0,0:0|0:0,0:0:0:0:
433,271,127068,6,0,L|448:170,1,70,2|2,0:0|0:0,0:0:0:0:
451,110,127453,1,8,0:0:0:0:
360,98,127645,2,0,L|331:58,1,35,0|8,0:0|0:0,0:0:0:0:
301,44,127838,2,0,P|285:92|219:157,1,140,0|8,0:0|0:0,0:0:0:0:
134,175,128415,6,0,L|103:123,2,35,2|0|0,0:0|0:0|0:0,0:0:0:0:
97,258,128799,1,2,0:0:0:0:
137,339,128991,1,10,0:0:0:0:
221,303,129184,1,2,0:0:0:0:
290,361,129376,6,0,P|309:318|296:253,1,105,6|0,0:0|0:0,0:0:0:0:
274,233,129761,2,0,L|287:155,1,70,8|0,0:0|0:0,0:0:0:0:
370,195,130145,6,0,P|373:145|341:91,1,105,6|0,0:0|0:0,0:0:0:0:
330,56,130530,2,0,P|281:64|255:58,1,70,8|0,0:0|0:0,0:0:0:0:
170,50,130915,1,0,0:0:0:0:
170,50,131011,2,0,L|123:118,1,70,10|2,0:0|0:0,0:0:0:0:
96,126,131299,2,0,P|108:164|101:215,1,70,8|0,0:0|0:0,0:0:0:0:
87,283,131684,6,0,L|130:318,3,35,2|8|0|0,0:0|0:0|0:0|0:0,0:0:0:0:
147,324,132068,2,0,L|227:292,1,70,8|0,0:0|0:0,0:0:0:0:
388,280,132453,1,0,0:0:0:0:
388,280,132549,2,0,P|339:315|305:318,1,70,10|0,0:0|0:0,0:0:0:0:
297,296,132838,2,0,P|292:257|268:229,1,70,8|0,0:0|0:0,0:0:0:0:
137,73,133222,6,0,P|127:126|143:179,1,105,6|8,0:0|0:0,0:0:0:0:
177,184,133607,2,0,P|216:157|263:152,1,70,0|8,0:0|0:0,0:0:0:0:
295,81,133991,2,0,L|347:80,3,35,0|10|0|0,0:0|0:0|0:0|0:0,0:0:0:0:
368,83,134376,2,0,L|397:156,1,70,10|2,0:0|0:0,0:0:0:0:
429,232,134761,6,0,L|408:288,3,35,0|0|0|0,0:0|0:0|0:0|0:0,0:0:0:0:
378,270,135145,2,0,L|346:304,3,35,0|0|0|0,0:0|0:0|0:0|0:0,0:0:0:0:
316,304,135530,1,2,0:0:0:0:
289,311,135626,1,0,0:0:0:0:
262,318,135722,1,2,0:0:0:0:
234,321,135818,1,0,0:0:0:0:
205,321,135915,2,0,L|170:267,3,35,0|0|0|0,0:0|0:0|0:0|0:0,0:0:0:0:
151,274,136299,6,0,P|88:269|65:256,2,70,4|0|0,0:0|0:0|0:0,0:0:0:0:
129,186,136876,1,0,0:0:0:0:
129,186,136972,1,0,0:0:0:0:
129,186,137068,2,0,P|142:128|136:104,1,70,2|2,0:0|0:0,0:0:0:0:
215,66,137453,1,0,0:0:0:0:
305,59,137645,6,0,P|324:99|398:121,1,105,2|0,0:0|0:0,0:0:0:0:
420,118,138030,1,0,0:0:0:0:
439,206,138222,1,2,0:0:0:0:
379,275,138415,2,0,L|406:312,2,35,2|0|0,0:0|0:0|0:0,0:0:0:0:
295,237,138799,1,2,0:0:0:0:
295,237,138991,1,0,0:0:0:0:
295,237,139184,6,0,P|260:275|218:286,1,70,2|8,0:0|0:0,0:0:0:0:
154,264,139568,1,0,0:0:0:0:
154,264,139761,2,0,P|156:316|174:343,1,70,2|0,0:0|0:0,0:0:0:0:
79,217,140145,2,0,P|103:173|101:146,1,70,2|0,0:0|0:0,0:0:0:0:
168,90,140530,1,0,0:0:0:0:
254,62,140722,6,0,L|263:22,2,35,2|0|2,0:0|0:0|0:0,0:0:0:0:
256,153,141107,1,0,0:0:0:0:
301,231,141299,1,8,0:0:0:0:
388,256,141491,1,0,0:0:0:0:
458,197,141684,1,0,0:0:0:0:
466,170,141780,1,0,0:0:0:0:
466,142,141876,1,0,0:0:0:0:
459,114,141972,1,0,0:0:0:0:
444,89,142068,1,8,0:0:0:0:
356,64,142261,6,0,P|317:56|278:61,2,70,4|2|0,0:0|0:0|0:0,0:0:0:0:
312,144,142838,1,8,0:0:0:0:
221,143,143030,2,0,L|181:114,1,35,0|0,0:0|0:0,0:0:0:0:
161,100,143222,2,0,L|98:155,1,70,2|0,0:0|0:0,0:0:0:0:
33,198,143607,1,10,0:0:0:0:
71,280,143799,6,0,B|107:325|107:325|158:342|201:283,1,140,2|0,0:0|0:0,0:0:0:0:
272,288,144376,1,8,0:0:0:0:
358,261,144568,2,0,P|359:298|348:332,1,70,2|0,0:0|0:0,0:0:0:0:
292,200,144953,2,0,P|318:178|367:173,1,70,2|8,0:0|0:0,0:0:0:0:
433,213,145338,1,2,0:0:0:0:
433,213,145434,1,0,0:0:0:0:
433,213,145530,6,0,P|440:160|431:138,1,70,4|2,0:0|0:0,0:0:0:0:
384,69,145915,2,0,P|429:49|467:54,1,70,10|0,0:0|0:0,0:0:0:0:
309,115,146299,2,0,P|292:84|298:42,2,70,2|2|8,0:0|0:0|0:0,0:0:0:0:
325,227,146876,1,0,0:0:0:0:
313,252,146972,1,0,0:0:0:0:
297,275,147068,6,0,L|263:304,3,35,0|0|8|0,0:0|0:0|0:0|0:0,0:0:0:0:
234,283,147453,2,0,L|190:299,3,35,0|0|0|0,0:0|0:0|0:0|0:0,0:0:0:0:
173,267,147838,2,0,L|124:266,3,35,2|0|0|0,0:0|0:0|0:0|0:0,0:0:0:0:
131,228,148222,2,0,L|90:215,3,35,2|0|2|0,0:0|0:0|0:0|0:0,0:0:0:0:
87,184,148607,6,0,B|130:166|130:166|128:122|169:101,1,105.000004005432,4|0,0:0|0:0,0:0:0:0:
285,83,149376,2,0,L|328:131,1,52.5000020027161,8|0,0:0|0:0,0:0:0:0:
390,73,149761,2,0,L|436:124,1,52.5000020027161,2|0,0:0|0:0,0:0:0:0:
432,282,150338,5,0,0:0:0:0:
354,313,150530,2,0,L|317:268,1,52.5000020027161,0|0,0:0|0:0,0:0:0:0:
235,273,150915,1,8,0:0:0:0:
151,269,151107,2,0,B|137:231|137:231|150:203|146:165,1,105.000004005432,0|0,0:0|0:0,0:0:0:0:
133,84,151684,6,0,P|95:89|21:68,2,105.000004005432,4|0|8,0:0|0:0|0:0,0:0:0:0:
213,57,152645,1,0,0:0:0:0:
281,106,152838,2,0,L|348:106,1,52.5000020027161,2|0,0:0|0:0,0:0:0:0:
433,240,153415,6,0,L|374:240,1,52.5000020027161,0|0,0:0|0:0,0:0:0:0:
480,107,153991,1,8,0:0:0:0:
402,138,154184,1,0,0:0:0:0:
402,138,154376,2,0,L|370:88,1,52.5000020027161,0|0,0:0|0:0,0:0:0:0:
308,40,154761,6,0,B|286:68|288:95|288:95|244:134,1,105.000004005432,4|0,0:0|0:0,0:0:0:0:
170,128,155338,1,0,0:0:0:0:
86,125,155530,2,0,P|96:169|150:208,1,105.000004005432,8|2,0:0|0:0,0:0:0:0:
206,259,156107,1,0,0:0:0:0:
288,281,156299,6,0,B|288:343|288:343|318:377,2,105.000004005432,2|0|8,0:0|0:0|0:0,0:0:0:0:
444,215,157453,2,0,L|444:144,1,52.5000020027161,2|0,0:0|0:0,0:0:0:0:
366,134,157838,6,0,B|365:71|365:71|398:37,2,105.000004005432,4|0|8,0:0|0:0|0:0,0:0:0:0:
210,192,158991,2,0,L|256:140,1,52.5000020027161,0|0,0:0|0:0,0:0:0:0:
398,221,159568,6,0,L|352:273,1,52.5000020027161,2|0,0:0|0:0,0:0:0:0:
205,323,160145,1,8,0:0:0:0:
269,268,160338,1,0,0:0:0:0:
300,190,160530,1,2,0:0:0:0:
298,106,160722,1,0,0:0:0:0:
243,42,160915,6,0,P|212:67|131:71,1,105.000004005432,4|0,0:0|0:0,0:0:0:0:
75,113,161491,1,0,0:0:0:0:
28,184,161684,2,0,P|64:197|103:264,1,105.000004005432,8|2,0:0|0:0,0:0:0:0:
174,296,162261,1,2,0:0:0:0:
257,289,162453,6,0,B|267:253|267:253|252:220|263:187,2,105.000004005432,4|0|8,0:0|0:0|0:0,0:0:0:0:
331,329,163415,1,0,0:0:0:0:
381,262,163607,2,0,L|397:198,1,52.5000020027161,0|0,0:0|0:0,0:0:0:0:
423,110,163991,6,0,P|357:111|317:146,1,105.000004005432,4|2,0:0|0:0,0:0:0:0:
253,175,164568,1,0,0:0:0:0:
183,129,164761,2,0,P|146:112|75:119,1,105.000004005432,8|0,0:0|0:0,0:0:0:0:
72,200,165338,1,2,0:0:0:0:
138,251,165530,6,0,L|205:214,1,52.5000020027161,4|0,0:0|0:0,0:0:0:0:
249,279,165915,2,0,L|308:248,2,52.5000020027161,0|0|8,0:0|0:0|0:0,0:0:0:0:
183,225,166491,1,2,0:0:0:0:
183,225,166876,2,0,L|156:168,1,52.5000020027161,0|4,0:0|0:0,0:0:0:0:
301,89,167453,6,0,L|322:36,2,52.5000020027161,0|0|8,0:0|0:0|0:0,0:0:0:0:
433,191,168222,2,0,L|433:259,1,52.5000020027161,2|0,0:0|0:0,0:0:0:0:
363,292,168607,1,0,0:0:0:0:
280,304,168799,5,0,0:0:0:0:
196,299,168991,2,0,L|136:303,2,52.5000020027161,0|2|8,0:0|0:0|0:0,0:0:0:0:
173,218,169568,2,0,L|114:220,2,52.5000020027161,0|0|0,0:0|0:0|0:0,0:0:0:0:
251,185,170145,6,0,P|273:152|270:88,1,105.000004005432,4|0,0:0|0:0,0:0:0:0:
199,44,170722,1,0,0:0:0:0:
115,57,170915,2,0,B|70:87|70:87|48:137,1,105.000004005432,8|0,0:0|0:0,0:0:0:0:
45,217,171491,1,0,0:0:0:0:
114,264,171684,6,0,L|134:325,1,52.5000020027161,0|0,0:0|0:0,0:0:0:0:
190,221,172068,2,0,L|230:285,1,70,0|0,0:0|0:0,0:0:0:0:
259,166,172453,2,0,L|326:226,1,70,0|0,0:0|0:0,0:0:0:0:
315,99,172838,2,0,L|397:138,1,70,0|0,0:0|0:0,0:0:0:0:
468,146,173222,6,0,L|503:121,2,35,2|0|0,0:0|0:0|0:0,0:0:0:0:
405,213,173607,2,0,L|428:252,3,35,8|0|0|0,0:0|0:0|0:0|0:0,0:0:0:0:
398,272,173991,2,0,L|412:312,3,35,10|0|2|0,0:0|0:0|0:0|0:0,0:0:0:0:
378,328,174376,1,8,0:0:0:0:
353,341,174472,1,0,0:0:0:0:
326,350,174568,1,0,0:0:0:0:
297,352,174665,1,0,0:0:0:0:
269,349,174761,1,2,0:2:0:0:
256,192,174857,12,4,176299,0:0:0:0:
199,272,188607,6,0,P|149:295|86:285,2,105.000004005432,4|0|2,0:0|0:0|0:0,0:0:0:0:
347,194,189760,2,0,P|364:235|357:299,2,105.000004005432,8|0|2,0:0|0:0|0:0,0:0:0:0:
227,75,190914,2,0,P|277:40|325:40,1,105.000004005432,0|0,0:0|0:0,0:0:0:0:
137,79,191683,2,0,P|147:125|197:159,1,105.000004005432,0|0,0:0|0:0,0:0:0:0:
310,278,192453,6,0,P|268:303|229:307,1,70.0000026702882,0|0,0:0|0:0,0:0:0:0:
203,315,192837,1,2,0:0:0:0:
35,305,193222,2,0,P|71:263|66:208,1,105.000004005432,4|0,0:0|0:0,0:0:0:0:
71,47,193991,2,0,P|120:65|157:57,1,70.0000026702882,2|0,0:0|0:0,0:0:0:0:
182,57,194376,1,4,0:0:0:0:
345,18,194760,2,0,P|353:71|344:104,1,70.0000026702882,0|0,0:0|0:0,0:0:0:0:
337,130,195145,1,0,0:0:0:0:
252,273,195530,6,0,P|304:280|335:275,1,70.0000026702882,0|0,0:0|0:0,0:0:0:0:
364,291,195914,2,0,P|377:248|404:223,1,70.0000026702882,0|0,0:0|0:0,0:0:0:0:
438,222,196299,2,0,L|446:133,1,70.0000026702882,0|0,0:0|0:0,0:0:0:0:
447,107,196683,1,6,0:0:0:0:
341,24,197068,1,2,0:0:0:0:
234,109,197453,1,8,0:0:0:0:
103,142,197837,6,0,B|76:170|76:170|65:216|86:253,1,105.000004005432,4|0,0:0|0:0,0:0:0:0:
139,355,198607,2,0,L|236:345,1,70.0000026702882,8|0,0:0|0:0,0:0:0:0:
251,362,198991,1,8,0:0:0:0:
375,248,199376,2,0,P|387:294|385:320,1,70.0000026702882,0|0,0:0|0:0,0:0:0:0:
378,360,199760,1,0,0:0:0:0:
449,201,200145,6,0,P|414:173|377:160,1,70.0000026702882,2|0,0:0|0:0,0:0:0:0:
368,123,200530,2,0,P|315:138|281:131,1,70.0000026702882,0|0,0:0|0:0,0:0:0:0:
260,116,200914,2,0,L|250:63,2,35.0000013351441,8|8|0,0:0|0:0|0:0,0:0:0:0:
227,148,201299,2,0,P|225:208|230:230,1,70.0000026702882,0|0,0:0|0:0,0:0:0:0:
233,262,201683,2,0,L|158:308,1,70.0000026702882,2|0,0:0|0:0,0:0:0:0:
136,326,202068,1,8,0:0:0:0:
35,194,202453,6,0,P|29:152|51:85,1,105.000004005432,4|0,0:0|0:0,0:0:0:0:
207,147,203222,2,0,P|263:135|290:115,1,70.0000026702882,2|0,0:0|0:0,0:0:0:0:
320,97,203607,2,0,B|356:77|356:77|410:92|430:129,1,105.000004005432,2|0,0:0|0:0,0:0:0:0:
441,239,204376,1,2,0:0:0:0:
327,318,204760,6,0,P|365:352|428:364,2,105.000004005432,0|2|0,0:0|0:0|0:0,0:0:0:0:
330,152,205914,1,4,0:0:0:0:
256,192,206042,12,0,207837,0:0:0:0:
215,81,208221,6,0,L|221:42,3,35,0|0|0|0,0:0|0:0|0:0|0:0,0:0:0:0:
251,69,208606,2,0,L|285:28,3,35,0|0|0|0,0:0|0:0|0:0|0:0,0:0:0:0:
297,71,208990,2,0,L|335:36,3,35,0|0|0|0,0:0|0:0|0:0|0:0,0:0:0:0:
356,66,209375,6,0,P|407:59|445:74,2,70,4|0|8,0:0|0:0|0:0,0:0:0:0:
390,150,209952,1,2,0:0:0:0:
390,150,210048,1,0,0:0:0:0:
390,150,210144,2,0,P|434:155|480:137,2,70,0|2|10,0:0|0:0|0:0,0:0:0:0:
363,237,210721,2,0,L|413:262,2,35,0|0|8,0:0|0:0|0:0,0:0:0:0:
289,290,211106,6,0,L|312:329,2,35,0|0|10,0:0|0:0|0:0,0:0:0:0:
200,312,211490,2,0,L|179:272,1,35,0|0,0:0|0:0,0:0:0:0:
146,291,211683,2,0,L|128:254,1,35,10|0,0:1|0:0,0:0:0:0:
93,249,211875,2,0,L|63:178,1,70,0|8,0:0|0:0,0:0:0:0:
99,99,212260,1,2,0:0:0:0:
189,96,212452,6,0,P|174:51|154:29,2,70,6|0|8,0:0|0:0|0:0,0:0:0:0:
200,186,213029,1,2,0:0:0:0:
200,186,213125,1,0,0:0:0:0:
200,186,213221,2,0,P|215:231|235:253,2,70,0|2|10,0:0|0:0|0:0,0:0:0:0:
273,131,213798,1,0,0:0:0:0:
273,131,213990,6,0,L|359:95,1,70,0|0,0:0|0:0,0:0:0:0:
422,70,214375,1,8,0:0:0:0:
422,70,214471,2,0,P|427:121|420:149,1,70,0|0,0:0|0:0,0:0:0:0:
409,182,214760,2,0,P|398:237|402:273,1,70,2|0,0:0|0:0,0:0:0:0:
476,297,215144,1,8,0:0:0:0:
476,297,215337,1,2,0:0:0:0:
339,328,215529,6,0,B|289:329|289:329|241:358|185:318,1,140,6|8,0:0|0:0,0:0:0:0:
117,298,216106,1,2,0:0:0:0:
246,240,216298,2,0,P|260:194|254:166,2,70,2|0|8,0:0|0:0|0:0,0:0:0:0:
162,202,216875,2,0,L|121:171,1,35,0|0,0:0|0:0,0:0:0:0:
256,192,217067,12,4,218606,0:0:0:0:
397,120,218990,6,0,P|430:144|436:157,1,52.5000020027161,8|0,0:0|0:0,0:0:0:0:
397,120,219375,2,0,P|383:166|365:177,1,62.9999980773926,8|2,0:0|0:0,0:0:0:0:
397,120,219760,2,0,P|341:120|323:104,1,73.4999977569581,8|0,0:0|0:0,0:0:0:0:
397,120,220144,6,0,P|385:71|401:38,1,83.9999974365235,10|0,0:0|0:0,0:0:0:0:
397,120,220529,2,0,P|451:108|493:124,1,94.5000003604889,8|0,0:0|0:0,0:0:0:0:
439,197,220913,2,0,L|426:242,3,35,2|0|0|0,0:0|0:0|0:0|0:0,0:0:0:0:
414,273,221298,2,0,L|332:269,1,70,10|0,0:0|0:0,0:0:0:0:
263,311,221683,5,4,0:0:0:0:
258,220,221875,1,0,0:0:0:0:
182,270,222067,1,10,0:0:0:0:
182,270,222163,2,0,P|139:236|99:222,1,70,0|0,0:0|0:0,0:0:0:0:
81,217,222452,2,0,P|70:165|56:140,2,70,2|0|8,0:0|0:0|0:0,0:0:0:0:
156,165,223029,1,2,0:0:0:0:
222,103,223221,6,0,L|229:21,2,70,2|0|8,0:0|0:0|0:0,0:0:0:0:
312,87,223798,1,2,0:0:0:0:
312,87,223894,1,0,0:0:0:0:
312,87,223990,1,0,0:0:0:0:
392,43,224183,1,0,0:0:0:0:
390,133,224375,1,10,0:0:0:0:
374,222,224567,2,0,L|390:283,1,35,2|0,0:0|0:0,0:0:0:0:
404,296,224760,6,0,P|459:280|488:282,2,70,6|0|10,0:0|0:0|0:0,0:0:0:0:
318,327,225337,2,0,L|328:360,2,35,2|0|0,0:0|0:0|0:0,0:0:0:0:
232,297,225721,1,0,0:0:0:0:
203,210,225913,2,0,P|195:156|201:116,1,70,8|2,0:0|0:0,0:0:0:0:
100,38,226298,5,2,0:0:0:0:
187,60,226490,1,0,0:0:0:0:
117,119,226683,1,8,0:0:0:0:
53,184,226875,1,0,0:0:0:0:
53,184,226971,1,0,0:0:0:0:
53,184,227067,2,0,P|54:251|61:268,1,70,2|0,0:0|0:0,0:0:0:0:
87,338,227452,2,0,L|170:324,1,70,8|0,0:0|0:0,0:0:0:0:
193,333,227740,1,0,0:0:0:0:
193,333,227837,6,0,L|274:318,1,70,6|0,0:0|0:0,0:0:0:0:
350,338,228221,1,8,0:0:0:0:
407,267,228413,1,0,0:0:0:0:
356,190,228606,2,0,L|362:138,2,35,0|0|2,0:0|0:0|0:0,0:0:0:0:
268,213,228990,1,8,0:0:0:0:
204,146,229183,1,0,0:0:0:0:
118,116,229375,6,0,P|63:110|33:119,2,70,2|0|8,0:0|0:0|0:0,0:0:0:0:
188,57,229952,1,0,0:0:0:0:
188,57,230048,1,0,0:0:0:0:
188,57,230144,2,0,P|241:62|276:57,1,70,2|0,0:0|0:0,0:0:0:0:
348,48,230529,1,8,0:0:0:0:
415,108,230721,2,0,L|472:90,2,35,0|0|4,0:0|0:0|0:0,0:0:0:0:
385,287,231298,5,10,0:0:0:0:
353,201,231490,1,0,0:0:0:0:
285,139,231683,1,2,0:0:0:0:
277,229,231875,1,0,0:0:0:0:
248,315,232067,1,10,0:0:0:0:
69,277,232452,5,2,0:0:0:0:
110,196,232644,1,2,0:0:0:0:
110,196,232740,1,0,0:0:0:0:
110,196,232837,1,10,0:0:0:0:
110,196,232933,2,0,P|136:146|137:118,1,70,0|0,0:0|0:0,0:0:0:0:
147,88,233221,2,0,L|219:53,1,70,10|0,0:0|0:0,0:0:0:0:
255,49,233510,2,0,L|296:65,3,35,0|10|0|2,0:0|0:0|0:0|0:0,0:0:0:0:
373,92,233990,6,0,L|440:78,2,35,10|0|0,0:0|0:0|0:0,0:0:0:0:
298,145,234375,2,0,L|281:206,3,35,10|0|0|0,0:0|0:0|0:0|0:0,0:0:0:0:
334,182,234760,2,0,L|332:229,3,35,10|0|0|0,0:0|0:0|0:0|0:0,0:0:0:0:
377,216,235144,2,0,L|388:260,3,35,10|0|0|0,0:0|0:0|0:0|0:0,0:0:0:0:
430,256,235529,5,0,0:0:0:0:
256,192,235625,12,4,237067,0:0:0:0:
181,114,237452,5,8,0:0:0:0:
207,124,237548,1,0,0:0:0:0:
231,139,237644,1,0,0:0:0:0:
252,158,237740,1,0,0:0:0:0:
269,181,237837,2,0,L|261:227,3,35,10|0|10|0,0:0|0:0|0:0|0:0,0:0:0:0:
301,215,238221,2,0,L|340:244,3,35,8|0|0|0,0:0|0:0|0:0|0:0,0:0:0:0:
366,224,238606,5,4,0:0:0:0:
154,138,244760,6,0,P|103:150|39:131,2,105.000004005432,4|0|8,0:0|0:0|0:0,0:0:0:0:
251,76,245913,1,0,0:0:0:0:
251,76,246106,2,0,L|368:108,1,105.000004005432,2|0,0:0|0:0,0:0:0:0:
418,156,246683,6,0,L|406:223,1,52.5000020027161,0|0,0:0|0:0,0:0:0:0:
389,289,247067,1,8,0:0:0:0:
310,319,247260,1,2,0:0:0:0:
310,319,247356,1,2,0:0:0:0:
310,319,247452,2,0,L|243:315,1,52.5000020027161,2|0,0:0|0:0,0:0:0:0:
172,314,247837,6,0,B|172:277|199:253|199:253|199:209,1,105.000004005432,4|0,0:0|0:0,0:0:0:0:
180,135,248413,1,0,0:0:0:0:
259,102,248606,2,0,P|233:71|160:53,1,105.000004005432,0|0,0:0|0:0,0:0:0:0:
53,189,249375,5,2,0:0:0:0:
53,189,249760,2,0,L|5:246,2,70,2|0|2,0:0|0:0|0:0,0:0:0:0:
131,235,250337,1,0,0:0:0:0:
131,235,250529,1,0,0:0:0:0:
221,245,250721,1,0,0:0:0:0:
221,245,250817,1,0,0:0:0:0:
221,245,250913,6,0,L|257:297,3,35,0|0|0|0,0:0|0:0|0:0|0:0,0:0:0:0:
261,240,251298,2,0,L|297:262,3,35,0|0|0|0,0:0|0:0|0:0|0:0,0:0:0:0:
307,223,251683,2,0,L|364:244,3,35,2|0|2|0,0:0|0:0|0:0|0:0,0:0:0:0:
348,197,252067,2,0,L|394:199,3,35,2|0|0|0,0:0|0:0|0:0|0:0,0:0:0:0:
426,183,252452,6,0,L|419:86,1,70,6|0,0:0|0:0,0:0:0:0:
493,236,252837,2,0,P|463:262|424:267,1,70,8|2,0:0|0:0,0:0:0:0:
346,292,253221,1,2,0:0:0:0:
359,381,253413,1,0,0:0:0:0:
305,306,253606,1,8,0:0:0:0:
223,346,253798,6,0,B|169:338|169:338|174:296|119:249,1,140,2|0,0:0|0:0,0:0:0:0:
134,263,254375,1,8,0:0:0:0:
96,180,254567,1,2,0:0:0:0:
96,180,254663,1,0,0:0:0:0:
96,180,254760,2,0,P|51:215|43:237,2,70,2|0|8,0:0|0:0|0:0,0:0:0:0:
185,199,255337,1,2,0:0:0:0:
185,199,255433,1,0,0:0:0:0:
185,199,255529,6,0,P|232:174|243:154,1,70,6|0,0:0|0:0,0:0:0:0:
269,75,255913,1,8,0:0:0:0:
341,129,256106,1,2,0:0:0:0:
416,78,256298,2,0,P|463:56|492:62,2,70,2|0|8,0:0|0:0|0:0,0:0:0:0:
341,129,256875,1,0,0:0:0:0:
269,75,257067,6,0,P|220:87|159:69,1,105,2|0,0:0|0:0,0:0:0:0:
133,56,257452,2,0,L|92:141,1,70,8|2,0:0|0:0,0:0:0:0:
55,197,257837,2,0,P|103:227|109:266,1,70,2|0,0:0|0:0,0:0:0:0:
126,270,258125,1,0,0:0:0:0:
126,270,258221,2,0,L|157:316,3,35,8|0|0|0,0:0|0:0|0:0|0:0,0:0:0:0:
189,311,258606,6,0,L|279:293,1,70,6|0,0:0|0:0,0:0:0:0:
339,258,258990,2,0,P|345:306|333:341,1,70,10|0,0:0|0:0,0:0:0:0:
430,339,259375,1,2,0:0:0:0:
471,258,259567,1,2,0:0:0:0:
429,176,259760,1,8,0:0:0:0:
392,92,259952,6,0,B|357:125|357:125|328:105|256:113,1,140,2|0,0:0|0:0,0:0:0:0:
176,121,260529,1,10,0:0:0:0:
113,55,260721,1,2,0:0:0:0:
135,143,260913,1,2,0:0:0:0:
82,217,261106,1,0,0:0:0:0:
132,292,261298,1,8,0:0:0:0:
216,325,261490,1,0,0:0:0:0:
216,325,261587,1,0,0:0:0:0:
216,325,261683,6,0,P|257:295|268:256,1,70,2|0,0:0|0:0,0:0:0:0:
248,189,262067,2,0,P|284:190|322:212,1,70,8|0,0:0|0:0,0:0:0:0:
181,124,262452,2,0,P|157:149|151:183,1,70,2|0,0:0|0:0,0:0:0:0:
270,107,262837,2,0,P|244:60|214:45,1,70,8|0,0:0|0:0,0:0:0:0:
343,59,263221,5,2,0:0:0:0:
414,114,263413,1,2,0:0:0:0:
452,196,263606,1,8,0:0:0:0:
462,286,263798,1,2,0:0:0:0:
374,309,263990,2,0,P|318:304|268:339,1,105,2|0,0:0|0:0,0:0:0:0:
242,343,264375,2,0,P|216:308|215:266,1,70,8|0,0:0|0:0,0:0:0:0:
271,213,264760,6,0,L|286:168,3,35,2|0|0|0,0:0|0:0|0:0|0:0,0:0:0:0:
247,163,265144,2,0,L|252:118,3,35,2|0|2|0,0:0|0:0|0:0|0:0,0:0:0:0:
246,82,265529,6,0,P|190:95|131:80,1,105,2|0,0:0|0:0,0:0:0:0:
106,79,265913,2,0,L|85:165,1,70,8|0,0:0|0:0,0:0:0:0:
149,215,266298,6,0,P|110:236|70:236,1,70,6|0,0:0|0:0,0:0:0:0:
226,176,266683,2,0,P|233:219|217:268,1,70,8|0,0:0|0:0,0:0:0:0:
293,307,267067,2,0,L|332:313,3,35,2|10|0|0,0:0|0:0|0:0|0:0,0:0:0:0:
372,320,267452,2,0,L|393:240,1,70,8|0,0:0|0:0,0:0:0:0:
402,41,267837,5,2,0:0:0:0:
402,41,267933,2,0,P|413:97|407:140,1,70,8|0,0:0|0:0,0:0:0:0:
421,146,268221,2,0,P|363:173|337:170,1,70,8|0,0:0|0:0,0:0:0:0:
275,210,268606,2,0,L|243:266,3,35,0|10|0|0,0:0|0:0|0:0|0:0,0:0:0:0:
228,265,268990,2,0,L|152:228,1,70,8|0,0:0|0:0,0:0:0:0:
73,236,269375,6,0,P|87:186|137:144,1,105,6|8,0:0|0:0,0:0:0:0:
163,146,269760,2,0,L|179:67,1,70,0|10,0:0|0:0,0:0:0:0:
261,43,270144,1,0,0:0:0:0:
261,43,270240,2,0,L|342:71,1,70,10|0,0:0|0:0,0:0:0:0:
365,71,270529,2,0,L|388:147,1,70,10|2,0:0|0:0,0:0:0:0:
427,218,270913,6,0,L|412:264,3,35,0|0|0|0,0:0|0:0|0:0|0:0,0:0:0:0:
377,251,271298,2,0,L|352:286,3,35,2|0|10|0,0:0|0:0|0:0|0:0,0:0:0:0:
320,266,271683,2,0,L|292:292,3,35,8|0|0|0,0:0|0:0|0:0|0:0,0:0:0:0:
256,293,272067,1,2,0:0:0:0:
228,287,272163,1,0,0:0:0:0:
201,277,272260,1,0,0:0:0:0:
176,263,272356,1,0,0:0:0:0:
159,240,272452,6,0,B|185:199|185:199|165:160|168:109,1,140,4|2,0:0|0:0,0:0:0:0:
166,18,273029,1,0,0:0:0:0:
249,53,273221,2,0,B|285:82|322:63|322:63|392:97,1,140,2|2,0:0|0:0,0:0:0:0:
448,147,273798,1,0,0:0:0:0:
500,222,273990,5,0,0:0:0:0:
445,295,274183,1,0,0:0:0:0:
359,265,274375,1,2,0:0:0:0:
361,175,274567,1,2,0:0:0:0:
448,147,274760,1,0,0:0:0:0:
380,86,274952,2,0,L|365:44,2,35,0|0|2,0:0|0:0|0:0,0:0:0:0:
292,112,275337,1,2,0:0:0:0:
292,112,275433,1,0,0:0:0:0:
292,112,275529,6,0,P|247:120|199:114,1,70,4|0,0:0|0:0,0:0:0:0:
134,99,275913,2,0,P|133:144|114:197,1,70,2|2,0:0|0:0,0:0:0:0:
106,257,276298,2,0,L|67:293,2,35,2|0|0,0:0|0:0|0:0,0:0:0:0:
188,295,276683,1,2,0:0:0:0:
278,296,276875,1,2,0:0:0:0:
344,233,277067,6,0,P|305:211|266:209,1,70,0|0,0:0|0:0,0:0:0:0:
241,212,277356,1,0,0:0:0:0:
241,212,277452,2,0,L|219:133,1,70,8|0,0:0|0:0,0:0:0:0:
198,56,277837,2,0,L|154:33,2,35,2|0|2,0:0|0:0|0:0,0:0:0:0:
287,37,278221,1,8,0:0:0:0:
376,53,278413,2,0,L|396:92,1,35,0|0,0:0|0:0,0:0:0:0:
427,98,278606,6,0,P|415:134|425:217,1,105,4|0,0:0|0:0,0:0:0:0:
438,233,278990,1,2,0:0:0:0:
374,298,279183,1,0,0:0:0:0:
288,268,279375,2,0,L|307:184,2,70,2|0|2,0:0|0:0|0:0,0:0:0:0:
203,302,279952,1,0,0:0:0:0:
203,302,280144,6,0,B|181:273|146:268|146:268|146:229|112:191,1,140,2|2,0:0|0:0,0:0:0:0:
59,134,280721,1,0,0:0:0:0:
132,80,280913,2,0,P|167:65|218:66,2,70,4|0|2,0:0|0:0|0:0,0:0:0:0:
190,149,281490,1,0,0:0:0:0:
281,146,281683,6,0,P|292:195|286:240,1,70,4|0,0:0|0:0,0:0:0:0:
318,242,281971,1,0,0:0:0:0:
354,252,282067,2,0,P|397:220|413:188,1,70,2|0,0:0|0:0,0:0:0:0:
408,115,282452,2,0,L|394:71,3,35,2|0|2|0,0:0|0:0|0:0|0:0,0:0:0:0:
378,47,282837,2,0,P|332:66|290:60,1,70,2|0,0:0|0:0,0:0:0:0:
222,50,283221,5,2,0:0:0:0:
222,50,283317,2,0,L|193:147,1,70,0|0,0:0|0:0,0:0:0:0:
186,160,283606,2,0,L|172:207,3,35,8|0|0|0,0:0|0:0|0:0|0:0,0:0:0:0:
162,236,283990,2,0,P|208:268|224:316,1,105,2|0,0:0|0:0,0:0:0:0:
242,354,284375,2,0,L|332:331,1,70,10|2,0:0|0:0,0:0:0:0:
397,308,284760,5,0,0:0:0:0:
397,308,284856,2,0,P|391:256|401:225,1,70,2|0,0:0|0:0,0:0:0:0:
413,198,285144,2,0,L|360:143,1,70,2|8,0:0|0:0,0:0:0:0:
234,99,285529,2,0,L|268:110,1,35,10|12,0:0|0:0,0:0:0:0:
