osu file format v12

[General]
AudioFilename: .mp3
AudioLeadIn: 0
PreviewTime: 116107
Countdown: 0
SampleSet: Soft
StackLeniency: 0.7
Mode: 0
LetterboxInBreaks: 0
WidescreenStoryboard: 0

[Editor]
DistanceSpacing: 1
BeatDivisor: 4
GridSize: 8

[Metadata]
Title:Shokuzai Belladonna
TitleUnicode:贖罪ベラドンナ
Artist:ave;new feat. Sakura Saori
ArtistUnicode:ave;new feat. 佐倉紗織
Creator:Tsukuyomi
Version:Beginner
Source:
Tags:Enlever〜アンルヴェ〜 BLENHEIM baldrace [CSGA]Ar3sgice CloudSplash16
BeatmapID:317762
BeatmapSetID:123078

[Difficulty]
HPDrainRate:2
CircleSize:3
OverallDifficulty:2
ApproachRate:3
SliderMultiplier:1
SliderTickRate:1

[Events]
//Background and Video events
0,0,"BG.jpg",0,0
//Break Periods
2,38142,39475
2,176499,187167
//Storyboard Layer 0 (Background)
//Storyboard Layer 1 (Fail)
//Storyboard Layer 2 (Pass)
//Storyboard Layer 3 (Foreground)
//Storyboard Sound Samples
//Background Colour Transformations
3,100,163,162,255

[TimingPoints]
12343.7325709584,714.285714285714,4,2,1,50,1,0
15200,-100,4,2,2,50,0,0
17343,-100,4,2,1,50,0,0
20915,-100,4,2,2,50,0,0
21093,-100,4,2,1,50,0,0
23058,-100,4,2,2,50,0,0
23415,-100,4,2,1,50,0,0
25200,-100,4,2,2,50,0,0
26629,-100,4,2,2,50,0,0
26808,-100,4,2,1,50,0,0
30915,810.810810810811,4,2,2,50,1,0
30915,-100,4,2,2,50,0,0
32536,675.818181818182,4,2,2,50,1,0
37942,743.418181818182,4,2,2,5,1,0
40915,384.615384615385,4,1,2,50,1,0
42453,-100,4,1,2,50,0,1
47838,-100,4,2,2,50,0,1
48222,-100,4,1,2,50,0,1
54761,-100,4,2,1,50,0,0
57645,-100,4,1,2,50,0,0
73126,-100,4,2,1,60,0,0
80530,-100,4,2,2,60,0,0
80626,-100,4,1,2,50,0,0
85818,-100,4,2,1,50,0,0
88991,-100,4,2,2,60,0,0
89184,-100,4,2,1,60,0,0
90145,-100,4,2,2,60,0,0
90241,-100,4,2,1,60,0,0
96299,-100,4,2,2,60,0,0
96491,-100,4,2,1,60,0,0
102453,-100,4,2,2,60,0,0
102645,-100,4,2,1,60,0,0
108607,-100,4,2,2,60,0,0
108703,-100,4,2,1,60,0,0
110241,-100,4,1,2,50,0,0
110530,-100,4,1,2,25,0,0
110915,-100,4,1,2,35,0,0
111299,-100,4,1,2,45,0,0
111491,-100,4,1,2,50,0,0
114376,-100,4,2,2,50,0,0
114761,-100,4,2,1,50,0,0
116299,-100,4,1,2,50,0,1
120915,-100,4,2,2,50,0,1
121299,-100,4,1,2,50,0,1
133222,-100,4,1,2,50,0,0
134665,-100,4,2,1,60,0,0
139376,-100,4,2,2,60,0,0
139472,-100,4,2,1,60,0,0
140915,-100,4,2,2,60,0,0
142261,-100,4,1,2,50,0,0
147357,-100,4,2,1,50,0,0
151684,-100,4,2,2,50,0,0
151876,-100,4,2,1,50,0,0
157838,-100,4,2,2,50,0,0
157934,-100,4,2,1,50,0,0
162453,-100,4,2,2,50,0,0
162645,-100,4,2,1,50,0,0
165530,-100,4,2,2,50,0,0
165722,-100,4,2,1,50,0,0
170145,-100,4,2,2,50,0,0
170241,-100,4,2,1,50,0,0
172068,-100,4,1,2,25,0,0
172453,-100,4,1,2,35,0,0
172838,-100,4,1,2,45,0,0
188607,384.615384615385,3,2,1,50,1,0
188607,-100,3,2,2,50,0,0
188703,-100,3,2,1,50,0,0
189760,-100,3,2,2,50,0,0
193222,-100,3,2,1,50,0,0
194376,-100,3,3,2,50,0,0
194568,-100,3,2,1,50,0,0
196683,-100,3,2,2,50,0,0
196780,-100,3,2,1,50,0,0
197933,-100,3,2,2,50,0,0
200241,-100,3,2,1,50,0,0
202068,-100,3,2,2,50,0,0
207837,384.615384615385,4,1,2,50,1,0
208606,-100,4,1,2,40,0,0
218990,-100,4,1,2,23,0,0
219183,-100,4,1,2,26,0,0
219375,-100,4,1,2,29,0,0
219567,-100,4,1,2,32,0,0
219760,-100,4,1,2,35,0,0
219952,-100,4,1,2,38,0,0
220144,-100,4,1,2,41,0,0
220913,-100,4,1,2,50,0,0
221683,-100,4,1,2,50,0,1
227837,-100,4,1,2,50,0,0
233990,-100,4,1,2,50,0,1
236683,-100,4,2,2,50,0,1
237067,-100,4,1,2,50,0,1
238606,-100,4,2,1,80,0,0
244663,-100,4,1,2,35,0,0
247260,-100,4,2,1,35,0,0
247740,-100,4,1,2,50,0,0
252452,-100,4,1,2,50,0,1
269375,-100,4,1,2,50,0,0
272452,-100,4,2,1,70,0,0
277356,-100,4,1,2,35,0,0
278413,-100,4,2,1,70,0,0
280913,-100,4,2,2,70,0,0
281010,-100,4,2,1,70,0,0
283317,-100,4,1,2,35,0,0

[Colours]
Combo1 : 202,143,231
Combo2 : 121,131,244
Combo3 : 121,244,131
Combo4 : 253,157,157

[HitObjects]
194,59,12343,2,0,P|137:85|106:144,2,100,4|2|0,0:0|0:0|0:0,0:0:0:0:
209,157,14486,1,2,0:0:0:0:
219,256,15200,6,0,P|268:238|309:161,2,100,8|0|4,0:0|0:0|0:0,0:0:0:0:
119,269,17343,1,0,0:0:0:0:
137,170,18058,6,0,P|173:98|209:75,1,100,4|0,0:0|0:0,0:0:0:0:
239,171,19486,2,0,P|309:178|364:153,2,100,2|0|8,0:0|0:0|0:0,0:0:0:0:
109,95,21986,6,0,P|80:154|80:179,1,50,0|0,0:0|0:0,0:0:0:0:
48,231,23058,2,0,L|106:269,1,50,8|0,0:0|0:0,0:0:0:0:
135,279,23772,6,0,P|216:299|276:279,2,100,4|2|4,0:0|0:0|0:0,0:0:0:0:
199,202,25915,1,8,0:0:0:0:
281,145,26629,6,0,P|344:118|410:135,2,100,2|0|0,0:0|0:0|0:0,0:0:0:0:
352,214,28772,2,0,L|366:274,1,50,2|0,0:0|0:0,0:0:0:0:
368,312,29486,6,0,P|322:361|257:360,2,100,4|0|8,0:0|0:0|0:0,0:0:0:0:
270,255,31725,2,0,L|216:152,1,100,0|2,0:0|0:0,0:0:0:0:
256,192,32704,12,0,37942,0:0:0:0:
440,92,40915,6,0,P|426:162|377:199,1,100,0|8,0:0|0:0,0:0:0:0:
342,106,41684,2,0,L|227:93,1,100,2|8,0:0|0:0,0:0:0:0:
147,124,42453,5,4,0:0:0:0:
115,218,42838,1,10,0:0:0:0:
69,306,43222,2,0,P|119:315|190:285,2,100,2|2|0,0:0|0:0|0:0,0:0:0:0:
115,218,44376,2,0,P|182:206|230:229,1,100,8|0,0:0|0:0,0:0:0:0:
301,257,45145,1,8,0:0:0:0:
395,288,45530,6,0,P|440:237|495:222,1,100,4|10,0:0|0:0,0:0:0:0:
456,126,46299,2,0,L|406:35,2,100,2|10|0,0:0|0:0|0:0,0:0:0:0:
357,144,47453,2,0,P|277:148|239:137,1,100,10|8,0:0|0:0,0:0:0:0:
171,93,48222,2,0,P|158:138|181:207,2,100,8|4|10,0:0|0:0|0:0,0:0:0:0:
258,143,49376,5,2,0:0:0:0:
254,243,49761,1,10,0:0:0:0:
252,342,50145,2,0,P|313:325|338:282,2,100,0|8|2,0:0|0:0|0:0,0:0:0:0:
165,292,51299,1,8,0:0:0:0:
92,223,51684,6,0,P|70:163|86:111,1,100,4|10,0:0|0:0,0:0:0:0:
172,156,52453,2,0,L|271:140,1,100,2|10,0:0|0:0,0:0:0:0:
370,129,53222,2,0,P|339:61|296:52,2,100,0|10|2,0:0|0:0|0:0,0:0:0:0:
360,228,54376,1,8,0:0:0:0:
285,295,54761,6,0,P|233:326|180:324,1,100,4|2,0:0|0:0,0:0:0:0:
208,228,55530,1,2,0:0:0:0:
104,118,56107,2,0,B|168:139|168:139|215:119|269:149,1,150,2|0,0:0|0:0,0:0:0:0:
346,157,57068,1,2,0:0:0:0:
450,327,57838,6,0,B|394:237|394:237|350:266|274:234,1,200,6|0,0:0|0:0,0:0:0:0:
231,313,58991,1,10,0:0:0:0:
131,305,59376,2,0,B|150:237|210:220|210:220|219:178|260:159,1,200,6|2,0:0|0:0,0:0:0:0:
341,107,60530,1,8,0:0:0:0:
280,27,60915,6,0,B|248:68|248:68|187:80,1,100,6|8,0:0|0:0,0:0:0:0:
109,37,61684,2,0,P|98:86|127:144,1,100,2|8,0:0|0:0,0:0:0:0:
195,190,62453,2,0,P|145:229|75:223,2,100,0|8|0,0:0|0:0|0:0,0:0:0:0:
269,123,63607,1,10,0:0:0:0:
364,151,63991,6,0,L|471:182,1,100,6|10,0:0|0:0,0:0:0:0:
434,275,64761,2,0,P|385:288|349:335,1,100,2|8,0:0|0:0,0:0:0:0:
254,336,65530,2,0,L|112:335,2,100,2|8|2,0:0|0:0|0:0,0:0:0:0:
291,243,66684,1,8,0:0:0:0:
215,178,67068,2,0,L|90:178,2,100,2|10|10,0:0|0:0|0:0,0:0:0:0:
411,142,68607,6,0,P|440:191|441:237,1,100,6|8,0:0|0:0,0:0:0:0:
342,216,69376,2,0,P|314:270|272:287,1,100,0|8,0:0|0:0,0:0:0:0:
228,200,70145,6,0,P|157:211|114:186,1,100,10|0,0:0|0:0,0:0:0:0:
175,110,70915,2,0,P|121:69|116:33,1,100,8|0,0:0|0:0,0:0:0:0:
213,22,71684,6,0,P|261:58|268:113,1,100,2|12,0:0|0:0,0:0:0:0:
369,78,72453,2,0,P|366:132|319:178,1,100,0|4,0:0|0:0,0:0:0:0:
415,230,73222,6,0,P|370:264|316:265,1,100,0|0,0:0|0:0,0:0:0:0:
228,281,73991,2,0,L|157:289,2,50,2|2|0,0:0|0:0|0:0,0:0:0:0:
200,184,74761,2,0,L|166:79,1,100,4|2,0:0|0:0,0:0:0:0:
264,57,75530,2,0,P|325:40|395:69,2,100,2|2|0,0:0|0:0|0:0,0:0:0:0:
327,134,76684,6,0,P|377:144|431:115,2,100,2|0|2,0:0|0:0|0:0,0:0:0:0:
227,144,77838,2,0,B|181:188|183:231|183:231|132:232|92:286,2,200,4|2|0,0:0|0:0|0:0,0:0:0:0:
286,224,79761,6,0,B|317:236|326:251|326:251|342:238|413:232,1,100,2|2,0:0|0:0,0:0:0:0:
467,271,80530,2,0,B|430:327|379:327|379:327|330:355|271:328,1,200,4|8,0:0|0:0,0:0:0:0:
191,327,81684,2,0,P|125:281|117:241,1,100,0|8,0:0|0:0,0:0:0:0:
103,167,82453,2,0,P|102:89|62:50,2,100,0|2|0,0:0|0:0|0:0,0:0:0:0:
195,206,83607,1,8,0:0:0:0:
266,136,83991,6,0,P|303:97|382:100,2,100,0|8|2,0:0|0:0|0:0,0:0:0:0:
351,188,85145,2,0,L|406:282,1,100,8|0,0:0|0:0,0:0:0:0:
447,363,85915,1,0,0:0:0:0:
347,355,86299,1,2,0:0:0:0:
259,306,86684,1,0,0:0:0:0:
173,253,87068,6,0,P|110:220|57:226,2,100,4|0|8,0:0|0:0|0:0,0:0:0:0:
263,210,88222,2,0,L|328:184,1,50,2|0,0:0|0:0,0:0:0:0:
457,170,88991,2,0,P|448:119|395:85,1,100,8|8,0:0|0:0,0:0:0:0:
213,67,90145,6,0,B|162:67|162:67|94:91,2,100,4|0|8,0:0|0:0|0:0,0:0:0:0:
301,113,91299,2,0,L|301:182,1,50,2|0,0:0|0:0,0:0:0:0:
256,306,92068,2,0,P|305:315|354:303,1,100,0|10,0:0|0:0,0:0:0:0:
449,272,92838,1,0,0:0:0:0:
457,172,93222,6,0,B|462:117|462:117|499:72,2,100,4|0|8,0:0|0:0|0:0,0:0:0:0:
368,219,94376,1,0,0:0:0:0:
267,219,94761,2,0,P|203:209|163:166,1,100,2|0,0:0|0:0,0:0:0:0:
98,125,95530,2,0,P|170:91|201:98,1,100,8|0,0:0|0:0,0:0:0:0:
286,102,96299,6,0,B|335:62|380:94|380:94|425:105|494:53,2,200,4|8|2,0:0|0:0|0:0,0:0:0:0:
209,166,98222,2,0,P|165:190|99:181,1,100,0|8,0:0|0:0,0:0:0:0:
16,189,98991,1,2,0:0:0:0:
72,271,99376,6,0,L|136:358,1,100,4|0,0:0|0:0,0:0:0:0:
230,336,100145,2,0,P|298:321|336:333,1,100,8|2,0:0|0:0,0:0:0:0:
425,316,100915,2,0,L|497:222,2,100,0|0|8,0:0|0:0|0:0,0:0:0:0:
326,329,102068,1,0,0:0:0:0:
231,296,102453,6,0,P|159:257|142:215,1,100,4|0,0:0|0:0,0:0:0:0:
158,144,103222,2,0,P|230:183|247:225,1,100,8|0,0:0|0:0,0:0:0:0:
332,230,103991,2,0,P|380:206|410:152,2,100,0|0|8,0:0|0:0|0:0,0:0:0:0:
312,131,105145,1,0,0:0:0:0:
220,91,105530,6,0,P|174:78|115:91,2,100,4|0|8,0:0|0:0|0:0,0:0:0:0:
170,178,106684,1,0,0:0:0:0:
120,264,107068,2,0,P|174:279|238:249,1,100,0|0,0:0|0:0,0:0:0:0:
312,242,107838,2,0,L|411:293,1,100,8|0,0:0|0:0,0:0:0:0:
456,204,108607,6,0,B|455:146|455:146|487:99,2,100,4|0|8,0:0|0:0|0:0,0:0:0:0:
402,288,109761,1,0,0:0:0:0:
351,374,110145,1,0,0:0:0:0:
253,351,110530,1,0,0:0:0:0:
245,252,110915,1,0,0:0:0:0:
336,213,111299,1,0,0:0:0:0:
256,192,111684,12,4,114376,0:0:0:0:
426,318,114953,6,0,L|370:320,1,50,0|10,0:0|0:0,0:0:0:0:
279,291,115530,2,0,L|214:245,2,50,2|2|8,0:0|0:0|0:0,0:0:0:0:
365,240,116299,6,0,P|397:188|390:120,1,100,6|8,0:0|0:0,0:0:0:0:
300,166,117068,2,0,P|236:150|206:103,2,100,2|8|0,0:0|0:0|0:0,0:0:0:0:
300,65,118222,1,8,0:0:0:0:
205,32,118607,2,0,P|139:65|120:102,1,100,2|8,0:0|0:0,0:0:0:0:
80,176,119376,6,0,B|136:168|151:220|151:220|148:289|232:312,1,200,6|2,0:0|0:0,0:0:0:0:
302,331,120530,1,8,0:0:0:0:
379,268,120915,2,0,L|465:194,2,100,12|8|2,0:0|0:0|0:0,0:0:0:0:
302,331,122068,1,8,0:0:0:0:
206,301,122453,6,0,B|115:256|115:256|128:199|84:146,2,200,6|2|0,0:0|0:0|0:0,0:0:0:0:
285,240,124376,2,0,P|329:211|349:131,1,100,8|2,0:0|0:0,0:0:0:0:
251,146,125145,1,10,0:0:0:0:
212,55,125530,6,0,B|162:87|155:134|155:134|109:112|46:149,1,200,6|2,0:0|0:0,0:0:0:0:
124,218,126684,2,0,P|156:257|163:307,1,100,8|2,0:0|0:0,0:0:0:0:
252,350,127453,1,8,0:0:0:0:
342,308,127838,2,0,P|349:259|381:221,1,100,0|8,0:0|0:0,0:0:0:0:
446,145,128607,1,0,0:0:0:0:
297,75,130145,6,0,P|245:61|185:77,1,100,6|8,0:0|0:0,0:0:0:0:
239,161,130915,2,0,P|187:170|139:216,1,100,0|8,0:0|0:0,0:0:0:0:
231,256,131684,6,0,P|202:303|201:347,1,100,2|8,0:0|0:0,0:0:0:0:
298,327,132453,2,0,P|345:347|404:338,1,100,0|8,0:0|0:0,0:0:0:0:
459,267,133222,6,0,P|412:247|353:256,1,100,6|8,0:0|0:0,0:0:0:0:
374,151,133991,2,0,P|325:155|268:210,1,100,0|10,0:0|0:0,0:0:0:0:
245,90,134761,6,0,P|200:117|181:192,1,100,0|0,0:0|0:0,0:0:0:0:
202,256,135530,2,0,L|220:312,2,50,2|2|0,0:0|0:0|0:0,0:0:0:0:
101,257,136299,1,4,0:0:0:0:
111,157,136684,2,0,P|47:171|21:193,2,100,0|2|0,0:0|0:0|0:0,0:0:0:0:
188,94,137838,6,0,P|261:77|293:54,2,100,0|0|0,0:0|0:0|0:0,0:0:0:0:
203,192,138991,1,2,0:0:0:0:
277,259,139376,2,0,B|314:208|295:158|295:158|392:107,1,200,8|2,0:0|0:0,0:0:0:0:
470,74,140530,1,0,0:0:0:0:
475,173,140915,6,0,L|374:232,1,100,2|8,0:0|0:0,0:0:0:0:
470,281,141684,2,0,L|372:337,1,100,0|8,0:0|0:0,0:0:0:0:
283,335,142453,2,0,L|292:388,2,50,6|0|8,0:0|0:0|0:0,0:0:0:0:
263,236,143222,2,0,B|232:216|256:160|224:128,1,100,2|10,0:0|0:0,0:0:0:0:
273,50,143991,6,0,P|197:53|165:71,1,100,0|8,0:0|0:0,0:0:0:0:
83,96,144761,1,0,0:0:0:0:
41,186,145145,1,8,0:0:0:0:
111,256,145530,2,0,B|190:292|190:292|266:290|295:226,1,200,4|2,0:0|0:0,0:0:0:0:
366,182,146684,2,0,L|385:117,1,50,8|0,0:0|0:0,0:0:0:0:
249,60,147453,5,0,0:0:0:0:
151,81,147838,1,0,0:0:0:0:
68,136,148222,1,2,0:0:0:0:
112,225,148607,2,0,P|48:235|0:210,2,100,4|0|8,0:0|0:0|0:0,0:0:0:0:
176,301,149761,2,0,L|236:318,1,50,2|0,0:0|0:0,0:0:0:0:
372,337,150530,5,0,0:0:0:0:
346,240,150915,2,0,L|323:164,1,50,8|0,0:0|0:0,0:0:0:0:
410,130,151491,2,0,L|424:177,1,50,0|4,0:0|0:0,0:0:0:0:
487,255,152068,1,0,0:0:0:0:
423,332,152453,1,8,0:0:0:0:
323,337,152838,2,0,L|260:338,1,50,2|0,0:0|0:0,0:0:0:0:
123,329,153607,5,0,0:0:0:0:
191,256,153991,2,0,L|159:183,1,50,8|0,0:0|0:0,0:0:0:0:
319,231,154761,2,0,B|394:216|394:216|437:93,1,200,4|8,0:0|0:0,0:0:0:0:
347,49,155915,1,2,0:0:0:0:
249,69,156299,6,0,B|174:84|174:84|131:207,1,200,2|8,0:0|0:0,0:0:0:0:
105,296,157453,1,2,0:0:0:0:
202,318,157838,2,0,P|275:316|316:300,2,100,4|0|8,0:0|0:0|0:0,0:0:0:0:
105,296,158991,2,0,L|104:230,1,50,0|0,0:0|0:0,0:0:0:0:
67,152,159568,6,0,L|66:71,1,50,2|0,0:0|0:0,0:0:0:0:
163,76,160145,1,8,0:0:0:0:
253,118,160530,1,2,0:0:0:0:
334,59,160915,2,0,L|439:137,1,100,4|0,0:0|0:0,0:0:0:0:
497,174,161684,1,8,0:0:0:0:
435,253,162068,2,0,L|458:305,2,50,2|2|4,0:0|0:0|0:0,0:0:0:0:
347,203,162838,6,0,P|281:189|239:208,1,100,0|8,0:0|0:0,0:0:0:0:
296,288,163607,2,0,L|185:339,1,100,0|4,0:0|0:0,0:0:0:0:
108,356,164376,2,0,P|107:293|152:253,1,100,2|8,0:0|0:0,0:0:0:0:
218,222,165145,1,0,0:0:0:0:
313,192,165530,6,0,P|380:178|424:124,1,100,4|0,0:0|0:0,0:0:0:0:
473,87,166299,1,8,0:0:0:0:
383,41,166684,1,0,0:0:0:0:
285,62,167068,6,0,B|215:74|215:74|169:129|73:90,1,200,4|8,0:0|0:0,0:0:0:0:
41,182,168222,1,2,0:0:0:0:
83,272,168607,2,0,B|106:349|149:333|149:333|176:367|262:291,1,200,0|8,0:0|0:0,0:0:0:0:
321,261,169761,1,0,0:0:0:0:
398,198,170145,6,0,B|418:138|418:138|479:101|479:101|504:15,2,200,4|8|0,0:0|0:0|0:0,0:0:0:0:
320,261,172068,1,0,0:0:0:0:
231,215,172453,1,0,0:0:0:0:
232,315,172838,1,0,0:0:0:0:
132,314,173222,6,0,P|48:262|56:149,1,200,2|10,0:0|0:0,0:0:0:0:
133,214,174376,1,8,0:0:0:0:
256,192,174761,12,4,176299,0:0:0:0:
460,53,188607,6,0,P|416:121|303:101,1,200,4|2,0:0|0:0,0:0:0:0:
216,68,189760,2,0,B|122:106|122:106|51:188,1,200,8|2,0:0|0:0,0:0:0:0:
46,280,190914,6,0,P|111:349|228:321,1,200,0|0,0:0|0:0,0:0:0:0:
146,259,192068,2,0,P|208:185|310:200,1,200,0|2,0:0|0:0,0:0:0:0:
251,280,193222,6,0,B|343:318|343:318|448:296,1,200,4|2,0:0|0:0,0:0:0:0:
470,201,194376,2,0,P|377:182|347:77,1,200,4|0,0:0|0:0,0:0:0:0:
244,76,195530,6,0,P|194:62|126:87,2,100,0|0|0,0:0|0:0|0:0,0:0:0:0:
190,160,196683,2,0,L|179:277,1,100,6|2,0:0|0:0,0:0:0:0:
168,359,197453,1,8,0:0:0:0:
74,324,197837,6,0,B|29:261|29:261|45:129,1,200,4|8,0:0|0:0,0:0:0:0:
122,77,198991,2,0,P|208:124|305:74,1,200,8|0,0:0|0:0,0:0:0:0:
393,67,200145,6,0,P|446:75|476:113,2,100,2|0|8,0:0|0:0|0:0,0:0:0:0:
394,167,201299,2,0,L|345:262,1,100,0|2,0:0|0:0,0:0:0:0:
301,344,202068,1,8,0:0:0:0:
202,323,202453,6,0,P|135:308|84:328,2,100,4|0|2,0:0|0:0|0:0,0:0:0:0:
301,344,203607,1,2,0:0:0:0:
398,324,203991,2,0,L|431:200,1,100,0|2,0:0|0:0,0:0:0:0:
449,130,204760,5,0,0:0:0:0:
384,53,205145,1,2,0:0:0:0:
309,119,205530,1,0,0:0:0:0:
256,192,205914,12,0,207837,0:0:0:0:
76,89,208606,6,0,P|125:82|170:104,1,100,0|0,0:0|0:0,0:0:0:0:
261,143,209375,2,0,L|350:68,1,100,4|8,0:0|0:0,0:0:0:0:
434,109,210144,2,0,L|353:182,1,100,0|10,0:0|0:0,0:0:0:0:
282,239,210913,5,8,0:0:0:0:
323,330,211298,1,10,0:0:0:0:
403,270,211683,2,0,P|458:222|420:100,1,200,10|6,0:1|0:0,0:0:0:0:
335,87,212837,2,0,L|266:73,1,50,8|2,0:0|0:0,0:0:0:0:
232,161,213413,2,0,L|165:147,1,50,2|10,0:0|0:0,0:0:0:0:
96,201,213990,5,0,0:0:0:0:
137,292,214375,2,0,P|65:296|28:273,2,100,8|2|8,0:0|0:0|0:0,0:0:0:0:
223,240,215529,2,0,B|270:284|314:269|314:269|347:298|427:271,1,200,6|2,0:0|0:0,0:0:0:0:
476,202,216683,1,8,0:0:0:0:
462,103,217067,2,0,P|427:36|337:31,2,150,0|0|0,0:0|0:0|0:0,0:0:0:0:
256,192,218606,12,10,220144,0:0:0:0:
193,324,220913,6,0,L|299:306,1,100,2|10,0:0|0:0,0:0:0:0:
390,326,221683,2,0,P|377:250|351:227,1,100,4|8,0:0|0:0,0:0:0:0:
271,194,222452,2,0,L|245:69,1,100,0|8,0:0|0:0,0:0:0:0:
345,63,223221,6,0,P|412:66|457:108,2,100,2|8|0,0:0|0:0|0:0,0:0:0:0:
244,66,224375,1,10,0:0:0:0:
208,159,224760,2,0,P|156:241|133:244,1,100,6|8,0:0|0:0,0:0:0:0:
109,153,225529,1,0,0:0:0:0:
63,241,225913,1,8,0:0:0:0:
114,326,226298,6,0,P|166:338|248:304,1,100,2|8,0:0|0:0,0:0:0:0:
307,302,227067,1,0,0:0:0:0:
237,230,227452,1,8,0:0:0:0:
335,213,227837,2,0,B|394:235|401:285|401:285|477:271|479:182,1,200,6|0,0:0|0:0,0:0:0:0:
489,128,228990,1,8,0:0:0:0:
388,126,229375,6,0,P|337:112|272:136,1,100,2|8,0:0|0:0,0:0:0:0:
224,196,230144,2,0,P|185:237|129:244,1,100,2|8,0:0|0:0,0:0:0:0:
137,145,230913,1,4,0:0:0:0:
226,100,231298,2,0,L|221:38,2,50,10|0|2,0:0|0:0|0:0,0:0:0:0:
326,97,232067,1,10,0:0:0:0:
408,154,232452,6,0,L|455:118,2,50,2|2|10,0:0|0:0|0:0,0:0:0:0:
422,253,233221,2,0,L|330:322,1,100,10|10,0:0|0:0,0:0:0:0:
243,328,233990,2,0,P|161:335|128:313,1,100,10|10,0:0|0:0,0:0:0:0:
96,242,234760,2,0,P|162:233|198:249,1,100,10|10,0:0|0:0,0:0:0:0:
256,192,235529,12,4,237067,0:0:0:0:
336,61,237837,6,0,P|285:48|218:68,1,100,10|8,0:0|0:0,0:0:0:0:
282,146,238606,1,4,0:0:0:0:
365,327,239375,1,0,0:0:0:0:
215,335,239952,6,0,B|164:336|164:336|110:323|106:243,1,150,0|0,0:0|0:0,0:0:0:0:
82,165,240913,1,0,0:0:0:0:
259,73,241683,2,0,P|303:51|365:57,2,100,0|0|0,0:0|0:0|0:0,0:0:0:0:
82,165,243221,6,0,P|102:213|185:238,1,100,0|0,0:0|0:0,0:0:0:0:
238,261,243990,2,0,P|286:258|347:293,1,100,0|0,0:0|0:0,0:0:0:0:
431,294,244760,2,0,P|450:230|492:208,2,100,4|0|8,0:0|0:0|0:0,0:0:0:0:
289,344,246106,6,0,B|277:297|293:271|293:271|276:242|286:175,1,150,2|0,0:0|0:0,0:0:0:0:
351,124,247067,2,0,L|392:85,2,50,8|2|2,0:0|0:0|0:0,0:0:0:0:
257,83,247837,1,4,0:0:0:0:
157,92,248221,2,0,L|65:167,1,100,0|0,0:0|0:0,0:0:0:0:
41,247,248990,1,0,0:0:0:0:
137,273,249375,6,0,P|202:303|221:353,1,100
312,347,250144,2,0,L|390:266,1,100,2|0,0:0|0:0,0:0:0:0:
452,205,250913,2,0,P|459:133|441:102,1,100,0|2,0:0|0:0,0:0:0:0:
421,13,251683,2,0,P|364:47|351:80,1,100,0|2,0:0|0:0,0:0:0:0:
354,175,252452,6,0,P|299:160|266:116,1,100,4|8,0:0|0:0,0:0:0:0:
206,52,253221,2,0,P|178:95|173:161,1,100,2|8,0:0|0:0,0:0:0:0:
230,228,253990,2,0,B|307:291|307:291|365:267|431:303,1,200,0|2,0:0|0:0,0:0:0:0:
356,378,255144,1,8,0:0:0:0:
255,373,255529,6,0,L|174:306,1,100,6|8,0:0|0:0,0:0:0:0:
99,246,256298,1,2,0:0:0:0:
74,148,256683,1,8,0:0:0:0:
148,81,257067,2,0,B|205:62|205:62|243:84|243:84|303:94|360:46,1,200,2|2,0:0|0:0,0:0:0:0:
425,107,258221,1,8,0:0:0:0:
439,205,258606,6,0,P|414:262|374:280,1,100,6|10,0:0|0:0,0:0:0:0:
284,297,259375,2,0,P|219:298|174:329,2,100,2|8|0,0:0|0:0|0:0,0:0:0:0:
378,329,260529,2,0,P|377:263|351:227,1,100,10|2,0:0|0:0,0:0:0:0:
265,202,261298,1,8,0:0:0:0:
166,185,261683,6,0,P|84:148|157:72,1,200,2|2,0:0|0:0,0:0:0:0:
222,39,262837,1,8,0:0:0:0:
321,48,263221,2,0,L|365:173,1,100,2|8,0:0|0:0,0:0:0:0:
452,124,263990,2,0,L|446:249,1,100,2|8,0:0|0:0,0:0:0:0:
371,290,264760,1,2,0:0:0:0:
121,88,266298,6,0,P|153:26|200:13,1,100,6|8,0:0|0:0,0:0:0:0:
215,107,267067,2,0,P|283:91|323:119,1,100,2|8,0:0|0:0,0:0:0:0:
265,194,267837,6,0,P|320:236|325:284,1,100,2|8,0:0|0:0,0:0:0:0:
230,288,268606,2,0,P|233:357|199:392,1,100,0|8,0:0|0:0,0:0:0:0:
136,319,269375,6,0,P|126:270|148:227,1,100,6|8,0:0|0:0,0:0:0:0:
64,172,270144,2,0,P|94:133|142:122,1,100,0|10,0:0|0:0,0:0:0:0:
130,23,270913,2,0,P|179:21|218:51,1,100,0|2,0:0|0:0,0:0:0:0:
307,96,271683,2,0,L|388:91,2,50,8|0|2,0:0|0:0|0:0,0:0:0:0:
354,184,272452,6,0,L|405:289,1,100,4|2,0:0|0:0,0:0:0:0:
328,345,273221,2,0,L|280:249,1,100,2|2,0:0|0:0,0:0:0:0:
183,265,273990,2,0,P|143:300|58:286,2,100,0|2|0,0:0|0:0|0:0,0:0:0:0:
103,203,275144,1,2,0:0:0:0:
25,139,275529,6,0,P|81:101|132:109,1,100,4|2,0:0|0:0,0:0:0:0:
211,106,276298,2,0,L|330:53,1,100,2|2,0:0|0:0,0:0:0:0:
401,54,277067,2,0,P|410:117|461:147,1,100,0|8,0:0|0:0,0:0:0:0:
464,235,277837,2,0,L|468:326,2,50,2|2|8,0:0|0:0|0:0,0:0:0:0:
363,231,278606,6,0,P|306:193|303:144,1,100,4|2,0:0|0:0,0:0:0:0:
242,83,279375,2,0,P|168:77|130:110,1,100,2|2,0:0|0:0,0:0:0:0:
63,141,280144,2,0,B|108:202|93:235|93:235|136:243|180:324,1,200,2|4,0:0|0:0,0:0:0:0:
256,337,281298,1,2,0:0:0:0:
354,322,281683,6,0,P|401:305|428:236,2,100,4|0|2,0:0|0:0|0:0,0:0:0:0:
333,223,282837,1,0,0:0:0:0:
233,215,283221,2,0,L|233:86,1,100,2|8,0:0|0:0,0:0:0:0:
288,31,283990,2,0,P|330:70|328:118,1,100
333,210,284760,6,0,P|344:264|373:286,2,75,0|8|8,0:0|0:0|0:0,0:0:0:0:
381,196,285529,1,12,0:0:0:0:
