osu file format v12

[General]
AudioFilename: ave;new feat. Sakura Saori - Pist SMILE NonstoP!! ~Kagayake Ashita no Star Daisakusen~ (Short Ver.).mp3
AudioLeadIn: 1000
PreviewTime: 52993
Countdown: 0
SampleSet: Normal
StackLeniency: 0.6
Mode: 0
LetterboxInBreaks: 0

[Editor]
DistanceSpacing: 1
BeatDivisor: 4
GridSize: 4

[Metadata]
Title:Piste SMILE Non-stop!!
TitleUnicode:Piste SMILE Non-stop!!
Artist:ave;new feat. Sakura Saori
ArtistUnicode:ave;new feat. Sakura Saori
Creator:Andrea
Version:Insane
Source:PistStar
Tags:osuplayer111 Darksonic Saten-san Kagayake Ashina no Star Dai Sakusen
BeatmapID:261729
BeatmapSetID:98038

[Difficulty]
HPDrainRate:7
CircleSize:4
OverallDifficulty:8
ApproachRate:9
SliderMultiplier:1.6
SliderTickRate:1

[Events]
//Background and Video events
0,0,"PistStar.jpg",0,0
//Break Periods
//Storyboard Layer 0 (Background)
//Storyboard Layer 1 (Fail)
//Storyboard Layer 2 (Pass)
//Storyboard Layer 3 (Foreground)
//Storyboard Sound Samples
//Background Colour Transformations
3,100,255,255,255

[TimingPoints]
1060,283.018867924528,4,1,1,50,1,0
7569,-100,4,1,2,50,0,0
7640,-100,4,1,1,50,0,0
16626,-100,4,1,2,50,0,0
16696,-100,4,1,1,50,0,0
16909,-100,4,2,1,65,0,0
25682,-100,4,1,2,50,0,0
26107,-100,4,2,1,65,0,0
34456,-100,4,1,2,50,0,0
35022,-133.333333333333,4,2,1,65,0,0
35163,-133.333333333333,4,2,1,50,0,0
42946,-133.333333333333,4,1,2,50,0,0
44078,-100,4,1,1,50,0,0
52852,-100,4,1,2,50,0,0
53135,-100,4,1,1,50,0,1
61909,-100,4,1,2,50,0,1
62121,-100,4,1,1,50,0,0
62192,-100,4,1,1,50,0,1
71248,-100,4,1,1,50,0,0
80022,-100,4,1,2,50,0,0
80305,-100,4,1,1,50,0,0
84550,-100,4,1,2,50,0,0
84833,-100,4,1,1,50,0,0
89078,-100,4,1,2,50,0,0
89361,-100,4,1,1,50,0,0

[Colours]
Combo1 : 170,227,255
Combo2 : 255,255,170

[HitObjects]
56,144,1060,1,4,0:0:0:0:
104,80,1201,1,0,0:0:0:0:
184,80,1343,2,0,P|256:109|328:80,1,160,2|4,0:0|0:0,0:0:0:0:
408,80,1767,1,0,0:0:0:0:
456,144,1909,2,0,B|456:220|456:220|408:288,1,160,2|4,0:0|0:0,0:0:0:0:
356,348,2333,1,0,0:0:0:0:
296,292,2475,1,2,0:0:0:0:
216,292,2616,1,0,0:0:0:0:
156,348,2758,5,4,0:0:0:0:
144,332,2828,1,0,0:0:0:0:
132,316,2899,1,0,0:0:0:0:
120,300,2970,1,0,0:0:0:0:
108,284,3041,1,2,0:0:0:0:
96,268,3111,1,0,0:0:0:0:
84,252,3182,1,0,0:0:0:0:
72,236,3253,1,0,0:0:0:0:
60,220,3324,6,0,P|60:180|80:144,1,80,4|0,0:0|0:0,0:0:0:0:
124,80,3607,1,8,0:0:0:0:
188,128,3748,2,0,B|256:170|256:170|324:128,1,160,2|0,0:0|0:0,0:0:0:0:
388,80,4173,1,8,0:0:0:0:
440,140,4314,2,0,P|440:184|416:216,1,80,0|2,0:0|0:0,0:0:0:0:
372,280,4597,1,0,0:0:0:0:
360,296,4668,1,0,0:0:0:0:
348,312,4739,6,0,P|308:312|272:328,1,80,8|0,0:0|0:0,0:0:0:0:
196,348,5022,2,0,P|116:348|56:296,1,160,2|8,0:0|0:0,0:0:0:0:
56,274,5376,1,0,0:0:0:0:
56,250,5446,1,0,0:0:0:0:
56,226,5517,1,0,0:0:0:0:
56,202,5588,6,0,P|97:203|128:176,1,80,4|0,0:0|0:0,0:0:0:0:
68,124,5871,1,8,0:0:0:0:
120,64,6012,2,0,B|168:64|168:64|220:92|220:92|272:92,1,160,2|0,0:0|0:0,0:0:0:0:
352,92,6437,1,8,0:0:0:0:
376,92,6508,1,0,0:0:0:0:
400,92,6578,6,0,B|440:92|440:92|472:120,1,80,2|0,0:0|0:0,0:0:0:0:
504,192,6861,1,0,0:0:0:0:
472,264,7003,1,8,0:0:0:0:
456,276,7074,1,0,0:0:0:0:
440,288,7144,1,0,0:0:0:0:
424,300,7215,1,0,0:0:0:0:
408,312,7286,2,0,P|368:312|332:332,1,80,2|0,0:0|0:0,0:0:0:0:
256,356,7569,6,0,P|176:356|116:304,1,160,8|4,0:0|0:0,0:0:0:0:
72,240,7993,2,0,P|44:208|44:168,1,80,0|8,0:0|0:0,0:0:0:0:
124,180,8276,1,0,0:0:0:0:
124,100,8418,2,0,B|164:100|164:100|200:72,1,80,2|0,0:0|0:0,0:0:0:0:
256,24,8701,1,8,0:0:0:0:
316,75,8843,2,0,B|348:100|348:100|388:100,1,80,0|2,0:0|0:0,0:0:0:0:
388,180,9126,1,0,0:0:0:0:
469,172,9267,2,0,P|468:208|440:240,1,80,8|0,0:0|0:0,0:0:0:0:
256,344,9692,1,2,0:0:0:0:
256,344,9833,1,8,0:0:0:0:
144,232,10116,6,0,L|88:172,1,80,2|0,0:0|0:0,0:0:0:0:
176,140,10399,2,0,L|140:64,1,80,8|0,0:0|0:0,0:0:0:0:
256,104,10682,2,0,L|256:20,1,80,2|0,0:0|0:0,0:0:0:0:
336,140,10965,2,0,L|372:64,1,80,8|0,0:0|0:0,0:0:0:0:
368,232,11248,2,0,L|424:172,1,80,2|0,0:0|0:0,0:0:0:0:
296,292,11531,1,8,0:0:0:0:
216,292,11673,1,0,0:0:0:0:
256,224,11814,5,2,0:0:0:0:
256,204,11885,1,0,0:0:0:0:
256,184,11956,1,0,0:0:0:0:
256,164,12026,1,0,0:0:0:0:
256,144,12097,1,8,0:0:0:0:
256,124,12168,1,0,0:0:0:0:
256,104,12239,1,0,0:0:0:0:
256,84,12309,1,0,0:0:0:0:
256,64,12380,6,0,L|168:64,1,80,4|0,0:0|0:0,0:0:0:0:
96,64,12663,1,8,0:0:0:0:
256,320,12805,2,0,L|344:320,1,80,0|2,0:0|0:0,0:0:0:0:
416,320,13088,1,0,0:0:0:0:
160,192,13229,2,0,L|80:192,1,80,8|0,0:0|0:0,0:0:0:0:
352,192,13512,2,0,L|432:192,1,80,2|0,0:0|0:0,0:0:0:0:
256,192,13795,1,8,0:0:0:0:
256,192,13937,1,4,0:0:0:0:
256,64,14220,5,2,0:0:0:0:
336,64,14361,1,8,0:0:0:0:
352,84,14432,1,0,0:0:0:0:
368,104,14503,1,0,0:0:0:0:
384,124,14574,1,0,0:0:0:0:
400,144,14644,6,0,P|440:144|472:168,1,80,4|0,0:0|0:0,0:0:0:0:
476,248,14927,1,8,0:0:0:0:
488,328,15069,2,0,P|448:328|416:304,1,80,0|2,0:0|0:0,0:0:0:0:
356,356,15352,1,0,0:0:0:0:
306,293,15493,1,8,0:0:0:0:
256,356,15635,1,0,0:0:0:0:
176,356,15776,5,2,0:0:0:0:
164,340,15847,1,0,0:0:0:0:
152,324,15918,1,0,0:0:0:0:
140,308,15989,1,0,0:0:0:0:
128,292,16059,1,8,0:0:0:0:
116,276,16130,1,0,0:0:0:0:
104,260,16201,1,0,0:0:0:0:
92,244,16272,1,2,0:0:0:0:
48,184,16343,5,0,0:0:0:0:
64,172,16414,1,0,0:0:0:0:
80,160,16485,1,0,0:0:0:0:
96,148,16556,1,8,0:0:0:0:
112,136,16626,1,8,0:0:0:0:
128,124,16697,1,0,0:0:0:0:
144,112,16768,1,0,0:0:0:0:
160,100,16839,1,2,0:0:0:0:
176,88,16909,6,0,P|256:88|312:36,2,160,4|2|0,0:0|0:0|0:0,0:0:0:0:
112,40,17616,1,0,0:0:0:0:
32,40,17758,1,2,0:0:0:0:
8,116,17899,2,0,B|8:196|8:196|56:260,1,160
96,328,18324,1,2,0:0:0:0:
132,260,18465,2,0,P|172:260|208:284,1,80
276,244,18748,1,0,0:0:0:0:
348,208,18890,6,0,B|400:152|400:152|400:68,1,160,2|0,0:0|0:0,0:0:0:0:
320,72,19314,2,0,B|320:112|320:112|296:144,1,80,0|2,0:0|0:0,0:0:0:0:
192,72,19597,2,0,B|192:112|192:112|216:144,1,80
256,212,19880,1,0,0:0:0:0:
216,280,20022,2,0,L|180:352,1,80,2|0,0:0|0:0,0:0:0:0:
296,280,20305,2,0,L|332:352,1,80
256,212,20588,2,0,L|256:128,1,80,2|0,0:0|0:0,0:0:0:0:
192,72,20871,2,0,B|256:24|256:24|320:72,1,160,0|2,0:0|0:0,0:0:0:0:
256,132,21295,1,0,0:0:0:0:
256,212,21437,6,0,B|336:212|336:212|400:260,1,160,4|2,0:0|0:0,0:0:0:0:
460,204,21861,2,0,L|392:152,1,80
332,108,22144,1,0,0:0:0:0:
272,56,22286,1,2,0:0:0:0:
192,56,22427,2,0,P|112:56|56:112,1,160
56,188,22852,2,0,L|104:256,1,80,2|0,0:0|0:0,0:0:0:0:
144,324,23135,6,0,B|200:324|232:284|232:284|292:284,2,160,0|2|0,0:0|0:0|0:0,0:0:0:0:
104,252,23843,1,0,0:0:0:0:
172,212,23984,1,2,0:0:0:0:
172,132,24126,2,0,P|172:92|196:56,1,80
256,108,24409,1,0,0:0:0:0:
319,58,24550,2,0,P|340:92|340:132,1,80,2|0,0:0|0:0,0:0:0:0:
392,192,24833,1,4,0:0:0:0:
348,256,24975,6,0,B|348:296|348:296|324:332,1,80,0|2,0:0|0:0,0:0:0:0:
256,372,25258,1,0,0:0:0:0:
186,329,25399,2,0,B|164:296|164:296|164:256,1,80
256,256,25682,1,8,0:0:0:0:
256,232,25753,1,0,0:0:0:0:
256,208,25824,1,0,0:0:0:0:
256,184,25894,1,0,0:0:0:0:
256,160,25965,1,4,1:2:0:0:
188,116,26107,6,0,L|132:60,1,80,0|2,0:0|0:0,0:0:0:0:
256,80,26390,2,0,L|256:0,1,80
324,116,26673,2,0,L|380:60,1,80,0|2,0:0|0:0,0:0:0:0:
440,112,26956,2,0,B|384:168|384:168|384:248,1,160
324,300,27380,1,2,0:0:0:0:
256,340,27522,1,0,0:0:0:0:
188,300,27663,6,0,P|108:300|40:256,2,160,0|2|0,0:0|0:0|0:0,0:0:0:0:
188,220,28371,1,0,0:0:0:0:
256,180,28512,1,2,0:0:0:0:
324,220,28654,1,0,0:0:0:0:
368,152,28795,2,0,L|412:80,1,80
340,44,29078,1,2,0:0:0:0:
264,72,29220,6,0,B|208:72|208:72|172:104|172:104|116:104,1,160
52,152,29644,1,2,0:0:0:0:
52,232,29786,1,0,0:0:0:0:
116,280,29927,2,0,B|172:280|172:280|208:312|208:312|264:312,1,160,0|2,0:0|0:0,0:0:0:0:
336,348,30352,1,0,0:0:0:0:
416,348,30493,6,0,B|452:276|452:276|452:196,1,160,4|2,0:0|0:0,0:0:0:0:
400,136,30918,2,0,P|360:136|324:116,1,80
256,76,31201,1,0,0:0:0:0:
176,76,31343,1,2,0:0:0:0:
176,156,31484,2,0,B|176:236|176:236|128:304,1,160
196,348,31909,2,0,L|244:280,1,80,2|0,0:0|0:0,0:0:0:0:
312,320,32192,6,0,P|384:360|464:360,2,160,0|2|0,0:0|0:0|0:0,0:0:0:0:
312,240,32899,2,0,L|344:164,1,80,0|2,0:0|0:0,0:0:0:0:
256,152,33182,2,0,L|256:64,1,80
200,240,33465,2,0,L|168:164,1,80,0|2,0:0|0:0,0:0:0:0:
256,72,33890,5,0,0:0:0:0:
328,112,34031,1,0,0:0:0:0:
256,152,34173,1,2,0:0:0:0:
188,112,34314,1,0,0:0:0:0:
108,112,34456,5,0,0:0:0:0:
104,136,34526,1,0,0:0:0:0:
100,160,34597,1,0,0:0:0:0:
96,184,34668,1,0,0:0:0:0:
92,208,34739,1,0,0:0:0:0:
88,232,34809,1,8,0:0:0:0:
84,256,34880,1,0,0:0:0:0:
80,280,34951,1,0,0:0:0:0:
76,304,35022,6,0,P|124:344|184:344,1,120.000004577637,4|2,0:0|0:0,0:0:0:0:
256,320,35446,1,0,1:0:0:0:
332,345,35588,2,0,P|388:344|436:304,2,120.000004577637,0|2|0,1:0|0:0|1:0,0:0:0:0:
256,236,36437,1,2,0:0:0:0:
220,172,36578,1,0,1:0:0:0:
292,172,36720,2,0,P|340:136|340:80,1,120.000004577637,0|8,1:0|0:0,0:0:0:0:
172,80,37286,6,0,P|172:136|220:172,1,120.000004577637,2|0,1:2|0:0,0:0:0:0:
256,236,37710,1,0,1:0:0:0:
376,236,37993,1,0,0:0:0:0:
376,164,38135,2,0,B|425:129|425:129|485:129,1,120.000004577637,2|0,1:2|1:0,0:0:0:0:
484,60,38559,1,0,1:0:0:0:
420,28,38701,2,0,P|356:28|312:64,1,120.000004577637,2|4,0:0|1:0,0:0:0:0:
256,108,39126,1,0,0:0:0:0:
198,61,39267,6,0,P|156:28|92:28,2,120.000004577637,8|4|2,0:0|1:0|0:0,0:0:0:0:
256,108,39975,1,0,1:0:0:0:
204,160,40116,2,0,P|256:185|308:160,2,120.000004577637,0|2|0,1:0|0:0|1:0,0:0:0:0:
104,228,40965,1,2,0:0:0:0:
144,288,41107,6,0,P|168:344|220:372,1,120.000004577637
294,371,41531,2,0,P|344:344|368:288,2,120.000004577637,8|4|2,0:0|1:2|0:0,0:0:0:0:
256,312,42239,2,0,L|256:248,1,60.0000022888184,0|0,1:0|1:0,0:0:0:0:
256,72,42663,2,0,L|256:132,1,60.0000022888184,2|0,1:2|0:0,0:0:0:0:
184,132,42946,5,0,0:0:0:0:
180,132,43017,1,0,0:0:0:0:
176,132,43088,1,0,0:0:0:0:
172,132,43159,1,0,0:0:0:0:
168,132,43229,1,2,0:2:0:0:
164,132,43300,1,0,0:0:0:0:
160,132,43371,1,0,0:0:0:0:
156,132,43442,1,0,0:0:0:0:
152,132,43512,1,2,0:2:0:0:
148,132,43583,1,0,0:0:0:0:
144,132,43654,1,0,0:0:0:0:
140,132,43724,1,0,0:0:0:0:
136,132,43795,1,8,0:0:0:0:
132,132,43866,1,0,0:0:0:0:
128,132,43937,1,0,0:0:0:0:
124,132,44008,1,0,0:0:0:0:
120,132,44078,6,0,P|80:132|48:156,1,80,4|0,0:0|0:0,0:0:0:0:
32,232,44361,2,0,P|72:232|104:208,1,80,8|0,0:0|0:0,0:0:0:0:
160,264,44644,1,2,0:0:0:0:
216,320,44786,1,0,0:0:0:0:
296,320,44927,1,8,0:0:0:0:
352,264,45069,1,0,0:0:0:0:
408,209,45210,2,0,P|440:232|480:232,1,80,2|0,0:0|0:0,0:0:0:0:
463,154,45493,2,0,P|432:132|392:132,1,80,8|0,0:0|0:0,0:0:0:0:
364,56,45776,1,2,0:0:0:0:
296,12,45918,1,0,0:0:0:0:
216,12,46059,6,0,P|136:12|76:60,1,160,8|4,0:0|0:0,0:0:0:0:
36,128,46484,1,0,0:0:0:0:
84,192,46626,1,8,0:0:0:0:
36,256,46767,2,0,B|72:276|72:276|112:276,1,80,0|2,0:0|0:0,0:0:0:0:
180,316,47050,1,0,0:0:0:0:
256,344,47192,1,8,0:0:0:0:
332,316,47333,1,0,0:0:0:0:
401,276,47475,2,0,B|440:276|440:276|476:256,1,80,2|0,0:0|0:0,0:0:0:0:
428,192,47758,1,8,0:0:0:0:
476,128,47899,1,0,0:0:0:0:
436,60,48041,6,0,P|376:12|296:12,2,160,2|8|4,0:0|0:0|0:0,0:0:0:0:
476,128,48748,1,0,0:0:0:0:
428,192,48890,2,0,P|388:192|356:216,1,80,8|0,0:0|0:0,0:0:0:0:
416,268,49173,1,2,0:0:0:0:
256,112,49314,2,0,L|256:192,1,80,0|8,0:0|0:0,0:0:0:0:
256,272,49597,1,0,0:0:0:0:
84,192,49739,6,0,P|124:192|156:216,1,80,4|0,0:0|0:0,0:0:0:0:
96,268,50022,2,0,L|60:340,1,80,8|0,0:0|0:0,0:0:0:0:
452,340,50305,2,0,L|416:268,1,80,2|0,0:0|0:0,0:0:0:0:
380,196,50588,1,8,0:0:0:0:
368,176,50659,1,0,0:0:0:0:
356,156,50729,1,0,0:0:0:0:
344,136,50800,1,0,0:0:0:0:
332,116,50871,6,0,P|304:88|304:44,1,80,4|0,0:0|0:0,0:0:0:0:
180,116,51154,2,0,P|208:88|208:44,1,80,8|0,0:0|0:0,0:0:0:0:
256,164,51437,2,0,L|256:244,1,80,2|0,0:0|0:0,0:0:0:0:
204,304,51720,1,8,0:0:0:0:
180,304,51791,1,0,0:0:0:0:
156,304,51861,1,0,0:0:0:0:
132,304,51932,1,0,0:0:0:0:
108,304,52003,6,0,B|68:304|68:304|36:280,1,80,4|0,0:0|0:0,0:0:0:0:
36,200,52286,1,8,0:0:0:0:
88,140,52427,1,0,0:0:0:0:
140,80,52569,1,2,0:0:0:0:
164,80,52640,1,0,0:0:0:0:
188,80,52710,1,0,0:0:0:0:
212,80,52781,1,0,0:0:0:0:
236,80,52852,1,8,0:0:0:0:
260,80,52923,1,0,0:0:0:0:
284,80,52993,1,0,0:0:0:0:
308,80,53064,1,0,0:0:0:0:
332,80,53135,6,0,P|372:80|404:104,1,80,4|0,0:0|0:0,0:0:0:0:
403,281,53418,2,0,P|372:304|332:304,1,80,8|0,0:0|0:0,0:0:0:0:
180,304,53701,2,0,P|140:304|108:281,1,80,2|0,0:0|0:0,0:0:0:0:
108,102,53984,2,0,P|140:80|180:80,1,80,8|0,0:0|0:0,0:0:0:0:
208,156,54267,1,2,0:0:0:0:
256,220,54409,1,0,0:0:0:0:
304,156,54550,2,0,L|356:216,1,80,8|0,0:0|0:0,0:0:0:0:
208,156,54833,2,0,L|156:216,1,80,2|0,0:0|0:0,0:0:0:0:
256,220,55116,1,8,0:0:0:0:
308,280,55258,6,0,P|256:331|204:280,1,160,2|0,0:0|0:0,0:0:0:0:
256,220,55682,1,8,0:0:0:0:
208,156,55824,2,0,P|168:156|136:132,1,80,0|2,0:0|0:0,0:0:0:0:
304,156,56107,2,0,P|344:156|376:132,1,80,0|8,0:0|0:0,0:0:0:0:
316,80,56390,2,0,P|256:36|196:80,1,160,2|0,0:0|0:0,0:0:0:0:
195,80,56814,1,8,0:0:0:0:
256,348,57097,5,2,0:0:0:0:
196,296,57239,1,0,0:0:0:0:
136,244,57380,1,8,0:0:0:0:
120,232,57451,1,0,0:0:0:0:
104,220,57522,1,0,0:0:0:0:
88,208,57593,1,0,0:0:0:0:
72,196,57663,6,0,L|72:116,1,80,4|0,0:0|0:0,0:0:0:0:
72,36,57946,1,8,0:0:0:0:
140,76,58088,1,0,0:0:0:0:
208,116,58229,2,0,B|288:116|288:116|352:64,2,160,2|8|2,0:0|0:0|0:0,0:0:0:0:
264,36,58937,2,0,L|372:160,2,160,2|2|2,0:0|0:0|0:0,0:0:0:0:
264,36,59644,1,8,0:0:0:0:
336,236,59927,6,0,L|388:296,1,80,2|0,0:0|0:0,0:0:0:0:
176,236,60210,2,0,L|124:296,1,80,8|0,0:0|0:0,0:0:0:0:
256,296,60493,2,0,L|256:212,1,80,2|0,0:0|0:0,0:0:0:0:
216,148,60776,1,8,0:0:0:0:
296,148,60918,1,0,0:0:0:0:
296,68,61059,5,2,1:0:0:0:
292,68,61130,1,0,0:0:0:0:
288,68,61201,1,0,0:0:0:0:
284,68,61272,1,0,0:0:0:0:
280,68,61342,1,8,0:0:0:0:
276,68,61413,1,0,0:0:0:0:
272,68,61484,1,0,0:0:0:0:
268,68,61555,1,0,0:0:0:0:
264,68,61625,1,0,0:0:0:0:
260,68,61696,1,0,0:0:0:0:
256,68,61767,1,0,0:0:0:0:
252,68,61837,1,0,0:0:0:0:
248,68,61908,1,8,0:0:0:0:
244,68,61979,1,0,0:0:0:0:
240,68,62050,1,0,0:0:0:0:
236,68,62121,1,0,0:0:0:0:
232,68,62191,6,0,P|192:68|160:92,1,80,4|0,0:0|0:0,0:0:0:0:
108,152,62475,1,8,0:0:0:0:
108,232,62616,1,0,0:0:0:0:
160,296,62758,2,0,P|192:320|216:352,1,80,2|0,0:0|0:0,0:0:0:0:
352,296,63041,2,0,P|320:320|296:352,1,80,8|0,0:0|0:0,0:0:0:0:
256,280,63324,2,0,L|256:196,1,80,2|0,0:0|0:0,0:0:0:0:
304,132,63607,1,8,0:0:0:0:
256,68,63748,1,0,0:0:0:0:
208,132,63890,2,0,P|168:132|136:108,1,80,2|0,0:0|0:0,0:0:0:0:
84,48,64173,1,8,0:0:0:0:
24,100,64314,6,0,B|24:180|24:180|76:240,1,160,2|0,0:0|0:0,0:0:0:0:
12,288,64739,2,0,L|72:356,1,80,8|0,0:0|0:0,0:0:0:0:
132,304,65022,1,2,0:0:0:0:
200,344,65163,1,0,0:0:0:0:
280,344,65305,1,8,0:0:0:0:
348,304,65446,2,0,P|428:296|472:232,1,160,2|0,0:0|0:0,0:0:0:0:
471,148,65871,2,0,P|428:88|348:80,1,160,8|0,0:0|0:0,0:0:0:0:
324,156,66295,1,2,0:0:0:0:
324,156,66437,2,0,P|281:156|249:136,1,80,8|0,0:0|0:0,0:0:0:0:
188,84,66720,6,0,P|148:84|116:112,1,80,4|0,0:0|0:0,0:0:0:0:
52,152,67003,1,8,0:0:0:0:
52,232,67144,1,0,0:0:0:0:
118,275,67286,2,0,P|148:300|188:300,1,80,2|0,0:0|0:0,0:0:0:0:
256,256,67569,1,8,0:0:0:0:
393,275,67710,2,0,P|364:300|324:300,1,80,0|4,0:0|0:0,0:0:0:0:
336,220,67993,1,0,0:0:0:0:
400,172,68135,1,8,0:0:0:0:
400,92,68276,2,0,P|372:24|296:28,1,160,2|0,0:0|0:0,0:0:0:0:
216,28,68701,6,0,P|140:24|112:92,1,160,8|4,0:0|0:0,0:0:0:0:
112,172,69126,1,0,0:0:0:0:
176,220,69267,1,8,0:0:0:0:
216,288,69409,2,0,L|216:372,1,80,0|2,0:0|0:0,0:0:0:0:
296,368,69692,2,0,L|296:288,1,80,0|8,0:0|0:0,0:0:0:0:
336,220,69975,1,0,0:0:0:0:
348,204,70045,1,0,0:0:0:0:
360,188,70116,1,2,0:0:0:0:
408,124,70258,6,0,P|448:124|476:96,1,80,0|8,0:0|0:0,0:0:0:0:
412,48,70541,1,0,0:0:0:0:
332,48,70682,1,8,0:0:0:0:
308,48,70753,1,0,0:0:0:0:
284,48,70824,1,0,0:0:0:0:
260,48,70894,1,0,0:0:0:0:
236,48,70965,1,8,0:0:0:0:
212,48,71036,1,0,0:0:0:0:
188,48,71107,1,0,0:0:0:0:
164,48,71177,1,0,0:0:0:0:
140,48,71248,6,0,B|100:48|100:48|64:72,1,80,4|0,0:0|0:0,0:0:0:0:
128,124,71531,1,8,0:0:0:0:
68,176,71673,1,0,0:0:0:0:
68,256,71814,1,2,0:0:0:0:
128,312,71956,1,0,0:0:0:0:
208,312,72097,1,8,0:0:0:0:
276,352,72239,1,0,0:0:0:0:
300,352,72309,1,0,0:0:0:0:
324,352,72380,5,2,0:0:0:0:
348,352,72451,1,0,0:0:0:0:
372,352,72522,2,0,B|412:352|412:352|444:328,1,80,0|8,0:0|0:0,0:0:0:0:
444,248,72805,2,0,B|444:168|444:168|400:100,1,160,0|2,0:0|0:0,0:0:0:0:
340,48,73229,1,8,0:0:0:0:
324,64,73300,1,0,0:0:0:0:
308,80,73371,1,0,0:0:0:0:
292,96,73442,1,0,0:0:0:0:
276,112,73512,6,0,L|192:112,1,80,4|0,0:0|0:0,0:0:0:0:
44,192,73795,2,0,L|124:192,1,80,8|0,0:0|0:0,0:0:0:0:
276,272,74078,2,0,L|192:272,1,80,4|0,0:0|0:0,0:0:0:0:
196,352,74361,1,8,0:0:0:0:
120,376,74503,1,0,0:0:0:0:
44,352,74644,1,2,0:0:0:0:
44,272,74786,1,0,0:0:0:0:
44,192,74927,1,8,0:0:0:0:
124,192,75069,6,0,P|200:192|256:136,1,160,2|2,0:0|0:0,0:0:0:0:
256,56,75493,1,8,0:0:0:0:
280,56,75564,1,0,0:0:0:0:
304,56,75635,1,0,0:0:0:0:
328,56,75706,1,0,0:0:0:0:
352,56,75776,6,0,P|392:56|428:76,1,80,4|0,0:0|0:0,0:0:0:0:
426,309,76059,2,0,P|392:328|352:328,1,80,8|0,0:0|0:0,0:0:0:0:
344,176,76343,2,0,L|369:253,1,80,2|0,0:0|0:0,0:0:0:0:
168,176,76626,2,0,L|143:253,1,80,8|0,0:0|0:0,0:0:0:0:
256,328,76909,2,0,L|256:236,1,80,2|0,0:0|0:0,0:0:0:0:
256,168,77192,1,8,0:0:0:0:
204,108,77333,6,0,P|256:58|308:108,1,160,2|0,0:0|0:0,0:0:0:0:
256,168,77758,1,8,0:0:0:0:
256,192,77828,1,0,0:0:0:0:
256,216,77899,1,0,0:0:0:0:
256,240,77970,1,0,0:0:0:0:
256,264,78041,6,0,P|296:264|328:288,1,80,4|0,0:0|0:0,0:0:0:0:
256,340,78324,2,0,P|216:340|184:316,1,80,8|0,0:0|0:0,0:0:0:0:
124,268,78607,1,2,0:0:0:0:
96,192,78748,1,0,0:0:0:0:
124,116,78890,2,0,P|164:116|192:88,1,80,8|0,0:0|0:0,0:0:0:0:
256,40,79173,5,2,0:0:0:0:
280,40,79243,1,0,0:0:0:0:
304,40,79314,1,0,0:0:0:0:
328,40,79385,1,0,0:0:0:0:
352,40,79456,1,8,0:0:0:0:
376,40,79526,1,0,0:0:0:0:
400,40,79597,2,0,P|456:92|432:164,1,160,2|0,0:0|0:0,0:0:0:0:
380,224,80022,1,8,0:0:0:0:
368,240,80093,1,0,0:0:0:0:
356,256,80163,1,0,0:0:0:0:
344,272,80234,1,0,0:0:0:0:
332,288,80305,6,0,P|316:324|280:344,1,80,4|0,0:0|0:0,0:0:0:0:
220,292,80588,1,8,0:0:0:0:
140,304,80729,2,0,P|56:304|0:256,1,160,2|0,0:0|0:0,0:0:0:0:
48,192,81154,1,8,0:0:0:0:
0,127,81295,2,0,P|56:80|140:80,1,160,2|0,0:0|0:0,0:0:0:0:
200,136,81720,1,8,0:0:0:0:
256,80,81861,1,0,0:0:0:0:
312,136,82003,6,0,B|392:136|392:136|456:184,1,160,2|8,0:0|0:0,0:0:0:0:
460,208,82357,1,0,0:0:0:0:
460,232,82427,1,0,0:0:0:0:
460,256,82498,1,0,0:0:0:0:
460,280,82569,6,0,P|440:316|408:336,1,80,2|0,0:0|0:0,0:0:0:0:
328,340,82852,1,8,0:0:0:0:
256,308,82993,2,0,P|176:308|112:264,1,160,2|0,0:0|0:0,0:0:0:0:
52,208,83418,1,8,0:0:0:0:
52,184,83489,1,0,0:0:0:0:
52,160,83559,1,0,0:0:0:0:
52,80,83701,1,2,0:0:0:0:
112,28,83843,1,0,0:0:0:0:
192,28,83984,5,8,0:0:0:0:
192,52,84055,1,0,0:0:0:0:
192,76,84126,1,0,0:0:0:0:
192,100,84196,1,0,0:0:0:0:
192,124,84267,1,2,0:0:0:0:
256,172,84409,1,0,0:0:0:0:
320,124,84550,1,8,0:0:0:0:
320,100,84621,1,0,0:0:0:0:
320,76,84691,1,0,0:0:0:0:
320,52,84762,1,0,0:0:0:0:
320,28,84833,5,4,0:0:0:0:
400,28,84975,1,0,0:0:0:0:
460,80,85116,1,8,0:0:0:0:
460,160,85258,2,0,B|460:240|460:240|408:300,1,160,2|0,0:0|0:0,0:0:0:0:
340,344,85682,1,8,0:0:0:0:
328,264,85824,2,0,P|248:264|188:320,1,160,2|0,0:0|0:0,0:0:0:0:
176,336,86177,1,0,0:0:0:0:
160,356,86248,1,8,0:0:0:0:
88,320,86390,5,0,0:0:0:0:
128,252,86531,2,0,P|72:196|72:120,1,160,2|8,0:0|0:0,0:0:0:0:
116,52,86956,1,0,0:0:0:0:
140,52,87026,1,0,0:0:0:0:
164,52,87097,6,0,P|204:52|240:72,1,80,2|0,0:0|0:0,0:0:0:0:
288,132,87380,1,8,0:0:0:0:
368,132,87522,2,0,P|448:132|496:72,1,160,2|0,0:0|0:0,0:0:0:0:
428,32,87946,1,8,0:0:0:0:
404,32,88017,1,0,0:0:0:0:
380,32,88088,1,0,0:0:0:0:
300,32,88229,1,2,0:0:0:0:
220,32,88371,1,0,0:0:0:0:
204,48,88442,1,0,0:0:0:0:
188,64,88512,1,8,0:0:0:0:
172,80,88583,1,0,0:0:0:0:
156,96,88654,6,0,P|112:96|80:116,1,80,0|2,0:0|0:0,0:0:0:0:
24,168,88937,1,0,0:0:0:0:
100,192,89078,1,8,0:0:0:0:
112,212,89149,1,0,0:0:0:0:
124,232,89220,1,0,0:0:0:0:
136,252,89291,1,0,0:0:0:0:
148,272,89361,6,0,P|188:272|220:296,1,80,4|0,0:0|0:0,0:0:0:0:
268,360,89644,1,8,0:0:0:0:
320,300,89786,2,0,P|400:300|456:244,1,160,4|0,0:0|0:0,0:0:0:0:
452,168,90210,1,8,0:0:0:0:
436,148,90281,1,0,0:0:0:0:
416,128,90352,2,0,P|376:128|344:104,1,80,0|2,0:0|0:0,0:0:0:0:
96,128,90635,2,0,P|136:128|168:104,1,80,0|2,2:0|2:0,0:0:0:0:
256,36,90918,6,0,L|256:116,1,80,0|2,2:0|0:0,0:0:0:0:
256,140,91130,1,0,0:0:0:0:
256,164,91201,1,0,0:0:0:0:
256,188,91272,1,0,0:0:0:0:
256,212,91343,1,0,0:0:0:0:
256,236,91413,1,8,0:0:0:0:
256,260,91484,1,0,0:0:0:0:
256,284,91555,1,0,0:0:0:0:
256,308,91626,6,0,B|288:332|288:332|328:332,1,80,4|0,0:0|0:0,0:0:0:0:
408,332,91909,2,0,B|448:332|448:332|480:308,1,80,8|0,0:0|0:0,0:0:0:0:
432,244,92192,1,2,0:0:0:0:
416,224,92262,1,0,0:0:0:0:
400,204,92333,1,0,0:0:0:0:
384,184,92404,1,0,0:0:0:0:
368,164,92475,1,8,0:0:0:0:
352,144,92545,1,0,0:0:0:0:
336,124,92616,1,4,0:0:0:0:
