osu file format v12

[General]
AudioFilename: overtone.mp3
AudioLeadIn: 0
PreviewTime: 220360
Countdown: 0
SampleSet: Soft
StackLeniency: 0.7
Mode: 0
LetterboxInBreaks: 1
StoryFireInFront: 0
EpilepsyWarning: 1

[Editor]
DistanceSpacing: 1
BeatDivisor: 4
GridSize: 4

[Metadata]
Title:Overtone
TitleUnicode:Overtone
Artist:ave;new feat. Sakura Saori
ArtistUnicode:ave;new feat. 佐倉紗織
Creator:scanter
Version:Unreciprocated Love
Source:
Tags:elLiptic track7 takeru
BeatmapID:263085
BeatmapSetID:98720

[Difficulty]
HPDrainRate:6
CircleSize:4
OverallDifficulty:6
ApproachRate:7
SliderMultiplier:1.6
SliderTickRate:1

[Events]
//Background and Video events
0,0,"bg.jpg",0,0
//Break Periods
//Storyboard Layer 0 (Background)
//Storyboard Layer 1 (Fail)
//Storyboard Layer 2 (Pass)
//Storyboard Layer 3 (Foreground)
//Storyboard Sound Samples
//Background Colour Transformations
3,100,163,162,255

[TimingPoints]
1730,750.018855429214,4,2,1,100,1,0
49731,-100,4,2,1,100,0,1
49918,-100,4,2,1,100,0,0
73731,-100,4,2,1,100,0,1
73919,-100,4,2,1,100,0,0
97732,-100,4,2,1,100,0,1
121358,-100,4,2,1,100,0,0
121733,-100,4,2,1,100,0,1
145733,-100,4,2,1,100,0,0
172734,-100,4,2,1,100,0,1
172921,-100,4,2,1,100,0,0
196734,-100,4,2,1,100,0,1
220360,-100,4,2,1,100,0,0
220735,-100,4,2,1,100,0,1
244736,-100,4,2,1,100,0,0
268736,-100,4,2,1,100,0,1
292362,-100,4,2,1,100,0,0
292737,-100,4,2,1,100,0,1
316362,-100,4,2,1,100,0,0
316737,-100,4,2,1,100,0,1
325738,-100,4,2,1,100,0,0

[Colours]
Combo1 : 192,192,192
Combo2 : 128,255,255
Combo3 : 0,128,255

[HitObjects]
160,92,1730,1,0,0:0:0:0:
72,160,2105,1,0,0:0:0:0:
176,200,2480,1,0,0:0:0:0:
88,268,2855,1,0,0:0:0:0:
304,316,3605,1,0,0:0:0:0:
304,316,3792,1,0,0:0:0:0:
304,316,3980,2,0,L|352:324,1,40
392,268,4355,2,0,L|436:260,1,40
472,200,4730,6,0,P|448:168|408:148,1,80
308,112,5480,1,0,0:0:0:0:
196,132,5855,2,0,P|168:172|52:172,1,160
116,280,6980,2,0,P|64:284|39:295,1,80
188,316,7730,6,0,P|240:312|272:296,1,80
364,248,8480,1,0,0:0:0:0:
436,160,8855,2,0,P|444:120|436:80,1,80
332,124,9605,1,0,0:0:0:0:
228,84,9980,2,0,P|220:124|228:164,1,80
96,192,10730,6,0,P|120:240|148:264,1,80
172,276,11292,2,0,P|212:292|240:320,1,80
264,348,11855,1,0,0:0:0:0:
372,320,12230,1,0,0:0:0:0:
380,316,12417,1,0,0:0:0:0:
388,312,12605,2,0,L|428:292,1,40
368,236,12980,2,0,L|400:160,1,80
268,104,13730,6,0,L|236:177,2,80
168,56,14855,1,0,0:0:0:0:
120,156,15230,1,0,0:0:0:0:
124,148,15417,1,0,0:0:0:0:
128,140,15605,1,0,0:0:0:0:
84,244,15980,1,0,0:0:0:0:
80,252,16168,1,0,0:0:0:0:
76,260,16355,1,0,0:0:0:0:
72,268,16542,1,0,0:0:0:0:
68,276,16730,6,0,P|60:328|68:360,1,80
172,320,17480,1,0,0:0:0:0:
284,336,17855,2,0,P|328:344|372:328,2,80
244,232,18980,1,0,0:0:0:0:
244,232,19167,2,0,L|256:192,1,40
328,192,19542,1,0,0:0:0:0:
328,192,19730,6,0,L|348:112,1,80
456,88,20480,1,0,0:0:0:0:
364,24,20855,2,0,P|292:8|216:64,1,160
128,112,21980,2,0,P|84:104|56:72,1,80
76,192,22730,6,0,P|108:212|128:248,1,80
144,284,23293,2,0,P|164:320|196:340,1,80
236,340,23855,2,0,L|384:332,1,120
428,332,24605,1,0,0:0:0:0:
428,332,24793,1,0,0:0:0:0:
428,332,24980,2,0,P|456:296|464:256,1,80
472,152,25730,6,0,P|440:120|408:108,1,80
368,104,26293,1,0,0:0:0:0:
328,112,26480,2,0,L|248:136,1,80
147,234,27230,2,0,L|224:212,1,80
188,81,27980,2,0,L|112:104,1,80
44,192,28730,6,0,P|37:255|64:304,1,120
96,328,29480,1,0,0:0:0:0:
208,348,29855,2,0,L|368:328,1,160
440,244,30980,1,0,0:0:0:0:
412,216,31168,1,0,0:0:0:0:
396,184,31355,1,0,0:0:0:0:
392,144,31543,1,0,0:0:0:0:
408,108,31730,6,0,L|312:144,1,80
296,148,32293,2,0,P|256:148|220:128,1,80
194,100,32855,1,0,0:0:0:0:
176,64,33043,2,0,L|56:104,1,120
36,236,33980,2,0,L|140:200,1,80
111,209,34543,1,0,0:0:0:0:
148,200,34730,6,0,P|196:228|204:304,1,120
200,328,35480,1,0,0:0:0:0:
312,336,35855,2,0,P|336:288|452:268,1,160
420,148,36980,1,0,0:0:0:0:
328,84,37355,2,0,L|284:52,1,40
260,44,37730,6,0,P|216:36|160:64,1,80
148,64,38293,2,0,P|104:72|70:61,1,80
36,44,38855,2,0,L|52:128,1,80
72,232,39605,1,0,0:0:0:0:
140,324,39980,2,0,P|96:348|67:348,1,80
200,272,40730,6,0,P|244:248|288:252,1,80
312,256,41293,1,0,0:0:0:0:
476,300,41856,2,0,B|496:256|476:212|476:212|484:144,1,160
400,68,42981,1,0,0:0:0:0:
320,148,43356,1,0,0:0:0:0:
280,44,43731,6,0,P|236:60|184:56,1,80
56,136,44481,2,0,P|100:120|152:124,1,80
121,191,45043,2,0,P|100:232|136:320,1,120
212,360,45981,2,0,P|228:312|220:272,1,80
256,176,46731,6,0,L|360:212,1,80
368,216,47293,1,0,0:0:0:0:
464,76,47856,2,0,B|452:81|452:81|447:70|447:70|435:75|435:75|430:64|430:64|418:69|418:69|413:58|413:58|402:63|402:63|396:52|396:52|384:56|384:56|378:44|378:44|365:48|365:48|356:36|356:36|340:40|340:40,1,160
280,36,48793,6,0,L|248:40,2,20
280,36,49168,1,0,0:0:0:0:
280,36,49356,1,0,0:0:0:0:
136,52,49731,6,0,L|72:104,1,80
48,132,50293,1,0,0:0:0:0:
28,168,50481,2,0,P|24:216|48:252,1,80
144,280,51231,2,0,P|158:306|154:354,1,80
268,348,51981,2,0,L|316:280,1,80
424,292,52731,6,0,L|472:224,1,80
492,192,53293,1,0,0:0:0:0:
372,72,53856,2,0,L|325:137,1,80
325,137,54606,1,0,0:0:0:0:
204,60,54981,1,0,0:0:0:0:
176,88,55168,1,0,0:0:0:0:
140,104,55356,1,0,0:0:0:0:
100,100,55543,1,0,0:0:0:0:
68,76,55731,6,0,P|84:116|80:160,1,80
72,192,56293,2,0,L|40:272,1,80
128,340,57043,2,0,P|188:360|240:328,1,120
320,260,57981,2,0,P|360:228|392:224,1,80
496,252,58731,6,0,P|444:216|420:112,1,160
324,68,59856,1,0,0:0:0:0:
324,68,60043,1,0,0:0:0:0:
324,68,60231,2,0,L|224:72,1,80
108,131,60981,2,0,L|188:128,1,80
68,208,61731,6,0,L|156:204,1,80
188,204,62294,2,0,B|208:240|192:276|192:276|208:304|232:316,1,120
334,307,63231,1,0,0:0:0:0:
452,252,63606,1,0,0:0:0:0:
389,365,63981,1,0,0:0:0:0:
374,237,64356,1,0,0:0:0:0:
462,331,64731,6,0,L|383:289,1,80
356,276,65294,2,0,P|324:244|316:204,1,80
340,180,65856,2,0,P|268:184|216:112,1,160
296,112,66981,2,0,B|300:176|224:172|232:256,1,160
