osu file format v12

[General]
AudioFilename: My Sweet Lady (Short Ver.).mp3
AudioLeadIn: 0
PreviewTime: 86536
Countdown: 0
SampleSet: Soft
StackLeniency: 0.3
Mode: 0
LetterboxInBreaks: 0
WidescreenStoryboard: 0

[Editor]
Bookmarks: 15425,72314,86536,93203,98981,100314,120758
DistanceSpacing: 0.9
BeatDivisor: 2
GridSize: 4

[Metadata]
Title:My Sweet Lady
TitleUnicode:My Sweet Lady
Artist:ave;new feat. Sakura Saori
ArtistUnicode:ave;new feat. 佐倉紗織
Creator:Momochikun
Version:Normal
Source:学☆王 -THE ROYAL SEVEN STARS-
Tags:Gaku Ou - THE ROYAL SEVEN STARS - eroge visual novel opening lump of sugar
BeatmapID:313130
BeatmapSetID:122431

[Difficulty]
HPDrainRate:3
CircleSize:3
OverallDifficulty:3
ApproachRate:4
SliderMultiplier:1.2
SliderTickRate:2

[Events]
//Background and Video events
0,0,"Sweet Lady BG.jpg",0,0
//Break Periods
//Storyboard Layer 0 (Background)
//Storyboard Layer 1 (Fail)
//Storyboard Layer 2 (Pass)
//Storyboard Layer 3 (Foreground)
//Storyboard Sound Samples
//Background Colour Transformations
3,100,255,128,255

[TimingPoints]
1870,444.444444444444,4,2,1,75,1,0
15981,-100,4,2,1,85,0,1
16092,-100,4,2,1,85,0,0
20647,-100,4,2,2,85,0,0
20981,-100,4,2,1,85,0,0
27758,-100,4,2,2,85,0,0
28425,-100,4,2,1,45,0,0
30314,-100,4,2,1,85,0,0
32425,-100,4,2,2,85,0,0
32647,-100,4,2,1,85,0,0
33092,-100,4,2,2,85,0,0
33425,-100,4,2,1,85,0,0
36647,-100,4,2,2,85,0,0
36981,-100,4,2,1,85,0,0
39536,-100,4,2,2,85,0,0
39758,-100,4,2,1,85,0,0
40203,-100,4,2,2,85,0,0
40536,-100,4,2,1,85,0,0
42647,-100,4,2,1,45,0,0
44536,-100,4,2,1,70,0,0
45536,-100,4,2,2,70,0,0
45869,-100,4,2,1,70,0,0
49092,-100,4,2,2,70,0,0
49425,-100,4,2,1,70,0,0
52647,-100,4,2,2,70,0,0
53092,-100,4,2,1,70,0,0
56203,-100,4,2,2,70,0,0
56536,-100,4,2,1,70,0,0
58758,-100,4,2,1,80,0,0
66869,-100,4,2,2,80,0,0
67203,-100,4,2,1,80,0,0
68647,-100,4,2,2,80,0,0
68981,-100,4,2,1,80,0,0
69425,-100,4,2,1,30,0,0
71869,-100,4,2,1,75,0,0
72314,-100,4,2,1,85,0,0
72869,-100,4,2,1,85,0,1
77536,-100,4,2,2,85,0,1
77869,-100,4,2,1,85,0,1
84647,-100,4,2,2,85,0,1
84981,-100,4,2,1,85,0,1
86981,-100,4,2,1,85,0,0
87092,-100,4,2,1,90,0,1
91758,-100,4,2,2,90,0,1
92092,-100,4,2,1,90,0,1
98869,-100,4,2,2,90,0,1
99536,-100,4,2,1,50,0,1
101314,-100,4,2,1,50,0,0
101425,-100,4,2,1,85,0,1
101536,-100,4,2,1,85,0,0
103536,-100,4,2,2,85,0,0
103758,-100,4,2,1,85,0,0
104203,-100,4,2,2,85,0,0
104536,-100,4,2,1,85,0,0
107758,-100,4,2,2,85,0,0
108092,-100,4,2,1,85,0,0
108203,-100,4,2,2,85,0,0
108536,-100,4,2,1,85,0,0
110647,-100,4,2,2,85,0,0
110869,-100,4,2,1,85,0,0
111314,-100,4,2,2,85,0,0
111647,-100,4,2,1,85,0,0
115647,-100,4,2,1,85,0,1
115758,-100,4,2,1,30,0,0
116536,-100,4,2,1,25,0,0
117425,-100,4,2,1,20,0,0
118314,-100,4,2,1,15,0,0
119647,-100,4,2,1,10,0,0
120092,-100,4,2,1,5,0,0

[Colours]
Combo1 : 255,155,255
Combo2 : 255,255,128
Combo3 : 130,255,255

[HitObjects]
108,292,15981,6,0,P|120:224|180:168,1,150,4|8,0:0|0:0,0:0:0:0:
255,153,16869,2,0,P|329:120|368:52,1,150,4|8,0:0|0:0,0:0:0:0:
284,45,17758,2,0,P|316:111|377:154,1,150,4|8,0:0|0:0,0:0:0:0:
453,125,18647,2,0,P|391:167|373:237,1,150,4|8,0:0|0:0,0:0:0:0:
480,225,19647,5,4,0:0:0:0:
444,326,20092,1,0,3:0:0:0:
337,321,20536,2,0,P|274:305|239:255,1,120,2|8,0:0|0:0,0:0:0:0:
293,164,21425,2,0,P|202:153|141:216,2,180,4|4|8,0:0|0:0|0:0,0:0:0:0:
392,208,23203,6,0,P|420:148|400:72,1,120,4|8,0:0|0:0,0:0:0:0:
350,45,23981,2,0,P|286:65|182:53,1,150,4|8,0:0|0:0,0:0:0:0:
128,36,24869,2,0,P|156:84|128:168,1,150,4|8,0:0|0:0,0:0:0:0:
59,212,25758,2,0,P|112:197|186:246,1,150,4|8,0:0|0:0,0:0:0:0:
272,312,26758,6,0,P|328:312|384:264,1,120,4|8,0:0|0:0,0:0:0:0:
340,172,27647,2,0,L|392:88,2,90,4|0|4,0:0|3:0|0:0,0:0:0:0:
256,192,28425,12,4,30314,0:0:0:0:
296,248,30758,21,8,0:0:0:0:
232,160,31203,1,4,0:0:0:0:
280,64,31647,1,8,0:0:0:0:
352,144,32092,2,0,P|432:116|496:40,2,180,4|4|12,0:0|0:0|0:0,0:0:0:0:
244,148,33869,5,4,0:0:0:0:
457,113,34758,1,4,0:0:0:0:
316,276,35647,2,0,L|242:340,2,90,4|0|0,0:0|3:0|0:0,0:0:0:0:
360,248,36536,2,0,P|420:256|468:308,1,120,4|8,0:0|0:0,0:0:0:0:
372,352,37425,5,4,0:0:0:0:
268,320,37869,1,8,0:0:0:0:
163,352,38314,2,0,P|119:304|107:248,1,120,4|8,0:0|0:0,0:0:0:0:
179,171,39203,2,0,P|95:147|11:195,2,180,4|4|12,0:0|0:0|0:0,0:0:0:0:
273,222,40981,6,0,P|287:164|267:109,1,120,4|8,0:0|0:0,0:0:0:0:
179,171,41869,2,0,P|165:229|186:285,1,120,4|8,0:0|0:0,0:0:0:0:
256,192,42536,12,4,44536,0:0:0:0:
140,140,45425,2,0,P|152:196|196:248,1,120,0|8,0:0|0:0,0:0:0:0:
296,284,46314,2,0,P|348:260|416:264,1,120,2|8,0:3|0:0,0:0:0:0:
464,256,46981,2,0,L|472:132,1,120,4|4,0:0|0:0,0:0:0:0:
320,76,48092,6,0,P|260:88|192:76,1,120,4|0,0:0|0:0,0:0:0:0:
152,56,48758,2,0,B|108:80|68:68|68:68|28:116|56:156,1,180,2|8,0:3|0:0,0:0:0:0:
131,227,49869,2,0,B|183:227|215:199|215:199|239:235|299:251,1,180,4|4,0:0|0:0,0:0:0:0:
386,293,50981,2,0,L|398:221,2,60,4|4|8,0:0|0:0|0:0,0:0:0:0:
352,336,51647,6,0,P|284:340|222:323,1,120,4|8,0:0|0:0,0:0:0:0:
140,380,52536,2,0,P|117:295|184:224,1,180
272,196,53647,2,0,P|340:192|400:156,1,120,0|2,0:0|0:3,0:0:0:0:
420,64,54536,2,0,L|444:0,2,60,2|4|2,0:0|0:0|0:3,0:0:0:0:
372,88,55203,6,0,P|272:96|180:60,2,180,4|2|8,0:0|0:3|0:0,0:0:0:0:
336,188,56981,2,0,P|436:180|528:216,2,180,4|4|8,0:0|0:0|0:0,0:0:0:0:
296,224,58536,1,8,0:0:0:0:
256,264,58758,6,0,L|164:352,1,120,4|8,0:0|0:0,0:0:0:0:
72,300,59647,2,0,L|158:217,1,120,4|8,0:0|0:0,0:0:0:0:
204,120,60536,2,0,B|176:88|128:88|128:88|96:52|96:52|48:36,2,180,0|0|8,3:0|3:0|0:0,0:0:0:0:
308,92,62314,5,4,0:0:0:0:
388,168,62758,1,8,0:0:0:0:
284,192,63203,2,0,P|300:244|344:292,1,120,4|8,0:0|0:0,0:0:0:0:
268,368,64092,2,0,P|176:336|84:352,1,180,4|4,0:0|0:0,0:0:0:0:
44,252,65203,2,0,L|56:188,1,60,4|8,0:0|0:0,0:0:0:0:
68,140,65647,6,4,B|114:126|148:177|148:177|190:181|236:147,1,180,4|8,0:0|0:0,0:0:0:0:
320,99,66758,2,0,P|364:139|368:203,1,120,2|8,0:3|0:0,0:0:0:0:
325,229,67425,2,0,P|408:196|486:242,1,180,4|8,0:0|0:0,0:0:0:0:
452,340,68536,2,0,P|395:361|342:330,1,120,2|8,0:3|0:0,0:0:0:0:
256,192,69425,12,0,71869,3:0:0:0:
428,232,72869,6,0,P|348:228|284:272,1,150,4|8,0:0|0:0,0:0:0:0:
332,332,73758,2,0,P|268:294|194:300,1,150,4|8,0:0|0:0,0:0:0:0:
116,324,74647,2,0,P|68:264|72:184,1,150,4|8,0:0|0:0,0:0:0:0:
149,170,75536,2,0,P|197:230|193:310,1,150,4|8,0:0|0:0,0:0:0:0:
100,252,76536,5,4,0:0:0:0:
56,152,76981,1,0,3:0:0:0:
148,92,77425,2,8,P|208:88|280:120,1,120,2|8,0:0|0:0,0:0:0:0:
284,216,78314,2,0,P|364:176|372:92,2,180,4|4|8,0:0|0:0|0:0,0:0:0:0:
180,188,80092,6,0,P|136:224|132:292,1,120,4|8,0:0|0:0,0:0:0:0:
204,316,80869,2,0,B|241:315|268:344|268:344|304:324|344:336,1,150,4|8,0:0|0:0,0:0:0:0:
392,272,81758,2,0,P|384:192|420:112,1,150,4|8,0:0|0:0,0:0:0:0:
344,80,82647,2,0,P|278:126|191:135,1,150,4|8,0:0|0:0,0:0:0:0:
116,88,83647,5,4,0:0:0:0:
40,164,84092,1,8,0:0:0:0:
144,196,84536,2,0,P|164:256|152:320,1,120,4|8,0:0|0:0,0:0:0:0:
104,332,85203,2,0,L|292:320,1,180,4|0,0:0|3:0,0:0:0:0:
384,284,86314,1,2,0:3:0:0:
300,116,87092,6,0,P|228:112|148:72,1,150,4|8,0:0|0:0,0:0:0:0:
80,60,87981,2,0,B|48:112|48:112|72:152|52:204,1,150,4|8,0:0|0:0,0:0:0:0:
0,256,88869,2,0,P|73:247|136:285,1,150,4|8,0:0|0:0,0:0:0:0:
200,336,89758,2,0,P|273:344|333:295,1,150,4|8,0:0|0:0,0:0:0:0:
238,242,90758,6,0,P|214:186|234:114,1,120,4|8,0:0|0:0,0:0:0:0:
322,175,91647,2,0,P|385:160|417:115,1,120,2|8,0:0|0:0,0:0:0:0:
348,32,92536,2,0,P|261:49|207:118,2,180,4|4|8,0:0|0:0|0:0,0:0:0:0:
423,108,94314,6,0,L|451:232,1,120,4|8,0:0|0:0,0:0:0:0:
420,300,95092,2,0,B|372:280|372:280|332:312|272:288,1,150,4|8,0:0|0:0,0:0:0:0:
244,216,95981,2,0,B|220:168|220:168|228:112|184:80,1,150,4|8,0:0|0:0,0:0:0:0:
108,100,96869,2,0,B|76:104|40:88|40:88|8:116|12:160,1,150,4|8,0:0|0:0,0:0:0:0:
92,232,97869,5,4,0:0:0:0:
200,212,98314,1,8,0:0:0:0:
272,296,98758,2,0,L|328:368,2,90,4|0|4,0:0|3:0|0:0,0:0:0:0:
256,192,99536,12,4,101425,0:0:0:0:
388,228,101869,6,0,P|336:188|280:168,1,120,8|4,0:0|0:0,0:0:0:0:
176,172,102758,1,8,0:0:0:0:
84,120,103203,2,0,P|73:199|145:273,2,180,4|4|12,0:0|0:0|0:0,0:0:0:0:
176,172,104981,5,4,0:0:0:0:
348,300,105869,1,4,0:0:0:0:
388,88,106758,2,0,P|344:64|288:68,2,90,4|0|0,0:0|3:0|0:0,0:0:0:0:
432,116,107647,2,0,P|460:63|454:5,2,120,4|8|4,0:0|0:0|0:0,0:0:0:0:
343,178,108981,5,8,0:0:0:0:
415,258,109425,1,4,0:0:0:0:
347,342,109869,1,8,0:0:0:0:
260,276,110314,2,0,P|164:264|92:320,2,180,4|4|12,0:0|0:0|0:0,0:0:0:0:
352,336,112092,5,4,0:0:0:0:
328,232,112536,1,8,0:0:0:0:
424,180,112981,1,4,0:0:0:0:
344,106,113425,2,0,P|313:94|281:92,1,60,0|0,3:0|3:0,0:0:0:0:
237,113,113869,6,0,B|176:113|141:166|141:166|100:156|75:146,2,180,4|2|8,0:0|0:0|0:0,0:0:0:0:
331,165,115647,1,4,0:0:0:0:
256,192,115758,12,0,120758,0:0:0:0:
