osu file format v9

[General]
AudioFilename: the.mp3
AudioLeadIn: 0
PreviewTime: 72275
Countdown: 0
SampleSet: Soft
StackLeniency: 0.7
Mode: 0
LetterboxInBreaks: 1

[Editor]
DistanceSpacing: 1.2
BeatDivisor: 4
GridSize: 4

[Metadata]
Title:My Sweet Lady
Artist:ave;new feat. Sakura Saori
Creator:Aenna
Version:Sweet
Source:Gackoh - THE ROYAL SEVEN STARS -
Tags:Lump of Sugar Megastore

[Difficulty]
HPDrainRate:7
CircleSize:4
OverallDifficulty:8
ApproachRate:8
SliderMultiplier:1.8
SliderTickRate:1

[Events]
//Background and Video events
Video,-1300,"movie.avi"
0,0,"BG.jpg"
//Break Periods
//Storyboard Layer 0 (Background)
//Storyboard Layer 1 (Fail)
//Storyboard Layer 2 (Pass)
//Storyboard Layer 3 (Foreground)
//Storyboard Sound Samples
//Background Colour Transformations
3,100,62,255,255

[TimingPoints]
1838,444.444444444444,4,2,1,70,1,0
7060,-100,4,2,2,70,0,0
15837,-100,4,2,1,80,0,0
15949,-100,4,2,1,80,0,1
30282,-100,4,2,1,55,0,0
30504,-100,4,2,1,70,0,0
44393,-133.333333333333,4,2,1,70,0,0
65504,-100,4,2,1,70,0,0
72726,-80,4,2,1,70,0,0
72837,-80,4,2,1,85,0,1
85171,-80,4,2,1,85,0,0
86949,-66.6666666666667,4,2,1,85,0,0
87060,-66.6666666666667,4,2,1,85,0,1
101393,-100,4,2,1,70,0,0
115726,-100,4,2,1,5,0,0

[Colours]
Combo1 : 255,176,98
Combo2 : 53,255,255
Combo3 : 255,117,186

[HitObjects]
160,108,1393,1,8
408,160,1838,6,0,B|440:264|348:332,1,180,4|2
104,224,2726,2,0,B|72:120|164:52,1,180,0|2
348,336,3615,6,0,B|256:372|164:292,1,180,0|2
164,48,4504,2,0,B|256:12|348:92,1,180,0|2
416,336,5393,6,0,B|380:304|320:304,1,90,2|0
232,336,5837,1,2
232,336,6060,1,0
128,304,6282,2,0,B|108:264|120:216,1,90,2|0
232,100,6726,2,0,B|252:140|240:188,1,90,2|0
348,200,7171,6,0,B|332:304|432:352,1,180,8|8
484,260,7838,1,0
452,156,8060,1,8
452,156,8171,1,0
360,100,8393,1,0
360,100,8504,1,8
252,120,8726,1,8
176,196,8949,6,0,B|112:228|36:184,2,135,2|0|0
280,224,9838,2,0,B|324:280|300:356,2,135,2|0|0
252,120,10726,2,0,B|304:64|396:80,2,135,2|0|0
252,120,11615,1,2
176,196,11949,1,0
276,224,12282,1,0
276,224,12504,6,0,B|304:264|292:316,1,90,2|0
152,284,12949,2,0,B|124:244|136:192,1,90,2|0
220,132,13393,2,0,B|364:120,2,135,2|0|0
120,88,14282,5,8
120,96,14393,1,0
120,104,14504,1,0
120,112,14615,1,0
120,120,14726,1,0
120,128,14838,1,0
120,136,14949,1,8
120,144,15060,1,0
120,152,15171,1,8
32,216,15393,1,0
120,276,15615,1,8
120,276,15726,1,0
212,332,15949,6,0,B|272:280|360:308,1,135,4|0
444,268,16504,1,10
444,268,16615,1,0
396,172,16838,2,0,B|352:104|248:128,1,135,4|0
180,180,17393,1,10
180,180,17504,1,0
188,288,17726,6,0,B|116:304|48:256,1,135,4|0
56,100,18282,2,0,B|36:144,1,45,10|0
152,92,18615,2,0,B|172:48,1,45,0|2
276,28,18949,1,8
384,48,19171,1,8
440,140,19393,5,0
440,140,19504,1,0
440,140,19615,2,0,B|404:172|412:240,1,90,4|0
464,316,20060,1,10
360,344,20282,2,0,B|312:356|272:332,1,90,0|2
200,252,20726,1,0
108,192,20949,2,0,B|76:228|92:284,1,90,10|0
200,252,21393,5,4
284,188,21615,1,0
284,188,21726,2,0,B|324:212|376:204,1,90,4|0
404,192,22060,2,0,B|468:112|424:20,1,180,4|0
324,56,22726,1,12
316,56,22837,1,0
308,56,22949,1,0
300,56,23060,1,0
292,56,23171,6,0,B|176:56,1,90,4|0
100,96,23615,1,10
100,96,23726,1,0
100,96,23837,1,0
100,96,23949,2,0,B|72:136|88:188,1,90,4|0
112,208,24282,2,0,B|156:184|216:196,1,90,0|10
232,204,24615,1,0
332,244,24837,6,0,B|348:320|280:368,1,135,4|0
180,344,25393,1,10
180,344,25504,1,0
112,260,25726,2,0,B|96:184|164:136,1,135,4|8
260,108,26282,1,8
352,164,26504,5,0
352,164,26615,1,0
352,164,26726,2,0,B|388:132|392:84,1,90,4|0
264,188,27171,2,0,B|272:236|324:256,1,90,10|0
428,240,27615,1,2
428,240,27726,1,0
376,336,27949,1,0
376,336,28060,1,10
268,324,28282,1,2
256,192,28504,12,4,30282
144,264,30726,6,0,B|204:340|312:316,1,180,8|0
392,256,31393,1,0
328,168,31615,2,0,B|316:120|352:80,1,90,8|0
436,152,32060,1,0
328,168,32282,2,0,B|288:188|236:164,1,90,0|8
288,68,32726,2,0,B|208:4|96:48,1,180,0|0
44,120,33393,1,8
44,120,33504,1,0
44,120,33615,6,0,B|68:156|56:208,1,90,0|4
72,312,34060,2,0,B|108:340|160:332,1,90,0|8
260,308,34504,1,0
336,232,34726,2,0,B|360:192|344:140,1,90,4|0
272,64,35171,1,8
272,64,35282,1,0
272,64,35393,6,0,B|148:72,2,90,0|4|0
360,124,36060,2,0,B|388:164|372:216,1,90,4|0
304,292,36504,1,4
296,292,36615,1,0
288,292,36726,1,0
280,292,36837,1,0
272,292,36949,1,12
264,292,37060,1,0
256,292,37171,1,0
248,292,37282,1,0
240,292,37393,2,0,B|140:292,1,90,4|0
64,224,37837,5,8
36,120,38060,1,0
128,64,38282,2,0,B|168:88|220:76,1,90
300,144,38726,2,0,B|340:120|392:132,1,90,8|0
464,208,39171,5,0
400,296,39393,2,0,B|360:272|312:280,1,90,0|8
212,316,39837,1,0
176,328,39949,1,0
140,324,40060,1,0
104,312,40171,1,0
80,284,40282,1,0
52,180,40504,1,8
100,84,40726,5,0
208,100,40949,2,0,B|248:72|296:80,1,90,4|0
272,184,41393,1,8
340,268,41615,2,0,B|300:296|252:288,1,90,0|4
272,184,42060,5,0
428,220,42282,1,8
360,368,42504,1,0
360,368,42615,1,0
360,368,42726,6,0,B|288:296|184:332,1,180,4|12
88,352,43393,1,0
44,252,43615,1,4
32,220,43726,1,0
36,184,43837,1,0
64,160,43949,1,0
100,156,44060,1,12
204,192,44282,1,0
284,120,44504,5,4
356,160,44726,1,0
436,148,44949,2,0,B|456:176|452:216,1,67.4999979883433,8|0
420,288,45393,2,0,B|380:276|344:296,1,67.4999979883433
288,336,45837,1,8
208,320,46060,2,0,B|132:348|64:288,1,134.999995976687,8|0
44,228,46726,1,8
112,184,46949,6,0,B|124:152|116:116,1,67.4999979883433,2|0
400,200,47393,2,0,B|388:232|396:268,1,67.4999979883433,2|8
256,192,47837,1,2
256,192,48060,6,0,B|256:116,1,67.4999979883433,4|0
224,48,48504,1,8
152,84,48726,2,0,B|116:92|76:76,1,67.4999979883433
28,136,49171,1,8
124,208,49393,1,8
40,296,49615,1,0
124,208,49837,5,2
192,252,50060,1,8
192,252,50171,1,0
192,252,50282,1,8
272,240,50504,2,0,B|320:188|400:208,1,134.999995976687,2|2
460,88,51171,1,10
388,124,51393,1,8
392,164,51504,1,0
395,207,51615,5,4
444,272,51837,1,0
376,320,52060,1,8
327,255,52282,2,0,B|304:232|264:232,1,67.4999979883433
268,312,52726,1,8
196,272,52949,1,8
128,316,53171,2,0,B|108:284|120:244,1,67.4999979883433,8|0
176,196,53615,5,0
68,140,53837,1,8
188,116,54060,2,0,B|268:100,1,67.4999979883433,2|0
372,80,54504,1,2
372,80,54615,1,0
372,80,54726,1,8
440,128,54949,1,0
368,168,55171,6,0,B|332:236|388:296,1,134.999995976687,4|8
464,312,55837,2,0,B|392:264|312:332,1,134.999995976687,2|0
220,352,56504,1,8
156,300,56726,1,0
228,260,56949,6,0,B|272:204|248:128,1,134.999995976687,4|8
168,132,57615,2,0,B|152:100|164:60,1,67.4999979883433,4|0
344,252,58060,2,0,B|360:284|348:324,1,67.4999979883433,4|8
340,324,58393,1,0
328,332,58504,1,0
316,340,58615,1,0
304,348,58726,6,0,B|240:364|156:348,1,134.999995976687,4|8
40,208,59615,1,2
104,160,59837,1,0
176,196,60060,1,8
104,160,60282,2,0,B|132:88|212:80,1,134.999995976687,2|0
324,112,60949,1,8
436,64,61171,2,0,B|488:116|460:204,1,134.999995976687,2|2
392,288,61837,1,10
288,220,62060,1,2
220,260,62282,6,0,B|164:208|80:240,1,134.999995976687,4|8
204,80,63171,1,2
268,128,63393,1,0
348,116,63615,1,8
268,128,63837,2,0,B|228:192|276:264,1,134.999995976687,2|0
352,260,64504,1,8
308,192,64726,2,0,B|236:192|200:268,1,134.999995976687,4|4
280,356,65393,1,10
352,260,65615,6,0,B|392:232|388:168,1,90,4|0
368,76,66060,1,0
268,40,66282,1,8
196,124,66504,2,0,B|160:148|104:144,1,90
136,40,66949,1,2
168,236,67171,1,10
276,236,67393,6,0,B|280:284|248:328,1,90,4|0
148,344,67837,1,0
48,300,68060,1,8
104,208,68282,2,0,B|128:168|120:120,1,90
16,144,68726,1,2
208,184,68949,1,10
384,144,69171,6,0,B|448:212|408:320,1,180,4|0
272,352,69837,1,8
164,260,70060,1,0
300,208,70282,1,0
272,352,70504,5,0
88,192,70726,1,8
316,112,70949,1,0
300,208,71171,5,4
196,232,71393,1,0
168,128,71615,1,8
272,104,71837,2,0,B|316:72|372:84,1,90,4|0
452,164,72282,1,0
428,288,72504,1,2
428,288,72615,1,0
308,328,72837,6,0,B|248:256|132:300,1,168.749997485429,4|0
60,196,73393,1,10
60,196,73504,1,0
180,136,73726,2,0,B|232:224|344:184,1,168.749997485429,4|0
436,116,74282,1,10
416,76,74393,1,0
424,232,74615,6,0,B|432:332|312:348,1,168.749997485429,4|0
204,284,75171,1,10
204,284,75282,1,0
72,316,75504,1,0
72,316,75615,1,2
68,180,75837,2,0,B|48:124|80:72,1,112.499998323619,8|8
196,140,76282,1,0
196,140,76393,1,0
196,140,76504,6,0,B|336:192|384:48,1,224.999996647239,4|10
378,64,77171,1,0
464,168,77393,2,0,B|484:232|448:280,1,112.499998323619,2|0
256,336,77837,2,0,B|236:272|272:224,1,112.499998323619,10|0
316,100,78282,5,4
316,100,78393,1,0
188,64,78615,1,4
188,64,78726,1,8
84,152,78949,2,0,B|32:132,2,56.2499991618097,4|0|0
212,196,79393,1,0
112,288,79615,2,0,B|144:340|208:332,1,112.499998323619,12|0
336,292,80060,6,0,B|372:240|440:248,1,112.499998323619,4|0
488,124,80504,1,10
488,124,80615,1,0
252,96,80837,2,0,B|164:152|216:268,1,168.749997485429,4|0
336,292,81393,1,10
336,292,81504,1,0
208,328,81726,6,0,B|108:364|64:260,1,168.749997485429,4|0
208,156,82282,2,0,B|184:212,1,56.2499991618097,10|0
340,116,82615,2,0,B|364:60,1,56.2499991618097,0|2
212,20,82949,1,8
88,116,83171,1,8
160,256,83393,1,0
160,256,83504,1,0
160,256,83615,6,0,B|224:240|272:288,1,112.499998323619,4|0
388,340,84060,1,10
468,232,84282,1,0
428,104,84504,1,4
428,104,84615,1,0
292,88,84837,1,0
292,88,84949,1,10
232,208,85171,6,0,B|104:272|36:116,1,224.999996647239,4|0
144,44,85837,1,12
368,196,86282,1,4
444,308,86504,1,2
444,308,86615,1,0
444,308,86726,1,8
444,308,86837,1,0
312,340,87060,6,0,B|240:244|104:300,1,202.49999396503,4|0
84,80,87615,1,10
84,80,87726,1,0
300,96,87949,2,0,B|256:220|380:268,1,202.49999396503,4|0
160,324,88504,1,10
160,324,88615,1,0
188,112,88837,6,0,B|240:224|376:160,1,202.49999396503,4|0
468,348,89393,1,10
468,348,89504,1,0
256,308,89726,2,0,B|188:200|56:272,1,202.49999396503,4|8
48,44,90282,1,8
180,140,90504,1,0
180,140,90615,1,0
180,140,90726,6,0,B|340:232|412:40,1,269.999991953373,4|10
484,212,91393,1,0
392,344,91615,1,2
392,344,91726,1,0
392,344,91837,2,0,B|340:292|260:308,1,134.999995976687,0|10
112,352,92282,1,0
56,172,92504,6,0,B|112:112|208:144,1,134.999995976687,4|0
216,152,92837,1,4
268,248,93060,1,0
292,276,93171,1,4
328,292,93282,1,0
368,296,93393,1,0
408,288,93504,1,0
444,268,93615,1,0
468,236,93726,1,0
484,200,93837,2,0,B|508:124|452:60,1,134.999995976687,12|0
332,32,94282,6,0,B|300:96|208:72,1,134.999995976687,4|0
60,24,94726,1,10
60,24,94837,1,0
112,180,95060,2,0,B|68:312|224:348,1,202.49999396503,4|0
352,352,95615,1,10
352,352,95726,1,0
444,220,95949,6,0,B|392:100|256:156,1,202.49999396503,4|0
168,264,96504,2,0,B|192:332,1,67.4999979883433,10|0
64,228,96837,2,0,B|0:108|132:40,1,202.49999396503,4|8
272,40,97393,1,8
220,192,97615,1,0
220,192,97726,1,0
220,192,97837,6,0,B|196:268|268:316,1,134.999995976687,4|0
476,340,98282,2,0,B|500:264|428:216,1,134.999995976687,10|0
328,104,98726,1,2
328,104,98837,1,0
168,116,99060,1,0
168,116,99171,1,10
208,272,99393,1,2
256,192,99615,12,4,101393
388,232,101837,6,0,B|400:280|360:328,1,90,8|0
292,240,102282,2,0,B|280:192|320:144,1,90
416,128,102726,2,0,B|380:32|260:44,1,180,8|0
184,104,103393,2,0,B|152:68|164:12,1,90,0|8
268,144,103837,2,0,B|224:236|112:180,1,180
28,248,104504,1,8
104,324,104726,5,0
204,284,104949,2,0,B|240:248|292:260,1,90,4|0
384,304,105393,1,8
376,196,105615,5,0
484,100,105837,1,4
340,96,106060,1,0
268,176,106282,1,8
268,176,106504,1,0
176,120,106726,6,0,B|96:136|44:64,2,135,4|4|4
256,44,107615,1,2
256,44,107726,1,0
352,96,107949,1,0
352,96,108060,1,10
272,168,108282,1,0
272,168,108504,1,4
72,244,108949,6,0,B|64:296|104:332,1,90,8|0
176,252,109393,2,0,B|184:200|144:164,1,90
48,140,109837,1,8
48,140,109949,1,0
48,140,110060,1,0
128,68,110282,5,0
228,112,110504,2,0,B|276:124|320:104,1,90,0|8
408,52,110949,1,0
472,136,111171,1,2
484,176,111282,1,0
480,216,111393,1,0
468,256,111504,1,0
440,284,111615,1,10
336,312,111837,1,0
244,252,112060,6,0,B|204:220|152:232,2,90,4|0|8
316,172,112726,2,0,B|308:124|260:92,2,90,0|4|0
396,244,113393,1,8
324,324,113615,1,0
244,252,113837,5,12
236,252,113949,1,0
228,252,114060,1,8
220,252,114171,1,0
212,252,114282,1,4
204,252,114393,1,0
196,252,114504,1,8
188,252,114615,1,0
180,252,114726,1,4
172,252,114837,1,0
164,252,114949,1,8
156,252,115060,1,0
148,252,115171,1,4
140,252,115282,1,0
132,252,115393,1,8
124,252,115504,1,0
116,252,115615,1,4
256,192,115726,12,0,120949
