osu file format v9

[General]
AudioFilename: 1.mp3
AudioLeadIn: 1000
PreviewTime: 46625
Countdown: 0
SampleSet: Normal
StackLeniency: 0.7
Mode: 0
LetterboxInBreaks: 0

[Editor]
DistanceSpacing: 0
BeatDivisor: 4
GridSize: 4

[Metadata]
Title:Just Be With You (Short Ver.)
Artist:ave;new feat. Sakura Saori
Creator:those
Version:Insane
Source:Angel Breath
Tags:ave new project vn hentai eroge giga 2006 kantoku Odaril Kurosanyan

[Difficulty]
HPDrainRate:8
CircleSize:4
OverallDifficulty:8
ApproachRate:9
SliderMultiplier:1.8
SliderTickRate:2

[Events]
//Background and Video events
0,0,"1.jpg"
//Break Periods
//Storyboard Layer 0 (Background)
//Storyboard Layer 1 (Fail)
//Storyboard Layer 2 (Pass)
//Storyboard Layer 3 (Foreground)
//Storyboard Sound Samples
//Background Colour Transformations
3,100,163,162,255

[TimingPoints]
80,363.636363636364,4,1,0,55,1,0
10080,-156.25,4,1,0,55,0,0
11170,-100,4,1,0,55,0,0
23716,-100,4,1,0,55,0,0
27352,-100,4,1,0,55,0,0
28261,-156.25,4,1,0,55,0,0
28625,-100,4,1,0,55,0,0
29534,-100,4,1,0,55,0,0
33170,-100,4,1,0,55,0,0
34080,-156.25,4,1,0,35,0,0
34989,-125,4,1,0,35,0,0
39352,-125,4,1,0,55,0,0
40807,-100,4,1,0,55,0,0
46625,-100,4,1,0,70,0,1
52443,-100,4,1,0,70,0,0
58261,-80,4,1,0,70,0,1
69898,-100,4,1,0,55,0,0
88080,-100,4,2,0,100,0,0
88989,-100,4,2,0,97,0,0
89170,-100,4,2,0,93,0,0
89352,-100,4,2,0,89,0,0
89534,-100,4,2,0,85,0,0
89716,-100,4,2,0,81,0,0
89898,-100,4,2,0,77,0,0
90080,-100,4,2,0,73,0,0
90261,-100,4,2,0,69,0,0
90443,-100,4,2,0,65,0,0
90625,-100,4,2,0,61,0,0
90807,-100,4,2,0,57,0,0
90989,-100,4,2,0,53,0,0
91170,-100,4,2,0,49,0,0
91352,-100,4,2,0,45,0,0
91534,-100,4,2,0,41,0,0
91716,-100,4,2,0,37,0,0
91898,-100,4,2,0,33,0,0
92080,-100,4,2,0,29,0,0
92261,-100,4,2,0,25,0,0
92443,-100,4,2,0,21,0,0
92625,-100,4,2,0,17,0,0
92807,-100,4,2,0,13,0,0
92989,-100,4,2,0,9,0,0
93170,-100,4,2,0,5,0,0

[Colours]
Combo1 : 255,180,255
Combo2 : 255,180,180

[HitObjects]
400,192,2989,5,0
328,316,3170,1,0
183,316,3352,1,8
112,192,3534,1,0
132,192,3625,1,0
152,192,3716,1,0
172,192,3807,1,0
192,192,3898,1,8
304,264,4080,5,8
373,55,4261,1,0
156,100,4443,1,4
256,192,4534,12,0,5716
312,276,5898,6,0,B|372:276|372:288|392:256,1,90,4|0
200,108,6261,2,0,B|140:108|140:96|120:128,1,90,10|0
168,208,6625,1,2
344,176,6807,1,2
166,262,6989,1,8
346,122,7170,1,2
212,236,7352,6,0,B|212:296|224:296|192:316,1,90
300,148,7716,2,0,B|300:88|288:88|320:68,1,90,10|0
381,128,8080,1,2
466,105,8261,1,2
489,21,8443,1,8
466,105,8625,1,2
489,189,8807,6,0,B|450:234|459:242|422:237,1,90
316,224,9170,2,0,B|354:178|345:170|382:175,1,90,10|0
392,284,9534,1,2
309,366,9716,1,2
182,366,9898,1,8
86,270,10080,6,2,B|114:191|103:186|140:176,1,115.2,2|2
242,206,10625,1,8
344,236,10807,2,2,B|382:227|371:222|399:143,1,115.2,2|2
464,212,11352,1,10
309,161,11534,1,10
256,88,11716,5,4
172,60,11898,1,2
172,60,12080,2,0,B|82:60,1,90,10|0
188,148,12443,1,2
188,148,12625,2,0,B|100:148,1,90,2|8
136,228,12989,1,2
256,296,13170,5,0
340,324,13352,1,2
340,324,13534,2,0,B|430:324,1,90,10|0
324,236,13898,1,2
324,236,14080,2,0,B|412:236,1,90,2|8
376,156,14443,1,2
256,96,14625,5,0
184,152,14807,1,2
184,152,14989,2,0,B|184:240,1,90,10|0
328,152,15352,1,2
328,152,15534,2,0,B|328:240,1,90,2|8
406,197,15898,6,0,B|328:242,1,90,2|0
406,287,16261,2,0,B|328:241,1,90,2|8
151,241,16625,2,2,B|240:273|328:241,1,180,2|2
192,160,17170,1,10
244,332,17352,1,8
296,160,17534,5,4
377,126,17716,1,2
377,126,17898,2,0,B|399:40,1,90,10|0
375,313,18261,1,2
375,313,18443,2,0,B|352:227,1,90,2|8
304,40,18807,1,2
216,160,18989,5,0
135,126,19170,1,2
135,126,19352,2,0,B|112:40,1,90,10|0
137,313,19716,1,2
136,313,19898,2,0,B|160:227,1,90,2|8
256,292,20261,1,2
296,160,20443,5,0
340,88,20625,1,2
340,88,20807,2,0,B|400:88|400:76|420:108,1,90,10|0
172,88,21170,1,2
172,88,21352,2,0,B|112:88|112:100|92:68,1,90,2|8
144,192,21716,6,0,B|220:236,1,90,2|0
257,174,22080,1,2
310,266,22261,1,10
374,155,22443,1,2
446,279,22625,1,2
374,155,22807,1,8
310,266,22989,1,10
257,174,23170,1,0
221,237,23352,1,4
108,95,23716,6,0,B|128:63|128:75|188:75,1,90,2|0
344,176,24080,1,2
343,176,24261,2,0,B|323:208|323:196|263:196,1,90,2|0
108,288,24625,2,2,B|128:320|128:308|280:308,1,180,2|2
424,192,25170,2,2,B|404:160|404:172|252:172,1,180,2|2
190,91,25716,1,0
92,121,25898,1,2
90,224,26080,1,0
187,258,26261,6,2,B|286:250|330:341,1,180,2|0
223,362,26807,1,2
223,362,26989,2,2,B|214:262|306:216,1,180,2|2
280,132,27534,1,2
368,148,27716,1,0
232,252,27898,5,2
144,236,28080,1,0
205,167,28261,2,2,B|100:116,1,115.2,2|2
101,116,28716,1,2
101,116,28807,1,2
256,24,29170,5,6
411,116,29534,6,0,B|388:201,1,90,2|0
308,364,29898,1,2
308,364,30080,2,0,B|285:278,1,90,2|0
430,146,30443,2,2,B|257:192,1,180,2|2
430,238,30989,2,2,B|257:192,1,180,2|2
256,191,31534,1,0
127,267,31716,1,2
127,114,31898,1,0
259,38,32080,6,2,B|358:30|402:120,1,180,2|0
403,213,32625,1,2
403,213,32807,2,2,B|357:305|258:297,1,180,2|2
256,192,33352,1,2
172,124,33534,1,0
188,276,33716,1,2
340,260,33898,1,0
324,108,34080,2,2,B|429:159,1,115.2,2|2
427,158,34534,1,2
427,158,34625,1,2
427,273,34807,5,2
324,324,34989,2,2,B|304:292|304:304|184:304,1,144,2|0
104,240,35534,1,2
207,189,35716,2,2,B|227:221|227:209|347:209,1,144,2|2
377,146,36261,1,0
449,146,36443,1,2
485,209,36625,1,2
449,271,36807,1,2
377,271,36989,2,2,B|262:271|262:259|242:291,1,144,2|2
121,322,37534,1,2
89,202,37716,5,0
209,169,37898,2,2,B|324:169|324:181|344:149,1,144,2|0
376,28,38443,1,2
256,61,38625,2,2,B|141:61|141:49|121:81,1,144,2|2
121,80,39170,1,0
15,156,39352,1,2
54,280,39534,1,2
186,279,39716,1,2
226,156,39898,1,2
440,192,40261,5,0
440,192,40352,1,0
440,192,40443,1,8
260,308,40807,6,2,B|352:308,2,90,2|0|8
160,256,41352,1,2
352,128,41534,1,2
192,192,41716,1,0
192,192,41807,1,0
192,192,41898,1,10
320,192,42080,1,0
320,192,42170,1,0
320,192,42261,5,2
260,76,42443,1,0
144,76,42625,2,0,B|56:76,1,90,10|0
382,152,42989,2,0,B|472:152,1,90,2|0
117,228,43352,2,0,B|27:228,1,90,10|0
256,192,43716,12,4,45170
382,210,45534,5,8
334,43,45716,1,0
160,40,45898,1,0
104,202,46079,1,0
241,307,46261,1,0
160,40,46625,6,2,B|62:60|41:160,1,180,6|0
137,311,47170,2,2,B|236:291|256:192,1,180,2|2
352,40,47716,1,0
160,40,47898,1,2
352,40,48079,2,2,B|451:59|471:158,1,180,6|0
376,311,48625,2,2,B|277:291|256:192,2,180
456,291,49534,6,0,B|436:323|436:311|376:311,1,90,6|0
108,268,49898,6,0,B|64:191,1,90,2|0
256,282,50261,2,0,B|256:194,1,90,2|0
404,268,50625,2,0,B|449:190,1,90,2|0
404,116,50989,2,2,B|264:116|264:116|252:104|252:104|240:116|240:116|228:116,1,180,2|2
449,190,51534,2,2,B|309:190|309:190|297:202|297:202|285:190|285:190|273:190,1,180,2|2
279,190,52079,1,2
271,190,52261,1,2
261,190,52443,1,4
108,40,52807,6,2,B|76:60|88:60|88:120,1,90,6|0
156,344,53170,2,2,B|188:324|176:324|176:172,1,180,6|2
176,172,53716,1,2
337,211,53898,1,0
104,232,54079,1,2
408,152,54261,1,0
256,192,54443,1,2
296,40,54625,5,2
408,152,54807,1,0
367,303,54989,1,2
215,343,55170,1,0
104,232,55352,6,0,B|82:146,1,90,2|0
167,58,55716,2,0,B|190:145,1,90,2|0
272,308,56079,2,2,B|357:363|441:308,1,180,2|2
359,144,56625,2,2,B|275:89|190:145,1,180,2|2
323,239,57170,1,2
191,144,57352,1,0
167,310,57534,1,2
191,144,57716,1,0
50,183,57898,1,2
134,33,58079,1,0
304,67,58261,6,2,B|422:118|408:247,1,224.999996647239,6|0
208,317,58807,2,2,B|91:265|105:136,1,224.999996647239
197,204,59352,1,0
52,288,59534,1,2
197,204,59716,2,2,B|215:331|341:352,1,224.999996647239
315,180,60261,2,2,B|296:52|170:31,2,224.999996647239
419,200,61170,6,0,B|336:200|336:212|316:180,1,112.499998323619,4|0
368,19,61534,2,0,B|452:20|452:8|472:40,1,112.499998323619,2|0
184,300,61898,2,0,B|164:332|164:320|80:320,1,112.499998323619,2|0
184,84,62261,2,0,B|164:52|164:64|80:63,1,112.499998323619,2|0
268,300,62625,2,2,B|288:332|288:320|488:320,1,224.999996647239,2|0
485,320,63170,1,0
485,320,63352,1,2
453,240,63534,1,0
453,240,63625,1,0
453,240,63716,1,2
373,208,63898,1,0
373,208,63989,1,0
373,208,64079,6,0,B|373:124|385:124|353:104,1,112.499998323619,2|0
282,321,64443,1,0
282,321,64625,2,2,B|282:122|294:122|264:104,1,224.999996647239,2|0
264,104,65170,5,0
70,119,65352,1,2
271,214,65534,1,0
79,232,65716,1,2
162,55,65898,1,2
180,278,66079,2,0,B|280:324,1,112.499998323619,2|0
471,237,66443,2,2,B|344:212|282:325,1,224.999996647239,2|2
256,192,66989,12,4,69898
399,279,70079,5,2
398,279,70261,2,0,B|422:193,1,90,10|0
279,279,70625,1,2
279,279,70807,2,0,B|256:193,1,90,2|8
256,193,71170,1,2
172,192,71352,5,0
112,106,71534,1,2
112,106,71716,2,0,B|89:193,1,90,10|0
232,106,72079,1,2
232,106,72261,2,0,B|256:193,1,90,2|8
256,193,72625,1,2
340,192,72807,5,0
426,77,72989,1,2
426,77,73170,2,0,B|339:100,1,90,10|0
426,307,73534,1,2
426,307,73716,2,0,B|339:283,1,90,2|8
256,103,74079,6,0,B|256:193,1,90,2|0
179,238,74443,2,0,B|256:193,1,90,2|8
380,306,74807,2,2,B|280:290|256:192,1,180,2|2
347,193,75352,1,8
179,147,75534,1,8
347,193,75716,5,4
408,256,75898,1,2
408,256,76079,2,0,B|386:342,1,90,10|0
406,69,76443,1,2
406,69,76625,2,0,B|429:155,1,90,2|8
347,193,76989,1,2
165,193,77170,5,0
104,256,77352,1,2
104,256,77534,2,0,B|126:342,1,90,10|0
106,69,77898,1,2
106,69,78079,2,0,B|83:155,1,90,2|8
165,193,78443,1,2
347,193,78625,5,0
392,115,78807,1,2
392,115,78989,2,0,B|347:193,1,90,10|0
392,270,79352,1,2
392,270,79534,2,0,B|347:193,1,90,2|8
165,193,79898,5,2
57,193,80079,1,0
132,295,80261,1,2
253,256,80443,1,10
253,129,80625,1,0
132,90,80807,1,2
132,249,80989,1,8
285,299,81170,1,10
379,169,81352,1,0
286,39,81534,5,4
168,105,81716,1,0
52,39,81898,2,0,B|28:125,1,90,8|0
286,173,82261,2,0,B|309:86,1,90
168,105,82625,1,8
421,173,82807,6,0,B|428:273|337:318,1,180,0|0
101,237,83352,2,0,B|77:151,1,90,8|0
265,107,83716,2,0,B|203:171,1,90,0|0
312,228,84079,2,0,B|398:250,1,90,8|0
208,296,84443,5,0
152,144,84625,1,0
304,88,84807,1,8
360,240,84989,1,0
396,80,85170,1,0
144,52,85352,1,0
116,304,85534,1,8
368,332,85716,1,0
256,192,85898,5,0
256,192,85989,1,0
256,192,86079,1,0
364,108,86261,1,8
148,276,86443,1,0
446,190,86625,1,0
66,194,86807,1,8
333,220,86989,1,8
179,164,87170,1,0
256,192,87352,1,4
256,192,87534,12,0,88807
256,192,88898,12,0,93170
