osu file format v9

[General]
AudioFilename: 1.mp3
AudioLeadIn: 1000
PreviewTime: 46625
Countdown: 0
SampleSet: Normal
StackLeniency: 0.7
Mode: 0
LetterboxInBreaks: 0

[Editor]
DistanceSpacing: 0
BeatDivisor: 4
GridSize: 4

[Metadata]
Title:Just Be With You (Short Ver.)
Artist:ave;new feat. Sakura Saori
Creator:those
Version:Hard
Source:Angel Breath
Tags:ave new project vn hentai eroge giga 2006 kantoku Odaril Kurosanyan

[Difficulty]
HPDrainRate:5
CircleSize:4
OverallDifficulty:5
ApproachRate:7
SliderMultiplier:1.5
SliderTickRate:2

[Events]
//Background and Video events
0,0,"1.jpg"
//Break Periods
//Storyboard Layer 0 (Background)
//Storyboard Layer 1 (Fail)
//Storyboard Layer 2 (Pass)
//Storyboard Layer 3 (Foreground)
//Storyboard Sound Samples
//Background Colour Transformations
3,100,163,162,255

[TimingPoints]
80,363.636363636364,4,1,0,55,1,0
23716,-100,4,1,0,55,0,0
34989,-125,4,1,0,35,0,0
35352,-100,4,1,0,35,0,0
35716,-125,4,1,0,35,0,0
36443,-100,4,1,0,35,0,0
36989,-125,4,1,0,35,0,0
39352,-100,4,1,0,55,0,0
46625,-100,4,1,0,70,0,1
52443,-100,4,1,0,70,0,0
58261,-100,4,1,0,70,0,1
69898,-100,4,1,0,55,0,0
88989,-100,4,2,0,97,0,0
89170,-100,4,2,0,93,0,0
89352,-100,4,2,0,89,0,0
89534,-100,4,2,0,85,0,0
89716,-100,4,2,0,81,0,0
89898,-100,4,2,0,77,0,0
90080,-100,4,2,0,73,0,0
90261,-100,4,2,0,69,0,0
90443,-100,4,2,0,65,0,0
90625,-100,4,2,0,61,0,0
90807,-100,4,2,0,57,0,0
90989,-100,4,2,0,53,0,0
91170,-100,4,2,0,49,0,0
91352,-100,4,2,0,45,0,0
91534,-100,4,2,0,41,0,0
91716,-100,4,2,0,37,0,0
91898,-100,4,2,0,33,0,0
92080,-100,4,2,0,29,0,0
92261,-100,4,2,0,25,0,0
92443,-100,4,2,0,21,0,0
92625,-100,4,2,0,17,0,0
92807,-100,4,2,0,13,0,0
92989,-100,4,2,0,9,0,0
93170,-100,4,2,0,5,0,0

[Colours]
Combo1 : 255,180,255
Combo2 : 255,180,180

[HitObjects]
256,192,2989,12,4,4443
111,194,5898,6,0,B|147:121|112:50,1,150
256,88,6625,2,0,B|332:88,1,75,2|2
406,88,6989,2,0,B|331:88,1,75,0|2
358,158,7352,6,0,B|321:230|357:302,1,150,0|2
208,324,8080,2,0,B|132:324,1,75,2|2
58,324,8443,2,0,B|133:324,1,75,0|2
115,251,8807,6,0,B|47:206|42:126,1,150,0|2
192,104,9534,2,0,B|231:99|254:68,1,75,2|2
324,40,9898,1,0
372,100,10080,6,2,B|439:144|443:224,1,150,2|0
408,292,10625,1,0
336,316,10807,2,2,B|264:280|191:316,1,150,2|0
166,244,11352,1,2
92,240,11534,1,0
66,168,11716,5,4
210,129,12080,1,8
354,168,12443,2,0,B|427:187,1,75,2|2
426,262,12807,2,0,B|353:242,1,75,8|2
353,317,13170,5,0
208,278,13534,1,8
103,173,13898,2,0,B|83:99,1,75,2|2
149,63,14261,2,0,B|168:135,1,75,8|2
232,176,14625,6,0,B|304:212|377:176,1,150,0|8
400,28,15352,1,2
336,68,15534,1,2
232,176,15898,6,2,B|178:236|194:316,1,150,2|0
194,315,16443,1,8
92,264,16625,2,2,B|145:203|129:123,1,150,2|0
60,96,17170,1,10
129,124,17352,1,0
200,96,17534,5,0
256,236,17898,1,8
312,96,18261,2,0,B|342:120|381:114,1,75,2|2
452,132,18625,2,0,B|421:107|381:113,1,75,8|2
347,181,18989,5,0
199,181,19352,1,8
132,48,19716,2,0,B|148:83|135:119,1,75,2|2
139,192,20080,2,0,B|120:156|134:119,1,75,8|2
204,88,20443,6,0,B|276:52|349:88,1,150,0|8
360,236,21170,1,2
288,256,21352,1,2
148,284,21716,6,2,B|67:279|22:211,1,150,2|0
22,212,22261,1,8
112,140,22443,2,2,B|192:144|237:212,1,150,2|8
324,284,22989,1,10
344,172,23170,1,0
237,211,23352,1,4
176,72,23716,6,0,B|154:38|115:31,1,75
40,40,24080,1,8
36,116,24261,2,0,B|57:149|96:156,1,75,0|0
172,152,24625,6,0,B|215:84|296:79,1,150
400,120,25170,2,0,B|356:187|275:192,1,150,0|8
212,236,25716,1,0
212,236,25898,1,0
272,284,26080,1,0
336,244,26261,6,0,B|352:164|297:105,1,150
364,68,26807,1,0
440,80,26989,2,0,B|423:159|478:218,1,150,8|0
424,296,27534,5,0
328,296,27716,1,8
240,328,27898,1,8
332,340,28080,1,0
380,260,28261,6,0,B|319:204|240:220,1,150,8|0
188,166,28807,1,8
114,186,28989,1,0
207,93,29170,6,0,B|267:39|348:57,2,150,0|0|8
188,166,30080,2,0,B|259:191,1,75
215,252,30443,6,0,B|354:302,1,150
452,244,30989,2,0,B|312:193,1,150,0|8
284,124,31534,1,0
324,60,31716,1,0
396,40,31898,1,0
472,36,32080,6,0,B|520:99|497:178,1,150
424,196,32625,1,0
352,172,32807,2,0,B|328:250|377:314,1,150,8|0
288,340,33352,5,0
212,284,33534,1,8
300,284,33716,1,8
224,340,33898,5,0
135,313,34080,2,0,B|91:243|10:238,1,150,8|0
20,164,34625,1,8
20,164,34807,1,0
88,124,34989,6,0,B|200:82,1,120
262,124,35534,1,0
322,170,35716,2,0,B|434:128,2,120
216,212,36625,5,0
322,170,36807,1,0
396,252,36989,2,0,B|441:202|504:222,2,120
292,292,37898,6,0,B|246:341|183:321,1,120
176,140,38625,2,0,B|112:119|67:169,1,120
67,169,39170,1,0
160,232,39352,5,0
256,169,39534,1,0
352,232,39716,1,0
445,169,39898,2,0,B|377:125|372:44,1,150
372,44,40443,1,8
304,80,40625,1,8
236,44,40807,6,0,B|231:125|163:168,1,150,4|0
228,208,41352,1,0
296,244,41534,2,0,B|227:287|222:368,2,150,8|0|0
449,231,42625,6,0,B|375:211,1,75
412,296,42989,2,0,B|485:315,1,75,8|0
412,370,43352,2,0,B|338:350,1,75
268,328,43716,6,0,B|200:284|195:203,1,150,0|8
195,203,44261,1,0
195,203,44443,1,8
304,60,44807,1,0
392,216,45170,1,4
288,324,45534,6,0,B|254:302|247:263,1,75,8|2
348,169,45898,2,0,B|346:210|316:236,1,75,0|2
256,192,46261,1,2
172,48,46625,6,2,B|95:73|71:150,1,150,6|0
160,148,47170,2,2,B|219:93|298:109,1,150,2|0
256,192,47716,1,2
340,336,48079,6,2,B|416:310|440:233,1,150,2|0
352,236,48625,2,2,B|292:290|213:274,1,150,2|0
256,192,49170,1,2
356,80,49534,6,0,B|337:43|350:6,1,75,0|0
435,52,49898,2,0,B|471:33|508:46,1,75,0|0
462,132,50261,2,0,B|480:168|467:205,1,75,8|0
383,159,50625,2,0,B|346:177|309:164,1,75,0|0
244,104,50989,6,2,B|236:100|236:100|236:108|236:108|228:104|220:104|100:104,1,150,2|0
236,192,51534,2,2,B|228:188|228:188|228:196|228:196|220:192|212:192|95:192,1,150,2|0
228,280,52079,2,2,B|220:276|220:276|220:284|220:284|212:280|204:280|84:280,1,150,2|4
228,280,52807,5,0
336,176,53170,2,0,B|395:121|474:137,2,150,8|0|0
280,228,54079,1,0
228,280,54261,1,2
188,344,54443,1,0
264,344,54625,5,10
228,280,54807,1,0
172,228,54989,1,0
104,196,55170,1,2
164,148,55352,6,0,B|240:122|264:45,1,150,0|0
414,44,56079,2,0,B|338:70|314:147,1,150,8|0
313,147,56625,1,2
352,228,56807,6,0,B|421:257,1,75,2|0
306,324,57170,2,0,B|268:260,1,75,2|2
180,236,57534,2,0,B|173:310,1,75,8|2
46,256,57898,2,0,B|96:200,1,75,2|0
32,136,58261,6,2,B|56:58|132:32,1,150,6|0
152,120,58807,2,2,B|300:120,1,150,2|0
356,192,59352,1,2
480,248,59716,6,2,B|456:326|380:352,1,150,2|0
360,264,60261,2,2,B|212:264,2,150,2|0|0
412,192,61170,6,0,B|481:163,1,75,0|0
366,96,61534,2,0,B|328:160,1,75,2|0
240,184,61898,2,0,B|233:110,1,75,8|0
106,164,62261,2,0,B|156:220,2,75,2|0|2
106,344,62989,5,0
106,344,63170,1,0
256,244,63534,1,0
256,244,63716,1,0
406,144,64079,5,0
424,232,64261,1,0
491,171,64443,1,10
406,144,64625,2,0,B|327:160|266:107,1,150,0|2
176,108,65170,1,8
132,188,65352,6,2,B|210:171|271:224,1,150,2|2
356,251,65898,1,10
289,312,66079,2,2,B|252:330|215:317,1,75,2|0
128,300,66443,2,2,B|51:275|25:199,1,150,2|2
256,192,66989,12,4,69898
440,192,70261,5,8
384,332,70625,2,0,B|308:339,1,75,2|2
284,268,70989,2,0,B|359:261,1,75,8|2
333,191,71352,5,0
182,191,71716,1,8
308,112,72080,2,0,B|327:39,1,75,2|2
402,39,72444,2,0,B|382:112,1,75,8|2
444,156,72807,6,0,B|480:228|444:301,1,150,0|8
296,320,73534,1,2
232,280,73716,1,2
96,220,74080,6,2,B|42:160|58:80,1,150,2|0
57,80,74625,1,8
168,104,74807,2,2,B|222:164|206:244,1,150,2|0
142,282,75352,1,10
206,243,75534,1,0
280,258,75716,5,0
415,193,76080,1,8
392,341,76443,2,0,B|360:317|356:278,1,75,2|2
320,215,76807,2,0,B|351:238|356:278,1,75,8|2
308,336,77171,5,0
164,292,77534,1,8
284,204,77898,2,0,B|308:173|346:170,1,75,2|2
412,135,78262,2,0,B|386:166|347:169,1,75,8|2
304,108,78625,6,0,B|244:51|164:64,1,150,0|8
28,131,79352,1,2
72,191,79534,1,2
191,281,79898,6,2,B|251:334|331:318,1,150,2|0
330,318,80443,1,8
395,229,80625,2,2,B|334:175|256:192,1,150,2|8
280,80,81170,1,10
173,119,81352,1,0
256,192,81534,5,6
324,154,81716,2,0,B|360:135|397:148,2,75,0|8|0
324,230,82261,2,0,B|360:249|397:236,2,75,0|0|10
256,192,82807,1,2
124,120,83170,6,0,B|106:83|68:72,2,75,0|10|0
100,192,83716,1,2
124,264,83898,2,0,B|106:301|68:312,2,75,0|10|8
196,280,84443,6,0,B|272:280,1,75,2|0
271,159,84807,2,0,B|196:159,1,75,10|0
344,212,85170,2,0,B|420:212,1,75,2|0
419,98,85534,2,0,B|343:98,1,75,10|0
228,192,85898,6,0,B|304:192,1,75,2|0
303,313,86262,2,0,B|228:313,1,75,10|0
100,236,86625,2,0,B|176:236,1,75,2|0
175,122,86989,2,0,B|99:122,2,75,10|0|6
256,192,87534,12,4,88807
256,192,88898,12,0,93170
