osu file format v12

[General]
AudioFilename: 05 Iris.mp3
AudioLeadIn: 1985
PreviewTime: 56393
Countdown: 0
SampleSet: Normal
StackLeniency: 0.7
Mode: 1
LetterboxInBreaks: 0
WidescreenStoryboard: 0

[Editor]
Bookmarks: 12684,56564,265021
DistanceSpacing: 0.6
BeatDivisor: 4
GridSize: 32

[Metadata]
Title:Iris
TitleUnicode:Iris
Artist:ave;new feat. Sakura Saori
ArtistUnicode:ave;new feat. Sakura Saori
Creator:inaba-tan
Version:Oni
Source:Lovable
Tags:Taiko
BeatmapID:209876
BeatmapSetID:73763

[Difficulty]
HPDrainRate:6
CircleSize:5
OverallDifficulty:5
ApproachRate:6
SliderMultiplier:1.6
SliderTickRate:1

[Events]
//Background and Video events
0,0,"20130328222425d91s-2.jpg",0,0
//Break Periods
//Storyboard Layer 0 (Background)
//Storyboard Layer 1 (Fail)
//Storyboard Layer 2 (Pass)
//Storyboard Layer 3 (Foreground)
//Storyboard Sound Samples
//Background Colour Transformations
3,100,163,162,255

[TimingPoints]
336,342.857142857143,4,1,0,100,1,0
56564,-100,4,1,0,100,0,1
78507,-100,4,1,0,100,0,0
133364,-100,4,1,0,100,0,1
177250,-100,4,1,0,100,0,0
210164,-100,4,1,0,100,0,1
232107,-100,4,1,0,100,0,0

[HitObjects]
256,192,336,1,8,0:0:0:0:
256,192,507,5,0,0:0:0:0:
256,192,593,1,0,0:0:0:0:
256,192,678,1,0,0:0:0:0:
256,192,850,5,8,0:0:0:0:
256,192,1021,5,0,0:0:0:0:
256,192,1107,1,0,0:0:0:0:
256,192,1193,1,0,0:0:0:0:
256,192,1364,5,8,0:0:0:0:
256,192,1536,1,0,0:0:0:0:
256,192,1707,5,4,0:0:0:0:
256,192,2050,1,0,0:0:0:0:
256,192,2393,1,0,0:0:0:0:
256,192,2736,1,0,0:0:0:0:
256,192,3078,1,0,0:0:0:0:
256,192,3421,1,0,0:0:0:0:
256,192,3764,1,0,0:0:0:0:
256,192,3936,1,0,0:0:0:0:
256,192,4107,1,8,0:0:0:0:
256,192,4278,1,0,0:0:0:0:
256,192,4450,1,0,0:0:0:0:
256,192,4793,1,0,0:0:0:0:
256,192,5136,1,0,0:0:0:0:
256,192,5478,1,0,0:0:0:0:
256,192,5821,1,0,0:0:0:0:
256,192,5993,1,0,0:0:0:0:
256,192,6164,1,0,0:0:0:0:
256,192,6336,1,0,0:0:0:0:
256,192,6507,1,0,0:0:0:0:
256,192,6678,1,0,0:0:0:0:
256,192,6850,5,8,0:0:0:0:
256,192,7021,5,0,0:0:0:0:
256,192,7193,1,0,0:0:0:0:
256,192,7536,1,0,0:0:0:0:
256,192,7878,1,0,0:0:0:0:
256,192,8221,1,0,0:0:0:0:
256,192,8564,1,0,0:0:0:0:
256,192,8907,1,0,0:0:0:0:
256,192,9250,1,0,0:0:0:0:
256,192,9421,1,0,0:0:0:0:
256,192,9593,1,8,0:0:0:0:
256,192,9764,1,0,0:0:0:0:
256,192,9936,1,0,0:0:0:0:
256,192,10278,1,0,0:0:0:0:
256,192,10621,1,0,0:0:0:0:
256,192,10964,1,0,0:0:0:0:
256,192,11307,1,0,0:0:0:0:
256,192,11478,1,0,0:0:0:0:
256,192,11649,1,8,0:0:0:0:
256,192,11821,1,0,0:0:0:0:
256,192,11992,1,0,0:0:0:0:
256,192,12163,1,0,0:0:0:0:
256,192,12335,5,8,0:0:0:0:
256,192,12507,5,8,0:0:0:0:
256,192,12678,1,4,0:0:0:0:
256,192,13021,5,8,0:0:0:0:
256,192,13536,5,0,0:0:0:0:
256,192,13878,5,8,0:0:0:0:
256,192,14221,5,0,0:0:0:0:
256,192,14393,5,8,0:0:0:0:
256,192,14736,5,0,0:0:0:0:
256,192,14907,1,0,0:0:0:0:
256,192,15078,5,8,0:0:0:0:
256,192,15421,5,0,0:0:0:0:
256,192,15764,5,8,0:0:0:0:
256,192,16278,5,0,0:0:0:0:
256,192,16621,5,8,0:0:0:0:
256,192,16964,5,0,0:0:0:0:
256,192,17136,5,8,0:0:0:0:
256,192,17478,5,0,0:0:0:0:
256,192,17649,1,0,0:0:0:0:
256,192,17821,5,8,0:0:0:0:
256,192,18164,5,4,0:0:0:0:
256,192,18507,5,8,0:0:0:0:
256,192,19021,5,0,0:0:0:0:
256,192,19364,5,8,0:0:0:0:
256,192,19707,5,0,0:0:0:0:
256,192,19878,5,8,0:0:0:0:
256,192,20221,5,0,0:0:0:0:
256,192,20393,1,0,0:0:0:0:
256,192,20564,5,8,0:0:0:0:
256,192,20907,5,0,0:0:0:0:
256,192,21250,5,8,0:0:0:0:
256,192,21764,5,0,0:0:0:0:
256,192,22107,1,8,0:0:0:0:
256,192,22278,1,0,0:0:0:0:
256,192,22364,1,0,0:0:0:0:
256,192,22450,1,0,0:0:0:0:
256,192,22536,1,0,0:0:0:0:
256,192,22621,1,8,0:0:0:0:
256,192,22793,1,0,0:0:0:0:
256,192,22878,1,0,0:0:0:0:
256,192,22964,1,0,0:0:0:0:
256,192,23136,1,0,0:0:0:0:
256,192,23307,5,8,0:0:0:0:
256,192,23650,5,4,0:0:0:0:
256,192,23993,5,8,0:0:0:0:
256,192,24336,5,0,0:0:0:0:
256,192,24507,1,0,0:0:0:0:
256,192,24679,5,8,0:0:0:0:
256,192,24850,5,0,0:0:0:0:
256,192,25193,1,0,0:0:0:0:
256,192,25364,5,8,0:0:0:0:
256,192,25536,1,8,0:0:0:0:
256,192,25707,1,0,0:0:0:0:
256,192,25878,5,0,0:0:0:0:
256,192,26050,5,8,0:0:0:0:
256,192,26222,1,8,0:0:0:0:
256,192,26393,5,0,0:0:0:0:
256,192,26736,5,8,0:0:0:0:
256,192,27078,5,0,0:0:0:0:
256,192,27250,1,0,0:0:0:0:
256,192,27421,5,8,0:0:0:0:
256,192,27593,5,0,0:0:0:0:
256,192,27936,5,0,0:0:0:0:
256,192,28107,1,8,0:0:0:0:
256,192,28278,5,0,0:0:0:0:
256,192,28621,1,0,0:0:0:0:
256,192,28793,5,8,0:0:0:0:
256,192,28964,1,8,0:0:0:0:
256,192,29136,5,4,0:0:0:0:
256,192,29478,5,8,0:0:0:0:
256,192,29821,5,0,0:0:0:0:
256,192,29993,1,0,0:0:0:0:
256,192,30164,5,8,0:0:0:0:
256,192,30336,5,0,0:0:0:0:
256,192,30678,5,8,0:0:0:0:
256,192,30850,5,0,0:0:0:0:
256,192,31021,5,8,0:0:0:0:
256,192,31193,5,0,0:0:0:0:
256,192,31364,5,0,0:0:0:0:
256,192,31536,1,8,0:0:0:0:
256,192,31707,5,0,0:0:0:0:
256,192,31879,1,0,0:0:0:0:
256,192,32221,5,8,0:0:0:0:
256,192,32393,5,0,0:0:0:0:
256,192,32564,1,0,0:0:0:0:
256,192,32907,5,8,0:0:0:0:
256,192,33078,1,4,0:0:0:0:
256,192,33421,5,0,0:0:0:0:
256,192,33593,5,8,0:0:0:0:
256,192,33764,5,4,0:0:0:0:
256,192,34107,1,0,0:0:0:0:
256,192,34278,5,8,0:0:0:0:
256,192,34621,5,4,0:0:0:0:
256,192,34793,1,0,0:0:0:0:
256,192,34964,5,8,0:0:0:0:
256,192,35307,5,0,0:0:0:0:
256,192,35650,5,8,0:0:0:0:
256,192,35993,1,8,0:0:0:0:
256,192,36164,5,0,0:0:0:0:
256,192,36507,1,0,0:0:0:0:
256,192,36850,1,0,0:0:0:0:
256,192,37021,5,8,0:0:0:0:
256,192,37364,5,0,0:0:0:0:
256,192,37536,1,0,0:0:0:0:
256,192,37707,5,8,0:0:0:0:
256,192,38050,5,8,0:0:0:0:
256,192,38393,5,8,0:0:0:0:
256,192,38564,5,0,0:0:0:0:
256,192,38736,5,8,0:0:0:0:
256,192,38907,1,8,0:0:0:0:
256,192,39079,5,0,0:0:0:0:
256,192,39250,5,8,0:0:0:0:
256,192,39593,5,0,0:0:0:0:
256,192,39764,5,8,0:0:0:0:
256,192,39936,1,8,0:0:0:0:
256,192,40107,5,4,0:0:0:0:
256,192,40278,1,0,0:0:0:0:
256,192,40450,5,8,0:0:0:0:
256,192,40793,5,0,0:0:0:0:
256,192,41136,5,8,0:0:0:0:
256,192,41307,1,8,0:0:0:0:
256,192,41478,5,0,0:0:0:0:
256,192,41650,1,0,0:0:0:0:
256,192,41821,5,8,0:0:0:0:
256,192,41993,5,0,0:0:0:0:
256,192,42336,1,0,0:0:0:0:
256,192,42507,5,8,0:0:0:0:
256,192,42678,1,8,0:0:0:0:
256,192,42850,5,4,0:0:0:0:
256,192,43021,1,0,0:0:0:0:
256,192,43193,5,8,0:0:0:0:
256,192,43536,5,8,0:0:0:0:
256,192,43878,5,8,0:0:0:0:
256,192,44050,5,0,0:0:0:0:
256,192,44221,5,8,0:0:0:0:
256,192,44393,1,8,0:0:0:0:
256,192,44564,5,0,0:0:0:0:
256,192,44736,5,8,0:0:0:0:
256,192,44907,5,0,0:0:0:0:
256,192,45078,1,0,0:0:0:0:
256,192,45250,1,8,0:0:0:0:
256,192,45421,1,0,0:0:0:0:
256,192,45593,1,4,0:0:0:0:
256,192,45936,5,8,0:0:0:0:
256,192,46107,5,0,0:0:0:0:
256,192,46278,5,8,0:0:0:0:
256,192,46793,1,8,0:0:0:0:
256,192,47136,5,0,0:0:0:0:
256,192,47307,1,0,0:0:0:0:
256,192,47650,5,8,0:0:0:0:
256,192,48336,5,0,0:0:0:0:
256,192,48507,1,0,0:0:0:0:
256,192,48850,1,0,0:0:0:0:
256,192,49021,5,8,0:0:0:0:
256,192,49536,1,8,0:0:0:0:
256,192,49878,1,0,0:0:0:0:
256,192,50050,5,0,0:0:0:0:
256,192,50393,5,8,0:0:0:0:
256,192,51078,5,4,0:0:0:0:
256,192,51250,1,0,0:0:0:0:
256,192,51593,1,0,0:0:0:0:
256,192,51764,5,8,0:0:0:0:
256,192,52278,1,8,0:0:0:0:
256,192,52621,1,0,0:0:0:0:
256,192,52793,5,0,0:0:0:0:
256,192,53136,5,8,0:0:0:0:
256,192,53821,5,0,0:0:0:0:
256,192,53993,1,0,0:0:0:0:
256,192,54336,1,0,0:0:0:0:
256,192,54507,5,8,0:0:0:0:
256,192,55021,1,0,0:0:0:0:
256,192,55193,5,0,0:0:0:0:
256,192,55278,1,0,0:0:0:0:
256,192,55364,5,0,0:0:0:0:
256,192,55450,1,8,0:0:0:0:
256,192,55536,1,8,0:0:0:0:
256,192,55621,1,8,0:0:0:0:
256,192,55707,5,0,0:0:0:0:
256,192,55793,1,0,0:0:0:0:
256,192,55878,1,0,0:0:0:0:
256,192,55964,5,8,0:0:0:0:
256,192,56050,1,8,0:0:0:0:
256,192,56136,1,8,0:0:0:0:
256,192,56221,5,0,0:0:0:0:
256,192,56393,1,0,0:0:0:0:
256,192,56478,1,0,0:0:0:0:
256,192,56564,5,8,0:0:0:0:
256,192,56907,1,8,0:0:0:0:
256,192,57078,5,0,0:0:0:0:
256,192,57164,1,0,0:0:0:0:
256,192,57250,1,0,0:0:0:0:
256,192,57421,1,0,0:0:0:0:
256,192,57593,5,8,0:0:0:0:
256,192,57764,1,8,0:0:0:0:
256,192,57850,1,8,0:0:0:0:
256,192,57936,5,0,0:0:0:0:
256,192,58107,5,8,0:0:0:0:
256,192,58192,1,8,0:0:0:0:
256,192,58278,5,0,0:0:0:0:
256,192,58450,5,8,0:0:0:0:
256,192,58621,5,0,0:0:0:0:
256,192,58707,1,0,0:0:0:0:
256,192,58793,1,0,0:0:0:0:
256,192,58878,1,0,0:0:0:0:
256,192,58964,5,8,0:0:0:0:
256,192,59136,5,8,0:0:0:0:
256,192,59307,1,0,0:0:0:0:
256,192,59650,5,8,0:0:0:0:
256,192,59821,5,0,0:0:0:0:
256,192,59907,1,0,0:0:0:0:
256,192,59993,5,8,0:0:0:0:
256,192,60164,5,0,0:0:0:0:
256,192,60336,5,8,0:0:0:0:
256,192,60507,1,8,0:0:0:0:
256,192,60678,5,0,0:0:0:0:
256,192,60850,5,8,0:0:0:0:
256,192,60936,1,8,0:0:0:0:
256,192,61021,5,0,0:0:0:0:
256,192,61193,5,8,0:0:0:0:
256,192,61278,5,0,0:0:0:0:
256,192,61364,5,8,0:0:0:0:
256,192,61536,5,0,0:0:0:0:
256,192,61621,1,0,0:0:0:0:
256,192,61707,5,8,0:0:0:0:
256,192,61878,1,8,0:0:0:0:
256,192,62050,5,4,0:0:0:0:
256,192,62393,5,8,0:0:0:0:
256,192,62478,1,8,0:0:0:0:
256,192,62564,5,0,0:0:0:0:
256,192,62736,1,0,0:0:0:0:
256,192,62907,1,8,0:0:0:0:
256,192,63078,5,8,0:0:0:0:
256,192,63250,5,0,0:0:0:0:
256,192,63336,1,0,0:0:0:0:
256,192,63422,5,8,0:0:0:0:
256,192,63593,1,8,0:0:0:0:
256,192,63764,5,0,0:0:0:0:
256,192,63850,1,0,0:0:0:0:
256,192,63936,5,8,0:0:0:0:
256,192,64107,1,8,0:0:0:0:
256,192,64278,5,0,0:0:0:0:
256,192,64364,1,0,0:0:0:0:
256,192,64450,5,8,0:0:0:0:
256,192,64536,5,0,0:0:0:0:
256,192,64622,5,8,0:0:0:0:
256,192,64793,5,4,0:0:0:0:
256,192,65136,5,8,0:0:0:0:
256,192,65478,5,0,0:0:0:0:
256,192,65650,1,0,0:0:0:0:
256,192,65821,5,8,0:0:0:0:
256,192,65993,1,12,0:0:0:0:
256,192,66336,5,0,0:0:0:0:
256,192,66507,5,8,0:0:0:0:
256,192,66678,1,12,0:0:0:0:
256,192,67021,5,0,0:0:0:0:
256,192,67193,5,8,0:0:0:0:
256,192,67536,5,4,0:0:0:0:
256,192,67878,5,8,0:0:0:0:
256,192,68050,5,0,0:0:0:0:
256,192,68136,1,0,0:0:0:0:
256,192,68221,1,0,0:0:0:0:
256,192,68393,1,0,0:0:0:0:
256,192,68564,5,8,0:0:0:0:
256,192,68736,1,8,0:0:0:0:
256,192,68821,1,8,0:0:0:0:
256,192,68907,5,0,0:0:0:0:
256,192,69078,5,8,0:0:0:0:
256,192,69164,5,0,0:0:0:0:
256,192,69250,5,8,0:0:0:0:
256,192,69421,1,8,0:0:0:0:
256,192,69507,1,8,0:0:0:0:
256,192,69592,5,0,0:0:0:0:
256,192,69763,1,0,0:0:0:0:
256,192,69936,5,8,0:0:0:0:
256,192,70107,5,8,0:0:0:0:
256,192,70278,1,4,0:0:0:0:
256,192,70621,5,8,0:0:0:0:
256,192,70793,5,0,0:0:0:0:
256,192,70878,1,0,0:0:0:0:
256,192,70964,5,8,0:0:0:0:
256,192,71136,1,0,0:0:0:0:
256,192,71307,1,8,0:0:0:0:
256,192,71478,5,4,0:0:0:0:
256,192,71821,5,8,0:0:0:0:
256,192,71993,1,8,0:0:0:0:
256,192,72164,5,0,0:0:0:0:
256,192,72250,1,0,0:0:0:0:
256,192,72336,5,8,0:0:0:0:
256,192,72507,1,8,0:0:0:0:
256,192,72593,1,8,0:0:0:0:
256,192,72678,5,0,0:0:0:0:
256,192,72850,5,8,0:0:0:0:
256,192,73021,5,4,0:0:0:0:
256,192,73364,5,8,0:0:0:0:
256,192,73706,5,0,0:0:0:0:
256,192,73793,1,0,0:0:0:0:
256,192,73878,1,0,0:0:0:0:
256,192,74049,5,8,0:0:0:0:
256,192,74221,5,0,0:0:0:0:
256,192,74393,1,4,0:0:0:0:
256,192,74736,5,8,0:0:0:0:
256,192,74907,5,0,0:0:0:0:
256,192,75250,1,0,0:0:0:0:
256,192,75336,1,0,0:0:0:0:
256,192,75421,5,8,0:0:0:0:
256,192,75593,1,8,0:0:0:0:
256,192,75764,5,4,0:0:0:0:
256,192,76107,5,8,0:0:0:0:
256,192,76450,5,0,0:0:0:0:
256,192,76536,1,0,0:0:0:0:
256,192,76622,1,0,0:0:0:0:
256,192,76707,1,0,0:0:0:0:
256,192,76793,5,8,0:0:0:0:
256,192,76964,5,4,0:0:0:0:
256,192,77307,1,0,0:0:0:0:
256,192,77478,5,8,0:0:0:0:
256,192,77650,5,4,0:0:0:0:
256,192,77821,1,0,0:0:0:0:
256,192,77907,5,8,0:0:0:0:
256,192,77993,1,8,0:0:0:0:
256,192,78078,1,8,0:0:0:0:
256,192,78164,5,0,0:0:0:0:
256,192,78336,1,0,0:0:0:0:
256,192,78507,1,4,0:0:0:0:
256,192,78850,5,8,0:0:0:0:
256,192,79193,5,0,0:0:0:0:
256,192,79364,1,0,0:0:0:0:
256,192,79536,5,8,0:0:0:0:
256,192,79707,5,0,0:0:0:0:
256,192,80050,1,0,0:0:0:0:
256,192,80221,5,8,0:0:0:0:
256,192,80564,5,0,0:0:0:0:
256,192,80736,1,0,0:0:0:0:
256,192,80907,5,8,0:0:0:0:
256,192,81250,5,0,0:0:0:0:
256,192,81593,5,8,0:0:0:0:
256,192,81936,5,0,0:0:0:0:
256,192,82107,1,0,0:0:0:0:
256,192,82278,5,8,0:0:0:0:
256,192,82450,5,0,0:0:0:0:
256,192,82793,1,0,0:0:0:0:
256,192,82964,5,8,0:0:0:0:
256,192,83136,1,8,0:0:0:0:
256,192,83307,1,0,0:0:0:0:
256,192,83479,5,0,0:0:0:0:
256,192,83650,5,8,0:0:0:0:
256,192,83821,1,8,0:0:0:0:
256,192,83993,5,4,0:0:0:0:
256,192,84336,5,8,0:0:0:0:
256,192,84678,5,0,0:0:0:0:
256,192,84850,1,0,0:0:0:0:
256,192,85021,5,8,0:0:0:0:
256,192,85193,5,0,0:0:0:0:
256,192,85536,1,0,0:0:0:0:
256,192,85707,5,8,0:0:0:0:
256,192,86050,5,0,0:0:0:0:
256,192,86221,1,0,0:0:0:0:
256,192,86393,5,8,0:0:0:0:
256,192,86736,5,0,0:0:0:0:
256,192,87079,5,8,0:0:0:0:
256,192,87421,5,0,0:0:0:0:
256,192,87593,1,0,0:0:0:0:
256,192,87764,5,8,0:0:0:0:
256,192,87936,5,0,0:0:0:0:
256,192,88278,5,8,0:0:0:0:
256,192,88450,1,8,0:0:0:0:
256,192,88621,5,0,0:0:0:0:
256,192,88964,5,8,0:0:0:0:
256,192,89136,1,8,0:0:0:0:
256,192,89307,1,8,0:0:0:0:
256,192,89478,5,0,0:0:0:0:
256,192,89821,1,4,0:0:0:0:
256,192,90336,1,0,0:0:0:0:
256,192,90507,1,0,0:0:0:0:
256,192,90678,1,0,0:0:0:0:
256,192,91021,1,0,0:0:0:0:
256,192,91193,5,8,0:0:0:0:
256,192,91536,5,0,0:0:0:0:
256,192,91878,5,8,0:0:0:0:
256,192,92221,5,0,0:0:0:0:
256,192,92564,5,8,0:0:0:0:
256,192,93078,5,0,0:0:0:0:
256,192,93421,5,8,0:0:0:0:
256,192,93764,5,0,0:0:0:0:
256,192,93936,5,8,0:0:0:0:
256,192,94278,5,0,0:0:0:0:
256,192,94450,1,0,0:0:0:0:
256,192,94621,5,8,0:0:0:0:
256,192,94964,5,4,0:0:0:0:
256,192,95307,5,8,0:0:0:0:
256,192,95821,5,0,0:0:0:0:
256,192,96164,5,8,0:0:0:0:
256,192,96507,5,0,0:0:0:0:
256,192,96678,5,8,0:0:0:0:
256,192,97021,5,0,0:0:0:0:
256,192,97193,1,0,0:0:0:0:
256,192,97364,5,8,0:0:0:0:
256,192,97707,5,0,0:0:0:0:
256,192,98050,5,8,0:0:0:0:
256,192,98564,5,0,0:0:0:0:
256,192,98907,5,8,0:0:0:0:
256,192,99250,1,0,0:0:0:0:
256,192,99421,1,8,0:0:0:0:
256,192,99507,1,8,0:0:0:0:
256,192,99593,5,0,0:0:0:0:
256,192,99678,1,0,0:0:0:0:
256,192,99764,1,0,0:0:0:0:
256,192,99936,5,8,0:0:0:0:
256,192,100021,5,0,0:0:0:0:
256,192,100107,5,8,0:0:0:0:
256,192,100193,5,0,0:0:0:0:
256,192,100278,1,0,0:0:0:0:
256,192,100450,1,4,0:0:0:0:
256,192,100793,5,8,0:0:0:0:
256,192,101136,5,0,0:0:0:0:
256,192,101307,1,0,0:0:0:0:
256,192,101479,5,8,0:0:0:0:
256,192,101650,5,0,0:0:0:0:
256,192,101993,5,8,0:0:0:0:
256,192,102164,1,8,0:0:0:0:
256,192,102336,5,0,0:0:0:0:
256,192,102507,5,8,0:0:0:0:
256,192,102679,5,0,0:0:0:0:
256,192,102850,5,8,0:0:0:0:
256,192,103022,1,0,0:0:0:0:
256,192,103193,5,0,0:0:0:0:
256,192,103536,5,8,0:0:0:0:
256,192,103878,5,0,0:0:0:0:
256,192,104050,1,0,0:0:0:0:
256,192,104393,5,8,0:0:0:0:
256,192,104736,5,0,0:0:0:0:
256,192,104907,5,8,0:0:0:0:
256,192,105078,5,0,0:0:0:0:
256,192,105421,1,0,0:0:0:0:
256,192,105593,5,8,0:0:0:0:
256,192,105764,1,8,0:0:0:0:
256,192,105936,5,4,0:0:0:0:
256,192,106278,5,8,0:0:0:0:
256,192,106450,5,0,0:0:0:0:
256,192,106621,1,0,0:0:0:0:
256,192,106793,1,0,0:0:0:0:
256,192,106964,5,8,0:0:0:0:
256,192,107136,5,0,0:0:0:0:
256,192,107478,5,8,0:0:0:0:
256,192,107650,5,0,0:0:0:0:
256,192,107821,5,8,0:0:0:0:
256,192,107993,5,0,0:0:0:0:
256,192,108164,5,0,0:0:0:0:
256,192,108336,5,8,0:0:0:0:
256,192,108678,1,0,0:0:0:0:
256,192,109021,5,8,0:0:0:0:
256,192,109364,5,0,0:0:0:0:
256,192,109536,1,0,0:0:0:0:
256,192,109707,5,8,0:0:0:0:
256,192,109878,1,12,0:0:0:0:
256,192,110221,5,0,0:0:0:0:
256,192,110393,1,0,0:0:0:0:
256,192,110564,5,8,0:0:0:0:
256,192,110907,5,0,0:0:0:0:
256,192,111078,5,8,0:0:0:0:
256,192,111421,5,4,0:0:0:0:
256,192,111593,1,0,0:0:0:0:
256,192,111764,5,8,0:0:0:0:
256,192,111936,5,0,0:0:0:0:
256,192,112107,5,0,0:0:0:0:
256,192,112450,1,8,0:0:0:0:
256,192,112621,5,0,0:0:0:0:
256,192,112793,5,8,0:0:0:0:
256,192,112964,1,8,0:0:0:0:
256,192,113136,5,0,0:0:0:0:
256,192,113307,5,8,0:0:0:0:
256,192,113650,5,0,0:0:0:0:
256,192,113821,5,8,0:0:0:0:
256,192,114164,1,8,0:0:0:0:
256,192,114336,5,0,0:0:0:0:
256,192,114507,5,8,0:0:0:0:
256,192,114850,1,8,0:0:0:0:
256,192,115193,1,8,0:0:0:0:
256,192,115364,5,0,0:0:0:0:
256,192,115536,5,8,0:0:0:0:
256,192,115707,1,8,0:0:0:0:
256,192,115878,5,0,0:0:0:0:
256,192,116050,5,8,0:0:0:0:
256,192,116393,5,0,0:0:0:0:
256,192,116564,5,8,0:0:0:0:
256,192,116907,5,4,0:0:0:0:
256,192,117078,1,0,0:0:0:0:
256,192,117250,5,8,0:0:0:0:
256,192,117421,5,0,0:0:0:0:
256,192,117593,5,0,0:0:0:0:
256,192,117936,5,0,0:0:0:0:
256,192,118107,1,0,0:0:0:0:
256,192,118278,5,8,0:0:0:0:
256,192,118450,1,8,0:0:0:0:
256,192,118621,5,0,0:0:0:0:
256,192,118793,5,8,0:0:0:0:
256,192,119136,5,0,0:0:0:0:
256,192,119307,5,8,0:0:0:0:
256,192,119650,1,12,0:0:0:0:
256,192,119821,5,0,0:0:0:0:
256,192,119993,5,8,0:0:0:0:
256,192,120164,5,0,0:0:0:0:
256,192,120336,5,8,0:0:0:0:
256,192,120507,1,8,0:0:0:0:
256,192,120679,5,0,0:0:0:0:
256,192,120850,5,8,0:0:0:0:
256,192,121022,5,0,0:0:0:0:
256,192,121193,1,0,0:0:0:0:
256,192,121364,5,8,0:0:0:0:
256,192,121536,1,8,0:0:0:0:
256,192,121707,5,0,0:0:0:0:
256,192,121878,1,0,0:0:0:0:
256,192,122050,5,8,0:0:0:0:
256,192,122393,5,4,0:0:0:0:
256,192,122736,5,8,0:0:0:0:
256,192,122907,5,0,0:0:0:0:
256,192,123078,5,8,0:0:0:0:
256,192,123593,1,8,0:0:0:0:
256,192,123936,5,0,0:0:0:0:
256,192,124107,1,0,0:0:0:0:
256,192,124450,5,8,0:0:0:0:
256,192,125136,5,0,0:0:0:0:
256,192,125307,1,0,0:0:0:0:
256,192,125650,1,0,0:0:0:0:
256,192,125821,5,8,0:0:0:0:
256,192,126336,1,8,0:0:0:0:
256,192,126678,1,0,0:0:0:0:
256,192,126850,5,0,0:0:0:0:
256,192,127193,5,8,0:0:0:0:
256,192,127878,5,4,0:0:0:0:
256,192,128050,1,0,0:0:0:0:
256,192,128393,1,0,0:0:0:0:
256,192,128564,5,8,0:0:0:0:
256,192,129078,1,8,0:0:0:0:
256,192,129421,1,0,0:0:0:0:
256,192,129593,5,0,0:0:0:0:
256,192,129936,5,8,0:0:0:0:
256,192,130621,5,0,0:0:0:0:
256,192,130793,1,0,0:0:0:0:
256,192,131136,1,0,0:0:0:0:
256,192,131307,5,8,0:0:0:0:
256,192,131650,1,0,0:0:0:0:
256,192,131821,1,8,0:0:0:0:
256,192,131907,1,8,0:0:0:0:
256,192,131993,5,0,0:0:0:0:
256,192,132078,1,0,0:0:0:0:
256,192,132164,1,0,0:0:0:0:
256,192,132250,1,0,0:0:0:0:
256,192,132336,5,8,0:0:0:0:
256,192,132421,1,8,0:0:0:0:
256,192,132507,5,0,0:0:0:0:
256,192,132678,1,0,0:0:0:0:
256,192,132850,5,8,0:0:0:0:
256,192,132936,1,8,0:0:0:0:
256,192,133021,5,0,0:0:0:0:
256,192,133107,1,0,0:0:0:0:
256,192,133193,5,8,0:0:0:0:
256,192,133278,1,8,0:0:0:0:
256,192,133364,5,0,0:0:0:0:
256,192,133536,1,0,0:0:0:0:
256,192,133707,5,8,0:0:0:0:
256,192,133878,1,8,0:0:0:0:
256,192,133964,1,8,0:0:0:0:
256,192,134050,5,0,0:0:0:0:
256,192,134221,1,0,0:0:0:0:
256,192,134393,5,8,0:0:0:0:
256,192,134564,1,8,0:0:0:0:
256,192,134650,1,8,0:0:0:0:
256,192,134736,5,0,0:0:0:0:
256,192,134907,5,8,0:0:0:0:
256,192,134993,5,0,0:0:0:0:
256,192,135078,5,8,0:0:0:0:
256,192,135250,1,8,0:0:0:0:
256,192,135421,5,0,0:0:0:0:
256,192,135507,1,0,0:0:0:0:
256,192,135593,1,0,0:0:0:0:
256,192,135764,5,8,0:0:0:0:
256,192,136107,5,0,0:0:0:0:
256,192,136278,1,0,0:0:0:0:
256,192,136364,1,0,0:0:0:0:
256,192,136450,5,8,0:0:0:0:
256,192,136621,1,8,0:0:0:0:
256,192,136707,1,8,0:0:0:0:
256,192,136793,5,0,0:0:0:0:
256,192,136878,1,0,0:0:0:0:
256,192,136964,5,8,0:0:0:0:
256,192,137136,1,8,0:0:0:0:
256,192,137307,5,0,0:0:0:0:
256,192,137393,1,0,0:0:0:0:
256,192,137478,5,8,0:0:0:0:
256,192,137564,5,0,0:0:0:0:
256,192,137650,5,8,0:0:0:0:
256,192,137821,1,8,0:0:0:0:
256,192,137907,5,0,0:0:0:0:
256,192,137993,5,8,0:0:0:0:
256,192,138164,1,8,0:0:0:0:
256,192,138250,5,0,0:0:0:0:
256,192,138336,1,0,0:0:0:0:
256,192,138421,1,0,0:0:0:0:
256,192,138507,5,8,0:0:0:0:
256,192,138850,5,4,0:0:0:0:
256,192,139021,1,0,0:0:0:0:
256,192,139107,1,0,0:0:0:0:
256,192,139193,5,8,0:0:0:0:
256,192,139364,1,8,0:0:0:0:
256,192,139450,1,8,0:0:0:0:
256,192,139536,5,0,0:0:0:0:
256,192,139621,1,0,0:0:0:0:
256,192,139707,1,0,0:0:0:0:
256,192,139878,5,8,0:0:0:0:
256,192,140050,5,0,0:0:0:0:
256,192,140136,1,0,0:0:0:0:
256,192,140221,5,8,0:0:0:0:
256,192,140393,1,8,0:0:0:0:
256,192,140478,5,0,0:0:0:0:
256,192,140563,5,8,0:0:0:0:
256,192,140736,1,8,0:0:0:0:
256,192,140821,1,8,0:0:0:0:
256,192,140907,5,0,0:0:0:0:
256,192,141078,1,0,0:0:0:0:
256,192,141250,5,8,0:0:0:0:
256,192,141421,1,8,0:0:0:0:
256,192,141593,5,4,0:0:0:0:
256,192,141936,5,8,0:0:0:0:
256,192,142107,5,0,0:0:0:0:
256,192,142278,1,0,0:0:0:0:
256,192,142621,1,0,0:0:0:0:
256,192,142793,5,12,0:0:0:0:
256,192,143136,5,0,0:0:0:0:
256,192,143307,5,8,0:0:0:0:
256,192,143478,1,12,0:0:0:0:
256,192,143821,5,0,0:0:0:0:
256,192,143993,5,8,0:0:0:0:
256,192,144336,5,4,0:0:0:0:
256,192,144678,5,8,0:0:0:0:
256,192,144850,5,0,0:0:0:0:
256,192,144936,1,0,0:0:0:0:
256,192,145021,1,0,0:0:0:0:
256,192,145193,1,0,0:0:0:0:
256,192,145278,1,0,0:0:0:0:
256,192,145364,5,8,0:0:0:0:
256,192,145536,1,8,0:0:0:0:
256,192,145621,1,8,0:0:0:0:
256,192,145707,1,8,0:0:0:0:
256,192,145793,5,0,0:0:0:0:
256,192,145878,5,8,0:0:0:0:
256,192,146050,1,8,0:0:0:0:
256,192,146221,1,8,0:0:0:0:
256,192,146307,1,8,0:0:0:0:
256,192,146393,5,0,0:0:0:0:
256,192,146564,1,0,0:0:0:0:
256,192,146736,5,8,0:0:0:0:
256,192,146907,5,0,0:0:0:0:
256,192,147078,1,4,0:0:0:0:
256,192,147421,5,8,0:0:0:0:
256,192,147593,1,8,0:0:0:0:
256,192,147678,5,0,0:0:0:0:
256,192,147764,1,0,0:0:0:0:
256,192,147850,1,0,0:0:0:0:
256,192,147936,5,8,0:0:0:0:
256,192,148107,1,8,0:0:0:0:
256,192,148278,5,4,0:0:0:0:
256,192,148622,5,8,0:0:0:0:
256,192,148793,1,8,0:0:0:0:
256,192,148878,1,8,0:0:0:0:
256,192,148964,5,0,0:0:0:0:
256,192,149136,5,8,0:0:0:0:
256,192,149221,1,8,0:0:0:0:
256,192,149307,5,0,0:0:0:0:
256,192,149478,5,8,0:0:0:0:
256,192,149564,5,0,0:0:0:0:
256,192,149650,5,8,0:0:0:0:
256,192,149821,5,4,0:0:0:0:
256,192,150164,5,8,0:0:0:0:
256,192,150336,1,8,0:0:0:0:
256,192,150421,1,8,0:0:0:0:
256,192,150507,5,0,0:0:0:0:
256,192,150678,5,0,0:0:0:0:
256,192,150764,1,8,0:0:0:0:
256,192,150850,5,0,0:0:0:0:
256,192,151021,5,8,0:0:0:0:
256,192,151193,5,4,0:0:0:0:
256,192,151536,5,8,0:0:0:0:
256,192,151621,5,0,0:0:0:0:
256,192,151707,5,8,0:0:0:0:
256,192,151793,1,8,0:0:0:0:
256,192,151878,5,0,0:0:0:0:
256,192,152050,1,0,0:0:0:0:
256,192,152136,1,0,0:0:0:0:
256,192,152221,5,8,0:0:0:0:
256,192,152393,1,8,0:0:0:0:
256,192,152564,5,4,0:0:0:0:
256,192,152907,5,8,0:0:0:0:
256,192,152993,5,0,0:0:0:0:
256,192,153078,1,0,0:0:0:0:
256,192,153164,1,0,0:0:0:0:
256,192,153250,5,8,0:0:0:0:
256,192,153336,5,0,0:0:0:0:
256,192,153421,5,8,0:0:0:0:
256,192,153593,1,8,0:0:0:0:
256,192,153764,5,4,0:0:0:0:
256,192,154107,1,0,0:0:0:0:
256,192,154278,5,8,0:0:0:0:
256,192,154450,5,0,0:0:0:0:
256,192,154536,1,0,0:0:0:0:
256,192,154621,5,8,0:0:0:0:
256,192,154793,1,8,0:0:0:0:
256,192,154964,5,0,0:0:0:0:
256,192,155050,1,0,0:0:0:0:
256,192,155136,1,0,0:0:0:0:
256,192,155221,1,0,0:0:0:0:
256,192,155307,1,0,0:0:0:0:
256,192,155478,1,0,0:0:0:0:
256,192,155650,5,8,0:0:0:0:
256,192,155821,5,0,0:0:0:0:
256,192,155907,1,0,0:0:0:0:
256,192,155993,1,0,0:0:0:0:
256,192,156164,1,0,0:0:0:0:
256,192,156336,5,8,0:0:0:0:
256,192,156507,5,0,0:0:0:0:
256,192,156593,1,0,0:0:0:0:
256,192,156678,1,0,0:0:0:0:
256,192,156850,1,0,0:0:0:0:
256,192,156936,1,0,0:0:0:0:
256,192,157021,5,8,0:0:0:0:
256,192,157193,1,8,0:0:0:0:
256,192,157364,5,0,0:0:0:0:
256,192,157450,1,0,0:0:0:0:
256,192,157536,1,0,0:0:0:0:
256,192,157621,1,0,0:0:0:0:
256,192,157707,5,8,0:0:0:0:
256,192,157878,5,0,0:0:0:0:
256,192,158050,1,4,0:0:0:0:
256,192,158393,5,8,0:0:0:0:
256,192,158564,5,0,0:0:0:0:
256,192,158650,1,0,0:0:0:0:
256,192,158736,1,0,0:0:0:0:
256,192,158907,1,0,0:0:0:0:
256,192,159079,5,8,0:0:0:0:
256,192,159164,5,8,0:0:0:0:
256,192,159251,1,0,0:0:0:0:
256,192,159421,1,0,0:0:0:0:
256,192,159593,1,0,0:0:0:0:
256,192,159678,1,0,0:0:0:0:
256,192,159764,5,8,0:0:0:0:
256,192,159936,1,8,0:0:0:0:
256,192,160021,5,0,0:0:0:0:
256,192,160107,5,8,0:0:0:0:
256,192,160278,1,8,0:0:0:0:
256,192,160364,1,8,0:0:0:0:
256,192,160450,5,0,0:0:0:0:
256,192,160621,1,8,0:0:0:0:
256,192,160793,5,4,0:0:0:0:
256,192,161136,1,8,0:0:0:0:
256,192,161307,5,0,0:0:0:0:
256,192,161393,1,0,0:0:0:0:
256,192,161478,1,0,0:0:0:0:
256,192,161564,1,0,0:0:0:0:
256,192,161650,1,0,0:0:0:0:
256,192,161736,1,0,0:0:0:0:
256,192,161821,5,8,0:0:0:0:
256,192,161993,1,12,0:0:0:0:
256,192,162164,5,0,0:0:0:0:
256,192,162336,5,8,0:0:0:0:
256,192,162421,1,8,0:0:0:0:
256,192,162507,5,0,0:0:0:0:
256,192,162678,5,8,0:0:0:0:
256,192,162850,1,0,0:0:0:0:
256,192,163021,5,8,0:0:0:0:
256,192,163193,1,8,0:0:0:0:
256,192,163364,5,0,0:0:0:0:
256,192,163536,1,4,0:0:0:0:
256,192,163878,5,8,0:0:0:0:
256,192,163964,5,0,0:0:0:0:
256,192,164050,1,0,0:0:0:0:
256,192,164136,1,0,0:0:0:0:
256,192,164221,5,8,0:0:0:0:
256,192,164393,5,0,0:0:0:0:
256,192,164478,1,0,0:0:0:0:
256,192,164564,5,8,0:0:0:0:
256,192,164736,1,8,0:0:0:0:
256,192,164907,1,8,0:0:0:0:
256,192,164993,1,8,0:0:0:0:
256,192,165078,5,0,0:0:0:0:
256,192,165164,1,0,0:0:0:0:
256,192,165250,5,8,0:0:0:0:
256,192,165336,1,8,0:0:0:0:
256,192,165421,5,0,0:0:0:0:
256,192,165507,1,0,0:0:0:0:
256,192,165593,1,0,0:0:0:0:
256,192,165678,1,0,0:0:0:0:
256,192,165764,1,0,0:0:0:0:
256,192,165850,1,0,0:0:0:0:
256,192,165936,5,8,0:0:0:0:
256,192,166278,5,4,0:0:0:0:
256,192,166964,5,8,0:0:0:0:
256,192,167307,5,0,0:0:0:0:
256,192,167478,5,8,0:0:0:0:
256,192,167993,5,0,0:0:0:0:
256,192,168164,1,0,0:0:0:0:
256,192,168336,5,8,0:0:0:0:
256,192,168678,1,8,0:0:0:0:
256,192,168850,5,0,0:0:0:0:
256,192,169021,1,4,0:0:0:0:
256,192,169193,1,0,0:0:0:0:
256,192,169364,1,0,0:0:0:0:
256,192,169536,1,0,0:0:0:0:
256,192,169707,5,8,0:0:0:0:
256,192,170050,5,0,0:0:0:0:
256,192,170221,5,8,0:0:0:0:
256,192,170564,5,0,0:0:0:0:
256,192,170736,1,0,0:0:0:0:
256,192,170907,1,0,0:0:0:0:
256,192,171078,5,8,0:0:0:0:
256,192,171421,1,0,0:0:0:0:
256,192,171593,5,0,0:0:0:0:
256,192,171678,1,0,0:0:0:0:
256,192,171764,1,8,0:0:0:0:
256,192,171850,5,0,0:0:0:0:
256,192,171936,5,0,0:0:0:0:
256,192,172021,1,0,0:0:0:0:
256,192,172107,5,8,0:0:0:0:
256,192,172193,5,0,0:0:0:0:
256,192,172278,1,0,0:0:0:0:
256,192,172364,1,0,0:0:0:0:
256,192,172450,1,8,0:0:0:0:
256,192,172793,5,8,0:0:0:0:
256,192,172964,5,0,0:0:0:0:
256,192,173136,1,0,0:0:0:0:
256,192,173478,5,8,0:0:0:0:
256,192,173650,5,0,0:0:0:0:
256,192,173993,1,0,0:0:0:0:
256,192,174336,5,8,0:0:0:0:
256,192,174507,5,4,0:0:0:0:
256,192,174850,5,8,0:0:0:0:
256,192,175193,5,0,0:0:0:0:
256,192,175536,5,8,0:0:0:0:
256,192,175707,5,4,0:0:0:0:
256,192,176050,1,0,0:0:0:0:
256,192,176221,5,8,0:0:0:0:
256,192,176307,1,8,0:0:0:0:
256,192,176393,5,0,0:0:0:0:
256,192,176478,1,0,0:0:0:0:
256,192,176564,1,0,0:0:0:0:
256,192,176650,1,0,0:0:0:0:
256,192,176736,5,8,0:0:0:0:
256,192,176821,5,0,0:0:0:0:
256,192,176907,1,0,0:0:0:0:
256,192,176993,1,0,0:0:0:0:
256,192,177078,5,8,0:0:0:0:
256,192,177164,1,8,0:0:0:0:
256,192,177250,5,0,0:0:0:0:
256,192,177593,5,8,0:0:0:0:
256,192,177936,5,0,0:0:0:0:
256,192,178107,1,0,0:0:0:0:
256,192,178278,5,8,0:0:0:0:
256,192,178450,5,0,0:0:0:0:
256,192,178793,1,0,0:0:0:0:
256,192,178964,5,8,0:0:0:0:
256,192,179136,1,8,0:0:0:0:
256,192,179307,5,0,0:0:0:0:
256,192,179478,5,8,0:0:0:0:
256,192,179650,5,0,0:0:0:0:
256,192,179821,1,8,0:0:0:0:
256,192,179993,1,4,0:0:0:0:
256,192,180336,5,8,0:0:0:0:
256,192,180678,5,0,0:0:0:0:
256,192,180849,1,0,0:0:0:0:
256,192,181021,5,8,0:0:0:0:
256,192,181193,5,0,0:0:0:0:
256,192,181536,1,0,0:0:0:0:
256,192,181707,5,8,0:0:0:0:
256,192,181878,5,0,0:0:0:0:
256,192,182050,5,8,0:0:0:0:
256,192,182221,5,0,0:0:0:0:
256,192,182393,5,8,0:0:0:0:
256,192,182564,1,8,0:0:0:0:
256,192,182736,5,4,0:0:0:0:
256,192,183078,5,8,0:0:0:0:
256,192,183421,5,0,0:0:0:0:
256,192,183593,1,0,0:0:0:0:
256,192,183764,5,8,0:0:0:0:
256,192,183936,5,0,0:0:0:0:
256,192,184278,5,8,0:0:0:0:
256,192,184450,1,8,0:0:0:0:
256,192,184621,5,0,0:0:0:0:
256,192,184793,5,8,0:0:0:0:
256,192,184964,5,0,0:0:0:0:
256,192,185136,5,8,0:0:0:0:
256,192,185307,1,8,0:0:0:0:
256,192,185478,5,4,0:0:0:0:
256,192,185821,5,8,0:0:0:0:
256,192,185993,5,0,0:0:0:0:
256,192,186164,5,8,0:0:0:0:
256,192,186336,1,8,0:0:0:0:
256,192,186507,5,0,0:0:0:0:
256,192,186678,1,4,0:0:0:0:
256,192,187021,1,0,0:0:0:0:
256,192,187193,5,8,0:0:0:0:
256,192,187278,1,8,0:0:0:0:
256,192,187364,5,0,0:0:0:0:
256,192,187450,1,0,0:0:0:0:
256,192,187536,1,0,0:0:0:0:
256,192,187621,1,0,0:0:0:0:
256,192,187707,1,8,0:0:0:0:
256,192,187793,1,8,0:0:0:0:
256,192,187878,1,8,0:0:0:0:
256,192,187964,1,8,0:0:0:0:
256,192,188050,1,8,0:0:0:0:
256,192,188136,1,8,0:0:0:0:
256,192,188221,1,0,0:0:0:0:
256,192,188393,1,0,0:0:0:0:
256,192,188564,5,8,0:0:0:0:
256,192,188736,5,0,0:0:0:0:
256,192,188821,1,0,0:0:0:0:
256,192,188907,1,0,0:0:0:0:
256,192,189078,1,0,0:0:0:0:
256,192,189250,5,8,0:0:0:0:
256,192,189421,5,0,0:0:0:0:
256,192,189507,1,0,0:0:0:0:
256,192,189593,1,0,0:0:0:0:
256,192,189764,1,0,0:0:0:0:
256,192,189850,1,0,0:0:0:0:
256,192,189936,5,8,0:0:0:0:
256,192,190107,1,8,0:0:0:0:
256,192,190278,5,0,0:0:0:0:
256,192,190364,1,0,0:0:0:0:
256,192,190450,1,0,0:0:0:0:
256,192,190536,1,0,0:0:0:0:
256,192,190621,5,8,0:0:0:0:
256,192,190792,5,0,0:0:0:0:
256,192,190964,1,4,0:0:0:0:
256,192,191135,1,0,0:0:0:0:
256,192,191221,1,0,0:0:0:0:
256,192,191306,5,8,0:0:0:0:
256,192,191478,5,0,0:0:0:0:
256,192,191564,1,0,0:0:0:0:
256,192,191650,5,8,0:0:0:0:
256,192,191821,1,8,0:0:0:0:
256,192,191993,5,0,0:0:0:0:
256,192,192164,1,0,0:0:0:0:
256,192,192250,1,0,0:0:0:0:
256,192,192336,1,0,0:0:0:0:
256,192,192421,1,0,0:0:0:0:
256,192,192507,1,0,0:0:0:0:
256,192,192593,1,0,0:0:0:0:
256,192,192678,5,8,0:0:0:0:
256,192,192850,1,8,0:0:0:0:
256,192,193021,5,0,0:0:0:0:
256,192,193193,1,0,0:0:0:0:
256,192,193278,1,0,0:0:0:0:
256,192,193364,5,8,0:0:0:0:
256,192,193536,5,0,0:0:0:0:
256,192,193707,1,4,0:0:0:0:
256,192,193878,1,0,0:0:0:0:
256,192,194050,5,8,0:0:0:0:
256,192,194221,5,0,0:0:0:0:
256,192,194307,1,0,0:0:0:0:
256,192,194393,1,0,0:0:0:0:
256,192,194564,1,0,0:0:0:0:
256,192,194736,5,8,0:0:0:0:
256,192,194907,5,0,0:0:0:0:
256,192,194993,1,0,0:0:0:0:
256,192,195078,1,0,0:0:0:0:
256,192,195164,1,0,0:0:0:0:
256,192,195250,1,0,0:0:0:0:
256,192,195421,5,8,0:0:0:0:
256,192,195593,1,8,0:0:0:0:
256,192,195678,5,0,0:0:0:0:
256,192,195764,5,8,0:0:0:0:
256,192,195936,1,8,0:0:0:0:
256,192,196021,1,8,0:0:0:0:
256,192,196107,5,0,0:0:0:0:
256,192,196278,5,8,0:0:0:0:
256,192,196450,5,4,0:0:0:0:
256,192,196621,1,0,0:0:0:0:
256,192,196707,1,0,0:0:0:0:
256,192,196793,5,8,0:0:0:0:
256,192,196963,5,0,0:0:0:0:
256,192,197050,1,0,0:0:0:0:
256,192,197136,1,0,0:0:0:0:
256,192,197307,1,0,0:0:0:0:
256,192,197393,1,0,0:0:0:0:
256,192,197478,5,8,0:0:0:0:
256,192,197650,5,4,0:0:0:0:
256,192,197993,1,0,0:0:0:0:
256,192,198164,5,8,0:0:0:0:
256,192,198336,1,12,0:0:0:0:
256,192,198678,5,0,0:0:0:0:
256,192,198850,5,8,0:0:0:0:
256,192,199193,5,4,0:0:0:0:
256,192,199364,1,0,0:0:0:0:
256,192,199536,5,8,0:0:0:0:
256,192,199707,5,0,0:0:0:0:
256,192,199793,1,0,0:0:0:0:
256,192,199878,1,0,0:0:0:0:
256,192,200050,1,0,0:0:0:0:
256,192,200221,5,8,0:0:0:0:
256,192,200393,5,0,0:0:0:0:
256,192,200478,1,0,0:0:0:0:
256,192,200564,1,0,0:0:0:0:
256,192,200736,1,0,0:0:0:0:
256,192,200821,1,0,0:0:0:0:
256,192,200907,5,8,0:0:0:0:
256,192,201078,1,8,0:0:0:0:
256,192,201250,5,0,0:0:0:0:
256,192,201336,1,0,0:0:0:0:
256,192,201421,1,0,0:0:0:0:
256,192,201507,1,0,0:0:0:0:
256,192,201593,5,8,0:0:0:0:
256,192,201764,5,0,0:0:0:0:
256,192,201936,1,4,0:0:0:0:
256,192,202107,1,0,0:0:0:0:
256,192,202193,1,0,0:0:0:0:
256,192,202278,5,8,0:0:0:0:
256,192,202450,5,8,0:0:0:0:
256,192,202536,1,0,0:0:0:0:
256,192,202621,1,8,0:0:0:0:
256,192,202793,1,0,0:0:0:0:
256,192,202878,1,0,0:0:0:0:
256,192,202964,5,8,0:0:0:0:
256,192,203136,5,4,0:0:0:0:
256,192,203307,1,8,0:0:0:0:
256,192,203479,1,0,0:0:0:0:
256,192,203564,1,0,0:0:0:0:
256,192,203650,5,8,0:0:0:0:
256,192,203736,1,0,0:0:0:0:
256,192,203822,5,0,0:0:0:0:
256,192,203907,1,0,0:0:0:0:
256,192,203993,5,8,0:0:0:0:
256,192,204164,1,8,0:0:0:0:
256,192,204336,1,0,0:0:0:0:
256,192,204507,1,8,0:0:0:0:
256,192,204678,5,0,0:0:0:0:
256,192,205021,5,12,0:0:0:0:
256,192,205193,5,0,0:0:0:0:
256,192,205364,1,0,0:0:0:0:
256,192,205450,1,0,0:0:0:0:
256,192,205536,1,0,0:0:0:0:
256,192,205707,5,8,0:0:0:0:
256,192,205878,5,0,0:0:0:0:
256,192,206050,1,0,0:0:0:0:
256,192,206393,5,8,0:0:0:0:
256,192,206564,5,0,0:0:0:0:
256,192,206650,1,0,0:0:0:0:
256,192,206736,5,8,0:0:0:0:
256,192,206821,1,8,0:0:0:0:
256,192,206907,5,0,0:0:0:0:
256,192,207078,5,8,0:0:0:0:
256,192,207250,1,8,0:0:0:0:
256,192,207421,5,4,0:0:0:0:
256,192,207764,5,8,0:0:0:0:
256,192,207936,5,0,0:0:0:0:
256,192,208021,1,0,0:0:0:0:
256,192,208107,5,8,0:0:0:0:
256,192,208193,5,0,0:0:0:0:
256,192,208278,1,0,0:0:0:0:
256,192,208450,5,8,0:0:0:0:
256,192,208621,5,4,0:0:0:0:
256,192,208964,1,0,0:0:0:0:
256,192,209136,5,8,0:0:0:0:
256,192,209307,1,12,0:0:0:0:
256,192,209650,5,0,0:0:0:0:
256,192,209821,1,0,0:0:0:0:
256,192,209907,1,0,0:0:0:0:
256,192,209993,1,0,0:0:0:0:
256,192,210078,1,0,0:0:0:0:
256,192,210164,1,0,0:0:0:0:
256,192,210336,1,0,0:0:0:0:
256,192,210507,5,8,0:0:0:0:
256,192,210678,1,8,0:0:0:0:
256,192,210764,1,8,0:0:0:0:
256,192,210850,5,0,0:0:0:0:
256,192,211021,1,0,0:0:0:0:
256,192,211193,5,8,0:0:0:0:
256,192,211364,1,8,0:0:0:0:
256,192,211450,1,8,0:0:0:0:
256,192,211536,5,0,0:0:0:0:
256,192,211621,1,0,0:0:0:0:
256,192,211707,5,8,0:0:0:0:
256,192,211878,5,0,0:0:0:0:
256,192,212050,5,8,0:0:0:0:
256,192,212136,5,0,0:0:0:0:
256,192,212221,5,8,0:0:0:0:
256,192,212393,1,8,0:0:0:0:
256,192,212564,1,8,0:0:0:0:
256,192,212650,1,8,0:0:0:0:
256,192,212736,1,8,0:0:0:0:
256,192,212907,5,4,0:0:0:0:
256,192,213250,5,12,0:0:0:0:
256,192,213421,5,0,0:0:0:0:
256,192,213593,1,0,0:0:0:0:
256,192,213678,1,0,0:0:0:0:
256,192,213764,5,8,0:0:0:0:
256,192,213936,5,0,0:0:0:0:
256,192,214107,5,8,0:0:0:0:
256,192,214193,5,0,0:0:0:0:
256,192,214278,5,8,0:0:0:0:
256,192,214449,5,0,0:0:0:0:
256,192,214536,1,0,0:0:0:0:
256,192,214621,5,8,0:0:0:0:
256,192,214792,1,8,0:0:0:0:
256,192,214878,5,8,0:0:0:0:
256,192,214963,5,0,0:0:0:0:
256,192,215135,5,0,0:0:0:0:
256,192,215306,5,8,0:0:0:0:
256,192,215393,1,8,0:0:0:0:
256,192,215478,1,8,0:0:0:0:
256,192,215650,5,4,0:0:0:0:
256,192,215993,5,8,0:0:0:0:
256,192,216164,1,8,0:0:0:0:
256,192,216250,1,8,0:0:0:0:
256,192,216336,5,0,0:0:0:0:
256,192,216507,5,8,0:0:0:0:
256,192,216593,5,0,0:0:0:0:
256,192,216678,5,8,0:0:0:0:
256,192,216850,5,4,0:0:0:0:
256,192,217193,5,8,0:0:0:0:
256,192,217278,1,8,0:0:0:0:
256,192,217364,1,8,0:0:0:0:
256,192,217450,5,0,0:0:0:0:
256,192,217536,5,8,0:0:0:0:
256,192,217707,5,0,0:0:0:0:
256,192,217878,1,0,0:0:0:0:
256,192,217964,1,0,0:0:0:0:
256,192,218050,5,8,0:0:0:0:
256,192,218222,1,8,0:0:0:0:
256,192,218393,5,0,0:0:0:0:
256,192,218564,1,0,0:0:0:0:
256,192,218736,5,8,0:0:0:0:
256,192,219078,5,0,0:0:0:0:
256,192,219250,1,0,0:0:0:0:
256,192,219421,5,8,0:0:0:0:
256,192,219593,5,0,0:0:0:0:
256,192,219764,5,8,0:0:0:0:
256,192,219850,1,8,0:0:0:0:
256,192,219936,5,0,0:0:0:0:
256,192,220021,1,0,0:0:0:0:
256,192,220107,5,8,0:0:0:0:
256,192,220193,1,8,0:0:0:0:
256,192,220278,5,0,0:0:0:0:
256,192,220364,1,0,0:0:0:0:
256,192,220450,1,0,0:0:0:0:
256,192,220536,1,0,0:0:0:0:
256,192,220621,1,0,0:0:0:0:
256,192,220707,1,0,0:0:0:0:
256,192,220793,5,8,0:0:0:0:
256,192,221136,5,4,0:0:0:0:
256,192,221650,1,0,0:0:0:0:
256,192,221821,5,8,0:0:0:0:
256,192,222336,1,8,0:0:0:0:
256,192,222850,5,0,0:0:0:0:
256,192,223021,1,0,0:0:0:0:
256,192,223193,5,8,0:0:0:0:
256,192,223536,5,0,0:0:0:0:
256,192,223878,1,4,0:0:0:0:
256,192,224050,1,0,0:0:0:0:
256,192,224564,5,8,0:0:0:0:
256,192,225078,1,8,0:0:0:0:
256,192,225421,5,0,0:0:0:0:
256,192,225593,1,0,0:0:0:0:
256,192,225764,1,0,0:0:0:0:
256,192,225936,1,0,0:0:0:0:
256,192,226021,1,0,0:0:0:0:
256,192,226107,5,8,0:0:0:0:
256,192,226193,1,8,0:0:0:0:
256,192,226278,5,0,0:0:0:0:
256,192,226364,1,0,0:0:0:0:
256,192,226450,1,0,0:0:0:0:
256,192,226536,1,0,0:0:0:0:
256,192,226621,5,8,0:0:0:0:
256,192,226707,1,8,0:0:0:0:
256,192,226793,1,8,0:0:0:0:
256,192,226878,1,8,0:0:0:0:
256,192,226964,5,0,0:0:0:0:
256,192,227307,1,0,0:0:0:0:
256,192,227478,1,0,0:0:0:0:
256,192,227564,1,0,0:0:0:0:
256,192,227650,5,8,0:0:0:0:
256,192,227821,5,0,0:0:0:0:
256,192,227993,1,0,0:0:0:0:
256,192,228078,1,0,0:0:0:0:
256,192,228164,1,0,0:0:0:0:
256,192,228336,5,8,0:0:0:0:
256,192,228507,1,8,0:0:0:0:
256,192,228593,1,8,0:0:0:0:
256,192,228678,5,0,0:0:0:0:
256,192,228850,1,0,0:0:0:0:
256,192,229021,5,8,0:0:0:0:
256,192,229193,1,8,0:0:0:0:
256,192,229364,5,4,0:0:0:0:
256,192,229707,5,8,0:0:0:0:
256,192,230050,5,0,0:0:0:0:
256,192,230221,1,0,0:0:0:0:
256,192,230393,5,8,0:0:0:0:
256,192,230564,5,4,0:0:0:0:
256,192,230907,5,8,0:0:0:0:
256,192,230993,1,8,0:0:0:0:
256,192,231078,1,8,0:0:0:0:
256,192,231164,1,8,0:0:0:0:
256,192,231250,5,0,0:0:0:0:
256,192,231336,1,0,0:0:0:0:
256,192,231421,1,0,0:0:0:0:
256,192,231507,1,0,0:0:0:0:
256,192,231593,5,8,0:0:0:0:
256,192,231678,1,8,0:0:0:0:
256,192,231764,1,8,0:0:0:0:
256,192,231850,1,8,0:0:0:0:
256,192,231936,5,0,0:0:0:0:
256,192,232021,1,0,0:0:0:0:
256,192,232107,1,0,0:0:0:0:
256,192,232450,5,8,0:0:0:0:
256,192,232793,5,0,0:0:0:0:
256,192,232964,1,0,0:0:0:0:
256,192,233136,5,8,0:0:0:0:
256,192,233307,5,0,0:0:0:0:
256,192,233650,1,0,0:0:0:0:
256,192,233822,5,8,0:0:0:0:
256,192,233993,1,8,0:0:0:0:
256,192,234164,5,0,0:0:0:0:
256,192,234336,5,8,0:0:0:0:
256,192,234507,1,8,0:0:0:0:
256,192,234678,5,0,0:0:0:0:
256,192,234850,1,4,0:0:0:0:
256,192,235193,5,8,0:0:0:0:
256,192,235536,5,0,0:0:0:0:
256,192,235707,1,0,0:0:0:0:
256,192,235878,5,8,0:0:0:0:
256,192,236050,5,0,0:0:0:0:
256,192,236393,5,8,0:0:0:0:
256,192,236564,5,0,0:0:0:0:
256,192,236736,5,8,0:0:0:0:
256,192,236907,5,0,0:0:0:0:
256,192,237078,5,8,0:0:0:0:
256,192,237250,1,8,0:0:0:0:
256,192,237421,5,0,0:0:0:0:
256,192,237593,1,4,0:0:0:0:
256,192,237936,5,8,0:0:0:0:
256,192,238279,5,0,0:0:0:0:
256,192,238450,1,0,0:0:0:0:
256,192,238622,5,8,0:0:0:0:
256,192,238793,5,0,0:0:0:0:
256,192,239136,5,8,0:0:0:0:
256,192,239307,1,8,0:0:0:0:
256,192,239478,5,0,0:0:0:0:
256,192,239650,5,8,0:0:0:0:
256,192,239821,1,8,0:0:0:0:
256,192,239993,5,0,0:0:0:0:
256,192,240164,1,8,0:0:0:0:
256,192,240336,1,4,0:0:0:0:
256,192,240678,5,8,0:0:0:0:
256,192,241022,5,0,0:0:0:0:
256,192,241193,1,0,0:0:0:0:
256,192,241364,5,8,0:0:0:0:
256,192,241536,5,0,0:0:0:0:
256,192,241878,5,8,0:0:0:0:
256,192,242050,1,8,0:0:0:0:
256,192,242221,1,8,0:0:0:0:
256,192,242393,1,8,0:0:0:0:
256,192,242564,1,8,0:0:0:0:
256,192,242736,1,8,0:0:0:0:
256,192,242907,1,8,0:0:0:0:
256,192,243078,5,4,0:0:0:0:
