osu file format v12

[General]
AudioFilename: 05 Iris.mp3
AudioLeadIn: 1985
PreviewTime: 56393
Countdown: 0
SampleSet: Normal
StackLeniency: 0.7
Mode: 1
LetterboxInBreaks: 0
WidescreenStoryboard: 0

[Editor]
Bookmarks: 12684,56564,265021
DistanceSpacing: 0.6
BeatDivisor: 2
GridSize: 32

[Metadata]
Title:Iris
TitleUnicode:Iris
Artist:ave;new feat. Sakura Saori
ArtistUnicode:ave;new feat. Sakura Saori
Creator:inaba-tan
Version:Kantan
Source:Lovable
Tags:Taiko
BeatmapID:209874
BeatmapSetID:73763

[Difficulty]
HPDrainRate:2
CircleSize:3
OverallDifficulty:2
ApproachRate:1
SliderMultiplier:1.4
SliderTickRate:1

[Events]
//Background and Video events
0,0,"20130328222425d91s-2.jpg",0,0
//Break Periods
//Storyboard Layer 0 (Background)
//Storyboard Layer 1 (Fail)
//Storyboard Layer 2 (Pass)
//Storyboard Layer 3 (Foreground)
//Storyboard Sound Samples
//Background Colour Transformations
3,100,163,162,255

[TimingPoints]
336,342.857142857143,4,1,0,100,1,0
56564,-100,4,1,0,100,0,1
78507,-100,4,1,0,100,0,0
133364,-100,4,1,0,100,0,1
177250,-100,4,1,0,100,0,0
188221,-100,4,1,0,100,0,1
232107,-100,4,1,0,100,0,0

[HitObjects]
256,192,336,12,0,1364,0:0:0:0:
256,192,1707,5,0,0:0:0:0:
256,192,2907,5,0,0:0:0:0:
256,192,4450,1,0,0:0:0:0:
256,192,5650,1,0,0:0:0:0:
256,192,6850,5,8,0:0:0:0:
256,192,7193,5,0,0:0:0:0:
256,192,8393,1,0,0:0:0:0:
256,192,9936,1,0,0:0:0:0:
256,192,11136,1,0,0:0:0:0:
256,192,11307,12,0,12678,0:0:0:0:
256,192,13021,5,8,0:0:0:0:
256,192,13878,1,8,0:0:0:0:
256,192,14393,1,8,0:0:0:0:
256,192,14736,5,0,0:0:0:0:
256,192,15078,5,8,0:0:0:0:
256,192,15764,1,8,0:0:0:0:
256,192,16450,1,8,0:0:0:0:
256,192,17136,1,8,0:0:0:0:
256,192,17821,1,8,0:0:0:0:
256,192,18164,5,0,0:0:0:0:
256,192,18507,5,8,0:0:0:0:
256,192,19364,1,8,0:0:0:0:
256,192,19878,1,8,0:0:0:0:
256,192,20564,1,8,0:0:0:0:
256,192,20907,5,0,0:0:0:0:
256,192,21250,5,8,0:0:0:0:
256,192,21764,1,8,0:0:0:0:
256,192,22278,1,8,0:0:0:0:
256,192,22793,1,8,0:0:0:0:
256,192,23307,1,8,0:0:0:0:
256,192,23650,5,0,0:0:0:0:
256,192,23993,5,8,0:0:0:0:
256,192,24678,1,8,0:0:0:0:
256,192,25364,1,8,0:0:0:0:
256,192,25707,5,0,0:0:0:0:
256,192,26050,5,8,0:0:0:0:
256,192,26393,5,0,0:0:0:0:
256,192,26736,5,8,0:0:0:0:
256,192,27421,1,8,0:0:0:0:
256,192,27764,5,0,0:0:0:0:
256,192,28278,1,0,0:0:0:0:
256,192,28793,5,8,0:0:0:0:
256,192,29136,5,0,0:0:0:0:
256,192,29478,5,8,0:0:0:0:
256,192,30164,1,8,0:0:0:0:
256,192,30850,1,8,0:0:0:0:
256,192,31536,1,8,0:0:0:0:
256,192,31878,5,0,0:0:0:0:
256,192,32221,5,8,0:0:0:0:
256,192,32564,5,0,0:0:0:0:
256,192,32907,5,8,0:0:0:0:
256,192,33593,1,8,0:0:0:0:
256,192,34278,1,8,0:0:0:0:
256,192,34621,5,0,0:0:0:0:
256,192,34964,1,0,0:0:0:0:
256,192,35307,1,0,0:0:0:0:
256,192,35993,1,0,0:0:0:0:
256,192,36507,5,8,0:0:0:0:
256,192,37021,1,8,0:0:0:0:
256,192,37364,5,0,0:0:0:0:
256,192,37707,1,0,0:0:0:0:
256,192,38050,1,0,0:0:0:0:
256,192,38736,1,0,0:0:0:0:
256,192,39250,1,12,0:0:0:0:
256,192,40107,5,0,0:0:0:0:
256,192,40450,1,0,0:0:0:0:
256,192,40793,1,0,0:0:0:0:
256,192,41307,1,0,0:0:0:0:
256,192,41993,1,8,0:0:0:0:
256,192,42507,5,8,0:0:0:0:
256,192,42850,5,0,0:0:0:0:
256,192,43193,1,0,0:0:0:0:
256,192,43536,1,0,0:0:0:0:
256,192,43878,1,0,0:0:0:0:
256,192,44221,1,0,0:0:0:0:
96,96,44736,2,0,L|448:96,1,350
256,192,46964,1,0,0:0:0:0:
256,192,48336,1,0,0:0:0:0:
256,192,49707,1,0,0:0:0:0:
256,192,50393,1,0,0:0:0:0:
256,192,51078,1,0,0:0:0:0:
256,192,52450,1,0,0:0:0:0:
256,192,53821,1,0,0:0:0:0:
256,192,55021,12,0,56221,0:0:0:0:
256,192,56564,5,4,0:0:0:0:
256,192,56907,1,8,0:0:0:0:
256,192,57593,1,8,0:0:0:0:
256,192,58278,1,8,0:0:0:0:
256,192,58964,1,8,0:0:0:0:
256,192,59307,5,0,0:0:0:0:
256,192,59650,5,8,0:0:0:0:
256,192,60336,1,8,0:0:0:0:
256,192,61021,1,8,0:0:0:0:
256,192,61364,5,0,0:0:0:0:
256,192,61707,5,8,0:0:0:0:
256,192,62050,5,0,0:0:0:0:
256,192,62393,5,8,0:0:0:0:
256,192,63078,1,8,0:0:0:0:
256,192,63764,1,8,0:0:0:0:
256,192,64450,1,8,0:0:0:0:
256,192,64793,5,0,0:0:0:0:
256,192,65136,1,0,0:0:0:0:
256,192,65478,1,0,0:0:0:0:
256,192,65993,1,0,0:0:0:0:
256,192,66336,5,0,0:0:0:0:
256,192,66678,5,8,0:0:0:0:
256,192,67536,5,4,0:0:0:0:
256,192,67878,5,8,0:0:0:0:
256,192,68564,5,0,0:0:0:0:
256,192,68736,1,0,0:0:0:0:
256,192,69250,5,8,0:0:0:0:
256,192,69936,1,8,0:0:0:0:
256,192,70278,5,0,0:0:0:0:
256,192,70964,1,0,0:0:0:0:
256,192,71478,5,8,0:0:0:0:
256,192,71993,1,8,0:0:0:0:
256,192,72336,1,8,0:0:0:0:
256,192,72678,1,8,0:0:0:0:
256,192,73021,5,0,0:0:0:0:
256,192,73707,1,0,0:0:0:0:
256,192,74393,1,0,0:0:0:0:
256,192,75078,1,0,0:0:0:0:
256,192,76450,1,0,0:0:0:0:
256,192,77136,1,0,0:0:0:0:
256,192,77650,1,0,0:0:0:0:
256,192,78164,1,0,0:0:0:0:
256,192,78507,12,0,83650,0:0:0:0:
256,192,83993,12,0,89136,0:0:0:0:
256,192,89821,5,4,0:0:0:0:
256,192,90678,5,0,0:0:0:0:
256,192,91193,5,8,0:0:0:0:
256,192,91878,1,8,0:0:0:0:
256,192,92564,1,8,0:0:0:0:
256,192,92907,5,0,0:0:0:0:
256,192,93421,1,0,0:0:0:0:
256,192,93936,5,8,0:0:0:0:
256,192,94278,5,0,0:0:0:0:
256,192,94621,5,8,0:0:0:0:
256,192,94964,5,0,0:0:0:0:
256,192,96164,1,0,0:0:0:0:
256,192,96678,5,8,0:0:0:0:
256,192,97364,1,8,0:0:0:0:
256,192,97707,5,0,0:0:0:0:
256,192,98393,1,0,0:0:0:0:
256,192,99078,12,0,100107,0:0:0:0:
256,192,100450,5,0,0:0:0:0:
256,192,100793,1,8,0:0:0:0:
256,192,101478,1,8,0:0:0:0:
256,192,102164,1,8,0:0:0:0:
256,192,102850,1,8,0:0:0:0:
256,192,103193,5,0,0:0:0:0:
256,192,103536,5,8,0:0:0:0:
256,192,104221,1,8,0:0:0:0:
256,192,104564,5,0,0:0:0:0:
256,192,105078,1,0,0:0:0:0:
256,192,105593,1,0,0:0:0:0:
256,192,105936,1,0,0:0:0:0:
256,192,106278,5,8,0:0:0:0:
256,192,106964,1,8,0:0:0:0:
256,192,107650,1,8,0:0:0:0:
256,192,108336,1,8,0:0:0:0:
256,192,108678,5,0,0:0:0:0:
256,192,109021,1,0,0:0:0:0:
256,192,109878,5,8,0:0:0:0:
256,192,110564,1,8,0:0:0:0:
256,192,111421,5,0,0:0:0:0:
256,192,111764,1,0,0:0:0:0:
256,192,112450,1,0,0:0:0:0:
256,192,112793,1,0,0:0:0:0:
256,192,113307,1,0,0:0:0:0:
256,192,113821,5,8,0:0:0:0:
256,192,114164,5,0,0:0:0:0:
256,192,114507,1,0,0:0:0:0:
256,192,115193,1,0,0:0:0:0:
256,192,115878,1,0,0:0:0:0:
256,192,116564,5,8,0:0:0:0:
256,192,116907,5,0,0:0:0:0:
256,192,117250,1,0,0:0:0:0:
256,192,117936,1,0,0:0:0:0:
256,192,118621,1,0,0:0:0:0:
256,192,119307,5,8,0:0:0:0:
256,192,119650,5,0,0:0:0:0:
256,192,119993,5,8,0:0:0:0:
256,192,120678,1,8,0:0:0:0:
256,192,121364,1,8,0:0:0:0:
96,96,121707,6,0,L|384:96,1,280
256,192,123078,5,0,0:0:0:0:
256,192,123764,1,0,0:0:0:0:
256,192,124450,1,0,0:0:0:0:
256,192,125136,1,0,0:0:0:0:
256,192,125821,1,0,0:0:0:0:
256,192,126507,1,0,0:0:0:0:
256,192,127193,1,0,0:0:0:0:
256,192,127878,5,12,0:0:0:0:
256,192,128564,5,0,0:0:0:0:
256,192,129250,1,0,0:0:0:0:
256,192,129936,1,0,0:0:0:0:
256,192,130621,1,0,0:0:0:0:
256,192,131307,1,0,0:0:0:0:
256,192,131993,12,0,133021,0:0:0:0:
256,192,133364,1,4,0:0:0:0:
256,192,133707,5,8,0:0:0:0:
256,192,134393,1,8,0:0:0:0:
256,192,135078,1,8,0:0:0:0:
256,192,135421,5,0,0:0:0:0:
256,192,135764,5,8,0:0:0:0:
256,192,136450,1,8,0:0:0:0:
256,192,137136,1,8,0:0:0:0:
256,192,137821,1,8,0:0:0:0:
256,192,138164,5,0,0:0:0:0:
256,192,138507,1,0,0:0:0:0:
256,192,138850,1,0,0:0:0:0:
256,192,139193,5,8,0:0:0:0:
256,192,139878,1,8,0:0:0:0:
256,192,140221,5,0,0:0:0:0:
256,192,140907,1,0,0:0:0:0:
256,192,141593,1,0,0:0:0:0:
256,192,142278,1,0,0:0:0:0:
256,192,142964,1,0,0:0:0:0:
256,192,143478,1,0,0:0:0:0:
256,192,143993,5,8,0:0:0:0:
256,192,144336,5,0,0:0:0:0:
256,192,145193,5,0,0:0:0:0:
256,192,145536,5,8,0:0:0:0:
256,192,146393,1,8,0:0:0:0:
256,192,147078,5,0,0:0:0:0:
256,192,147421,5,8,0:0:0:0:
256,192,148107,1,8,0:0:0:0:
256,192,149136,5,8,0:0:0:0:
256,192,149478,1,0,0:0:0:0:
256,192,149821,1,0,0:0:0:0:
256,192,150164,5,8,0:0:0:0:
256,192,150850,1,8,0:0:0:0:
256,192,151536,1,8,0:0:0:0:
256,192,152221,1,8,0:0:0:0:
256,192,152564,5,0,0:0:0:0:
256,192,152907,5,8,0:0:0:0:
256,192,153593,5,0,0:0:0:0:
256,192,153936,5,8,0:0:0:0:
256,192,154621,1,8,0:0:0:0:
256,192,155307,1,4,0:0:0:0:
256,192,155650,1,0,0:0:0:0:
256,192,156336,1,0,0:0:0:0:
256,192,157021,5,8,0:0:0:0:
256,192,157364,1,8,0:0:0:0:
256,192,157707,1,8,0:0:0:0:
256,192,158393,5,0,0:0:0:0:
256,192,158907,1,0,0:0:0:0:
256,192,159250,1,0,0:0:0:0:
256,192,159764,5,8,0:0:0:0:
256,192,160107,5,0,0:0:0:0:
256,192,160450,5,8,0:0:0:0:
256,192,161136,5,0,0:0:0:0:
256,192,161821,1,0,0:0:0:0:
256,192,162507,1,0,0:0:0:0:
256,192,162850,1,0,0:0:0:0:
256,192,163536,1,0,0:0:0:0:
256,192,164221,1,0,0:0:0:0:
256,192,164907,12,0,165936,0:0:0:0:
256,192,166278,5,0,0:0:0:0:
256,192,167478,5,0,0:0:0:0:
256,192,168678,1,0,0:0:0:0:
256,192,169021,1,0,0:0:0:0:
256,192,170221,1,0,0:0:0:0:
256,192,171764,1,0,0:0:0:0:
256,192,172107,5,8,0:0:0:0:
256,192,172793,1,8,0:0:0:0:
256,192,173136,5,0,0:0:0:0:
256,192,173821,1,0,0:0:0:0:
256,192,174507,1,0,0:0:0:0:
256,192,174850,5,8,0:0:0:0:
256,192,175536,5,0,0:0:0:0:
256,192,175878,5,8,0:0:0:0:
256,192,176564,1,8,0:0:0:0:
256,192,176907,1,8,0:0:0:0:
256,192,177250,12,0,182393,0:0:0:0:
256,192,182736,12,0,187878,0:0:0:0:
256,192,188221,5,4,0:0:0:0:
256,192,188564,1,0,0:0:0:0:
256,192,189250,1,8,0:0:0:0:
256,192,189421,1,8,0:0:0:0:
256,192,189936,5,0,0:0:0:0:
256,192,190621,5,8,0:0:0:0:
256,192,190964,5,0,0:0:0:0:
256,192,191307,5,8,0:0:0:0:
256,192,191650,5,0,0:0:0:0:
256,192,192164,1,0,0:0:0:0:
256,192,192678,1,0,0:0:0:0:
256,192,193364,5,8,0:0:0:0:
256,192,193707,5,0,0:0:0:0:
256,192,194393,1,0,0:0:0:0:
256,192,195250,1,0,0:0:0:0:
256,192,195593,1,0,0:0:0:0:
256,192,195936,1,0,0:0:0:0:
256,192,196450,1,0,0:0:0:0:
256,192,196793,5,8,0:0:0:0:
256,192,197478,1,8,0:0:0:0:
256,192,197821,5,4,0:0:0:0:
256,192,198336,1,4,0:0:0:0:
256,192,199193,1,4,0:0:0:0:
256,192,199536,5,8,0:0:0:0:
256,192,200221,1,8,0:0:0:0:
256,192,200907,1,8,0:0:0:0:
256,192,201593,5,0,0:0:0:0:
256,192,201936,1,0,0:0:0:0:
256,192,202278,5,8,0:0:0:0:
256,192,202964,1,8,0:0:0:0:
256,192,203650,1,8,0:0:0:0:
256,192,203993,5,0,0:0:0:0:
256,192,204336,1,0,0:0:0:0:
256,192,204678,1,0,0:0:0:0:
256,192,205021,1,8,0:0:0:0:
256,192,205707,1,0,0:0:0:0:
256,192,206050,5,8,0:0:0:0:
256,192,206736,1,8,0:0:0:0:
256,192,207421,12,0,209821,0:0:0:0:
256,192,210164,5,4,0:0:0:0:
256,192,210850,5,0,0:0:0:0:
256,192,211536,1,0,0:0:0:0:
256,192,212221,1,0,0:0:0:0:
256,192,212564,5,8,0:0:0:0:
256,192,212907,5,0,0:0:0:0:
256,192,213593,1,0,0:0:0:0:
256,192,214107,5,8,0:0:0:0:
256,192,214621,1,8,0:0:0:0:
256,192,215307,1,8,0:0:0:0:
256,192,215650,5,0,0:0:0:0:
256,192,215993,1,0,0:0:0:0:
256,192,216850,1,0,0:0:0:0:
256,192,217364,1,0,0:0:0:0:
256,192,218050,1,0,0:0:0:0:
256,192,218393,1,0,0:0:0:0:
256,192,219078,5,8,0:0:0:0:
256,192,219764,5,0,0:0:0:0:
256,192,220450,5,8,0:0:0:0:
256,192,220793,1,8,0:0:0:0:
256,192,221136,5,0,0:0:0:0:
256,192,221821,1,0,0:0:0:0:
256,192,223193,1,0,0:0:0:0:
256,192,224564,1,0,0:0:0:0:
128,128,225936,2,0,L|416:128,1,280
256,192,226964,1,0,0:0:0:0:
256,192,227307,1,0,0:0:0:0:
256,192,227650,5,8,0:0:0:0:
256,192,228336,5,0,0:0:0:0:
256,192,228850,1,0,0:0:0:0:
256,192,229364,1,0,0:0:0:0:
256,192,230050,1,0,0:0:0:0:
256,192,230736,1,0,0:0:0:0:
256,192,231078,1,0,0:0:0:0:
256,192,231421,1,0,0:0:0:0:
256,192,232107,12,0,237250,0:0:0:0:
256,192,237593,12,0,243078,0:0:0:0:
