osu file format v12

[General]
AudioFilename: 05 Iris.mp3
AudioLeadIn: 1985
PreviewTime: 56393
Countdown: 0
SampleSet: Normal
StackLeniency: 0.7
Mode: 1
LetterboxInBreaks: 0

[Editor]
Bookmarks: 12684,56564,265021
DistanceSpacing: 0.6
BeatDivisor: 2
GridSize: 32

[Metadata]
Title:Iris
TitleUnicode:Iris
Artist:ave;new feat. Sakura Saori
ArtistUnicode:ave;new feat. Sakura Saori
Creator:inaba-tan
Version:Futsuu
Source:Lovable
Tags:Taiko
BeatmapID:209873
BeatmapSetID:73763

[Difficulty]
HPDrainRate:3
CircleSize:4
OverallDifficulty:3
ApproachRate:4
SliderMultiplier:1.4
SliderTickRate:1

[Events]
//Background and Video events
0,0,"20130328222425d91s-2.jpg",0,0
//Break Periods
//Storyboard Layer 0 (Background)
//Storyboard Layer 1 (Fail)
//Storyboard Layer 2 (Pass)
//Storyboard Layer 3 (Foreground)
//Storyboard Sound Samples
//Background Colour Transformations
3,100,163,162,255

[TimingPoints]
336,342.857142857143,4,1,0,100,1,0
56564,-100,4,1,0,100,0,1
78507,-100,4,1,0,100,0,0
133364,-100,4,1,0,100,0,1
177250,-100,4,1,0,100,0,0
210164,-100,4,1,0,100,0,1
232107,-100,4,1,0,100,0,0

[HitObjects]
256,192,336,1,8,0:0:0:0:
256,192,850,1,8,0:0:0:0:
256,192,1364,1,8,0:0:0:0:
256,192,1707,5,4,0:0:0:0:
256,192,2393,1,0,0:0:0:0:
256,192,2907,1,0,0:0:0:0:
256,192,3078,1,0,0:0:0:0:
256,192,3764,1,0,0:0:0:0:
256,192,4278,1,0,0:0:0:0:
256,192,4450,1,0,0:0:0:0:
256,192,5136,1,0,0:0:0:0:
256,192,5821,1,0,0:0:0:0:
256,192,6507,1,0,0:0:0:0:
256,192,6850,5,8,0:0:0:0:
256,192,7193,5,0,0:0:0:0:
256,192,7878,1,0,0:0:0:0:
256,192,8393,1,0,0:0:0:0:
256,192,8564,1,0,0:0:0:0:
256,192,9250,1,0,0:0:0:0:
256,192,9764,1,0,0:0:0:0:
256,192,9936,1,0,0:0:0:0:
256,192,10621,1,0,0:0:0:0:
256,192,11307,1,0,0:0:0:0:
256,192,11650,1,0,0:0:0:0:
256,192,11993,1,0,0:0:0:0:
256,192,12336,5,8,0:0:0:0:
256,192,12678,5,0,0:0:0:0:
256,192,13021,5,8,0:0:0:0:
256,192,13536,5,0,0:0:0:0:
256,192,13878,5,8,0:0:0:0:
256,192,14393,1,8,0:0:0:0:
256,192,15078,1,8,0:0:0:0:
256,192,15421,5,0,0:0:0:0:
256,192,15764,5,8,0:0:0:0:
256,192,16278,5,0,0:0:0:0:
256,192,16621,5,8,0:0:0:0:
256,192,17136,1,8,0:0:0:0:
256,192,17478,5,0,0:0:0:0:
256,192,17650,1,0,0:0:0:0:
256,192,17821,5,8,0:0:0:0:
256,192,18164,5,0,0:0:0:0:
256,192,18507,5,8,0:0:0:0:
256,192,19021,5,0,0:0:0:0:
256,192,19364,5,8,0:0:0:0:
256,192,19878,1,8,0:0:0:0:
256,192,20221,5,0,0:0:0:0:
256,192,20564,5,8,0:0:0:0:
256,192,20907,5,0,0:0:0:0:
256,192,21250,5,8,0:0:0:0:
256,192,21764,5,0,0:0:0:0:
256,192,22107,5,8,0:0:0:0:
256,192,22278,8,0,23307,0:0:0:0:
256,192,23650,5,4,0:0:0:0:
256,192,23993,1,0,0:0:0:0:
256,192,24336,5,8,0:0:0:0:
256,192,24678,1,8,0:0:0:0:
256,192,25021,5,0,0:0:0:0:
256,192,25707,1,0,0:0:0:0:
256,192,26393,1,0,0:0:0:0:
256,192,26736,1,0,0:0:0:0:
256,192,27078,5,8,0:0:0:0:
256,192,27421,1,8,0:0:0:0:
256,192,27764,5,0,0:0:0:0:
256,192,28278,1,0,0:0:0:0:
256,192,28621,1,0,0:0:0:0:
256,192,28793,5,8,0:0:0:0:
256,192,29136,5,4,0:0:0:0:
256,192,29478,1,0,0:0:0:0:
256,192,29821,5,8,0:0:0:0:
256,192,30164,5,0,0:0:0:0:
256,192,30507,5,8,0:0:0:0:
256,192,30850,5,8,0:0:0:0:
256,192,31021,5,0,0:0:0:0:
256,192,31536,1,0,0:0:0:0:
256,192,31878,1,0,0:0:0:0:
256,192,32221,1,0,0:0:0:0:
256,192,32564,5,8,0:0:0:0:
256,192,32907,1,8,0:0:0:0:
256,192,33250,5,0,0:0:0:0:
256,192,33593,5,8,0:0:0:0:
256,192,33936,5,0,0:0:0:0:
256,192,34107,1,0,0:0:0:0:
256,192,34278,1,0,0:0:0:0:
256,192,34621,1,4,0:0:0:0:
256,192,35136,1,0,0:0:0:0:
256,192,35307,5,8,0:0:0:0:
256,192,35650,1,8,0:0:0:0:
256,192,35993,5,0,0:0:0:0:
256,192,36507,1,0,0:0:0:0:
256,192,36678,1,0,0:0:0:0:
256,192,36850,1,0,0:0:0:0:
256,192,37021,1,0,0:0:0:0:
256,192,37364,1,0,0:0:0:0:
256,192,37878,1,0,0:0:0:0:
256,192,38050,5,8,0:0:0:0:
256,192,38393,1,8,0:0:0:0:
256,192,38736,5,0,0:0:0:0:
256,192,39250,1,0,0:0:0:0:
256,192,39764,5,8,0:0:0:0:
256,192,40107,5,0,0:0:0:0:
256,192,40621,1,0,0:0:0:0:
256,192,40793,5,8,0:0:0:0:
256,192,41136,1,8,0:0:0:0:
256,192,41478,5,0,0:0:0:0:
256,192,41993,1,0,0:0:0:0:
256,192,42164,1,0,0:0:0:0:
256,192,42336,1,0,0:0:0:0:
256,192,42507,1,0,0:0:0:0:
256,192,42850,1,0,0:0:0:0:
256,192,43364,5,8,0:0:0:0:
256,192,43536,5,0,0:0:0:0:
256,192,43878,5,8,0:0:0:0:
256,192,44221,5,0,0:0:0:0:
256,192,44736,1,0,0:0:0:0:
256,192,45250,1,0,0:0:0:0:
256,192,45593,1,0,0:0:0:0:
256,192,46107,1,0,0:0:0:0:
256,192,46278,1,0,0:0:0:0:
256,192,46964,1,0,0:0:0:0:
256,192,47478,1,0,0:0:0:0:
256,192,47650,1,0,0:0:0:0:
256,192,48336,1,0,0:0:0:0:
256,192,48850,1,0,0:0:0:0:
256,192,49021,1,0,0:0:0:0:
256,192,49707,1,0,0:0:0:0:
256,192,50050,1,0,0:0:0:0:
256,192,50393,1,8,0:0:0:0:
256,192,50736,1,8,0:0:0:0:
256,192,51079,5,0,0:0:0:0:
256,192,51593,1,0,0:0:0:0:
256,192,51764,1,0,0:0:0:0:
256,192,52450,1,0,0:0:0:0:
256,192,52964,1,0,0:0:0:0:
256,192,53136,1,0,0:0:0:0:
256,192,53821,1,0,0:0:0:0:
256,192,54507,1,0,0:0:0:0:
256,192,55193,12,0,56221,0:0:0:0:
256,192,56564,5,4,0:0:0:0:
256,192,56907,1,0,0:0:0:0:
256,192,57250,1,0,0:0:0:0:
256,192,57936,5,0,0:0:0:0:
256,192,58278,1,0,0:0:0:0:
256,192,58621,1,0,0:0:0:0:
256,192,59136,5,8,0:0:0:0:
256,192,59307,5,0,0:0:0:0:
256,192,59650,1,0,0:0:0:0:
256,192,59993,1,0,0:0:0:0:
256,192,60507,5,8,0:0:0:0:
256,192,61021,1,8,0:0:0:0:
256,192,61707,1,8,0:0:0:0:
256,192,62050,5,0,0:0:0:0:
256,192,62393,1,0,0:0:0:0:
256,192,62736,1,0,0:0:0:0:
256,192,63250,1,0,0:0:0:0:
256,192,63936,5,8,0:0:0:0:
256,192,64450,1,8,0:0:0:0:
256,192,64793,5,0,0:0:0:0:
256,192,65136,5,8,0:0:0:0:
256,192,65478,5,0,0:0:0:0:
256,192,65821,5,8,0:0:0:0:
256,192,66164,5,0,0:0:0:0:
256,192,66336,1,0,0:0:0:0:
256,192,66507,1,0,0:0:0:0:
256,192,66850,1,0,0:0:0:0:
256,192,67193,1,0,0:0:0:0:
256,192,67536,1,4,0:0:0:0:
256,192,67878,1,0,0:0:0:0:
256,192,68221,1,0,0:0:0:0:
256,192,68907,1,0,0:0:0:0:
256,192,69250,1,0,0:0:0:0:
256,192,69593,1,0,0:0:0:0:
256,192,70278,5,8,0:0:0:0:
256,192,70964,1,8,0:0:0:0:
256,192,71478,1,8,0:0:0:0:
256,192,71993,1,8,0:0:0:0:
256,192,72336,5,0,0:0:0:0:
256,192,72507,1,0,0:0:0:0:
256,192,72678,5,8,0:0:0:0:
256,192,73021,5,0,0:0:0:0:
256,192,73364,1,0,0:0:0:0:
256,192,73707,1,0,0:0:0:0:
256,192,74393,1,0,0:0:0:0:
256,192,74736,1,0,0:0:0:0:
256,192,75078,1,0,0:0:0:0:
256,192,75593,5,8,0:0:0:0:
256,192,75936,5,0,0:0:0:0:
256,192,76107,1,0,0:0:0:0:
256,192,76450,1,0,0:0:0:0:
256,192,76793,5,8,0:0:0:0:
256,192,77136,5,0,0:0:0:0:
256,192,77650,1,0,0:0:0:0:
256,192,78164,5,8,0:0:0:0:
256,192,78507,12,0,83650,0:0:0:0:
256,192,83993,12,0,89478,0:0:0:0:
256,192,89821,5,4,0:0:0:0:
256,192,90336,1,0,0:0:0:0:
256,192,90678,1,0,0:0:0:0:
256,192,91021,1,0,0:0:0:0:
256,192,91193,5,8,0:0:0:0:
256,192,91536,5,0,0:0:0:0:
256,192,91878,5,8,0:0:0:0:
256,192,92221,5,0,0:0:0:0:
256,192,92564,5,8,0:0:0:0:
256,192,93078,5,0,0:0:0:0:
256,192,93421,5,8,0:0:0:0:
256,192,93764,5,0,0:0:0:0:
256,192,93936,5,8,0:0:0:0:
256,192,94278,5,0,0:0:0:0:
256,192,94621,5,8,0:0:0:0:
256,192,94964,5,0,0:0:0:0:
256,192,95307,5,8,0:0:0:0:
256,192,95821,5,0,0:0:0:0:
256,192,96164,5,8,0:0:0:0:
256,192,96507,5,0,0:0:0:0:
256,192,96678,5,8,0:0:0:0:
256,192,97193,5,0,0:0:0:0:
256,192,97364,5,8,0:0:0:0:
256,192,97707,5,0,0:0:0:0:
256,192,98050,5,8,0:0:0:0:
256,192,98564,5,0,0:0:0:0:
256,192,98907,5,8,0:0:0:0:
256,192,99421,1,8,0:0:0:0:
256,192,99936,1,8,0:0:0:0:
256,192,100107,1,8,0:0:0:0:
256,192,100450,5,0,0:0:0:0:
256,192,100793,1,0,0:0:0:0:
256,192,101136,1,0,0:0:0:0:
256,192,101821,1,0,0:0:0:0:
256,192,102336,1,0,0:0:0:0:
256,192,102678,5,8,0:0:0:0:
256,192,102850,1,8,0:0:0:0:
256,192,103193,5,0,0:0:0:0:
256,192,103536,1,0,0:0:0:0:
256,192,103878,1,0,0:0:0:0:
256,192,104564,1,0,0:0:0:0:
256,192,105078,1,0,0:0:0:0:
256,192,105593,1,8,0:0:0:0:
256,192,105936,5,0,0:0:0:0:
256,192,106278,1,0,0:0:0:0:
256,192,106621,1,0,0:0:0:0:
256,192,107136,1,0,0:0:0:0:
256,192,107821,1,0,0:0:0:0:
256,192,108164,1,0,0:0:0:0:
256,192,108336,5,8,0:0:0:0:
256,192,108678,5,0,0:0:0:0:
256,192,109021,1,0,0:0:0:0:
256,192,109364,1,0,0:0:0:0:
256,192,109878,5,8,0:0:0:0:
256,192,110564,1,8,0:0:0:0:
256,192,111078,1,8,0:0:0:0:
256,192,111421,5,0,0:0:0:0:
256,192,111764,1,0,0:0:0:0:
256,192,112278,1,0,0:0:0:0:
256,192,112450,5,8,0:0:0:0:
256,192,112793,5,0,0:0:0:0:
256,192,113136,1,0,0:0:0:0:
256,192,113650,1,0,0:0:0:0:
256,192,113821,5,8,0:0:0:0:
256,192,114164,5,0,0:0:0:0:
256,192,114336,1,0,0:0:0:0:
256,192,114507,1,0,0:0:0:0:
256,192,114850,1,0,0:0:0:0:
256,192,115193,1,0,0:0:0:0:
256,192,115536,1,0,0:0:0:0:
256,192,115878,5,8,0:0:0:0:
256,192,116221,5,0,0:0:0:0:
256,192,116564,5,8,0:0:0:0:
256,192,116907,5,4,0:0:0:0:
256,192,117250,1,0,0:0:0:0:
256,192,117593,1,0,0:0:0:0:
256,192,118278,5,8,0:0:0:0:
256,192,118793,1,8,0:0:0:0:
256,192,119136,5,0,0:0:0:0:
256,192,119307,5,8,0:0:0:0:
256,192,119650,5,0,0:0:0:0:
256,192,119993,1,0,0:0:0:0:
256,192,120336,1,0,0:0:0:0:
256,192,121021,1,0,0:0:0:0:
256,192,121707,1,0,0:0:0:0:
256,192,122393,1,0,0:0:0:0:
256,192,123764,1,0,0:0:0:0:
256,192,125136,1,0,0:0:0:0:
256,192,126507,1,0,0:0:0:0:
256,192,127536,1,0,0:0:0:0:
256,192,127878,1,0,0:0:0:0:
256,192,129250,1,0,0:0:0:0:
256,192,130621,1,0,0:0:0:0:
256,192,131993,12,0,133021,0:0:0:0:
256,192,133364,5,4,0:0:0:0:
256,192,133707,5,0,0:0:0:0:
256,192,134050,1,0,0:0:0:0:
256,192,134564,1,0,0:0:0:0:
256,192,135078,5,8,0:0:0:0:
256,192,135421,5,0,0:0:0:0:
256,192,135593,1,0,0:0:0:0:
256,192,135764,5,8,0:0:0:0:
256,192,136107,5,0,0:0:0:0:
256,192,136450,1,0,0:0:0:0:
256,192,136793,1,0,0:0:0:0:
256,192,137307,1,0,0:0:0:0:
256,192,137650,1,0,0:0:0:0:
256,192,137821,1,0,0:0:0:0:
256,192,137993,1,0,0:0:0:0:
256,192,138164,5,8,0:0:0:0:
256,192,138507,1,8,0:0:0:0:
256,192,138850,5,0,0:0:0:0:
256,192,139193,1,0,0:0:0:0:
256,192,139707,1,0,0:0:0:0:
256,192,139878,5,8,0:0:0:0:
256,192,140221,5,0,0:0:0:0:
256,192,140564,1,0,0:0:0:0:
256,192,141078,1,0,0:0:0:0:
256,192,141250,5,8,0:0:0:0:
256,192,141593,5,0,0:0:0:0:
256,192,141936,5,8,0:0:0:0:
256,192,142278,5,0,0:0:0:0:
256,192,142621,5,8,0:0:0:0:
256,192,142793,5,0,0:0:0:0:
256,192,142964,1,0,0:0:0:0:
256,192,143307,5,8,0:0:0:0:
256,192,143650,5,0,0:0:0:0:
256,192,143821,1,0,0:0:0:0:
256,192,143993,5,8,0:0:0:0:
256,192,144336,5,4,0:0:0:0:
256,192,144678,5,8,0:0:0:0:
256,192,145193,5,0,0:0:0:0:
256,192,145364,5,8,0:0:0:0:
256,192,145536,5,0,0:0:0:0:
256,192,145878,1,0,0:0:0:0:
256,192,146050,5,8,0:0:0:0:
256,192,146393,5,0,0:0:0:0:
256,192,146736,5,8,0:0:0:0:
256,192,147078,5,0,0:0:0:0:
256,192,147421,1,0,0:0:0:0:
256,192,147935,5,8,0:0:0:0:
256,192,148107,1,8,0:0:0:0:
256,192,148278,5,0,0:0:0:0:
256,192,148621,1,0,0:0:0:0:
256,192,148793,5,8,0:0:0:0:
256,192,149136,5,0,0:0:0:0:
256,192,149478,5,8,0:0:0:0:
256,192,149821,5,0,0:0:0:0:
256,192,150164,1,0,0:0:0:0:
256,192,150507,1,0,0:0:0:0:
256,192,150678,1,0,0:0:0:0:
256,192,150850,5,8,0:0:0:0:
256,192,151193,5,0,0:0:0:0:
256,192,151536,1,0,0:0:0:0:
256,192,151878,1,0,0:0:0:0:
256,192,152221,5,8,0:0:0:0:
256,192,152564,5,0,0:0:0:0:
256,192,153250,1,0,0:0:0:0:
256,192,153936,1,0,0:0:0:0:
256,192,154450,1,0,0:0:0:0:
256,192,154964,1,0,0:0:0:0:
256,192,155307,1,4,0:0:0:0:
256,192,155650,1,0,0:0:0:0:
256,192,155993,1,0,0:0:0:0:
256,192,156678,1,0,0:0:0:0:
256,192,157021,1,0,0:0:0:0:
256,192,157364,1,0,0:0:0:0:
256,192,157707,5,8,0:0:0:0:
256,192,158050,5,0,0:0:0:0:
256,192,158393,1,0,0:0:0:0:
256,192,158736,1,0,0:0:0:0:
256,192,159250,5,8,0:0:0:0:
256,192,159764,1,8,0:0:0:0:
256,192,160107,1,0,0:0:0:0:
256,192,160278,5,0,0:0:0:0:
256,192,160450,5,8,0:0:0:0:
256,192,160793,5,0,0:0:0:0:
256,192,161136,1,0,0:0:0:0:
256,192,161478,1,0,0:0:0:0:
256,192,162164,1,0,0:0:0:0:
256,192,162507,1,0,0:0:0:0:
256,192,162850,1,0,0:0:0:0:
256,192,163193,1,0,0:0:0:0:
256,192,163707,5,0,0:0:0:0:
256,192,163878,1,8,0:0:0:0:
256,192,164222,1,8,0:0:0:0:
256,192,164393,1,8,0:0:0:0:
256,192,164736,1,8,0:0:0:0:
256,192,164907,1,8,0:0:0:0:
256,192,165421,5,0,0:0:0:0:
256,192,165764,5,8,0:0:0:0:
256,192,165936,1,8,0:0:0:0:
256,192,166278,5,0,0:0:0:0:
256,192,166964,1,0,0:0:0:0:
256,192,167478,1,0,0:0:0:0:
256,192,167993,1,0,0:0:0:0:
256,192,168336,1,0,0:0:0:0:
256,192,169021,1,0,0:0:0:0:
256,192,169707,1,0,0:0:0:0:
256,192,170221,1,0,0:0:0:0:
256,192,170736,1,0,0:0:0:0:
256,192,171078,1,0,0:0:0:0:
256,192,171421,1,0,0:0:0:0:
256,192,171764,1,0,0:0:0:0:
256,192,172107,1,0,0:0:0:0:
256,192,172450,1,0,0:0:0:0:
256,192,172621,1,0,0:0:0:0:
256,192,172793,5,8,0:0:0:0:
256,192,173136,5,0,0:0:0:0:
256,192,173478,5,8,0:0:0:0:
256,192,173993,5,0,0:0:0:0:
256,192,174164,5,8,0:0:0:0:
256,192,174507,5,0,0:0:0:0:
256,192,175193,1,0,0:0:0:0:
256,192,175878,1,0,0:0:0:0:
256,192,176221,1,0,0:0:0:0:
256,192,176564,1,0,0:0:0:0:
256,192,176736,1,0,0:0:0:0:
256,192,176907,1,0,0:0:0:0:
256,192,177250,12,0,182393,0:0:0:0:
256,192,182736,12,0,187878,0:0:0:0:
256,192,188221,5,0,0:0:0:0:
256,192,188564,1,0,0:0:0:0:
256,192,188907,5,0,0:0:0:0:
256,192,189421,1,0,0:0:0:0:
256,192,189936,5,8,0:0:0:0:
256,192,190278,5,0,0:0:0:0:
256,192,190964,1,0,0:0:0:0:
256,192,191307,1,0,0:0:0:0:
256,192,191650,1,0,0:0:0:0:
256,192,192164,1,0,0:0:0:0:
256,192,192678,5,8,0:0:0:0:
256,192,193364,1,8,0:0:0:0:
256,192,193707,5,0,0:0:0:0:
256,192,194050,1,0,0:0:0:0:
256,192,194393,1,0,0:0:0:0:
256,192,194907,1,0,0:0:0:0:
256,192,195421,1,0,0:0:0:0:
256,192,195936,5,8,0:0:0:0:
256,192,196107,1,8,0:0:0:0:
256,192,196450,5,0,0:0:0:0:
256,192,196793,5,8,0:0:0:0:
256,192,197136,5,0,0:0:0:0:
256,192,197478,1,0,0:0:0:0:
256,192,197650,1,0,0:0:0:0:
256,192,197821,1,8,0:0:0:0:
256,192,198164,1,0,0:0:0:0:
256,192,198507,5,8,0:0:0:0:
256,192,198678,1,8,0:0:0:0:
256,192,198850,1,8,0:0:0:0:
256,192,199193,5,0,0:0:0:0:
256,192,199536,5,8,0:0:0:0:
256,192,199878,5,0,0:0:0:0:
256,192,200393,1,0,0:0:0:0:
256,192,200907,1,0,0:0:0:0:
256,192,201421,1,0,0:0:0:0:
256,192,201593,1,0,0:0:0:0:
256,192,201936,1,0,0:0:0:0:
256,192,202278,5,8,0:0:0:0:
256,192,202793,5,0,0:0:0:0:
256,192,202964,5,8,0:0:0:0:
256,192,203478,5,0,0:0:0:0:
256,192,203650,5,8,0:0:0:0:
256,192,203993,5,0,0:0:0:0:
256,192,204164,1,0,0:0:0:0:
256,192,204336,1,0,0:0:0:0:
256,192,204678,1,0,0:0:0:0:
256,192,205021,5,8,0:0:0:0:
256,192,205364,5,0,0:0:0:0:
256,192,205536,1,0,0:0:0:0:
256,192,205707,1,0,0:0:0:0:
256,192,206050,1,0,0:0:0:0:
256,192,206393,5,8,0:0:0:0:
256,192,206907,5,0,0:0:0:0:
256,192,207078,5,8,0:0:0:0:
256,192,207421,5,0,0:0:0:0:
256,192,207764,1,0,0:0:0:0:
256,192,208107,1,0,0:0:0:0:
256,192,208621,1,0,0:0:0:0:
256,192,208793,1,0,0:0:0:0:
256,192,209307,1,0,0:0:0:0:
256,192,209650,5,8,0:0:0:0:
256,192,209821,1,8,0:0:0:0:
256,192,210164,5,4,0:0:0:0:
256,192,210507,5,8,0:0:0:0:
256,192,210850,5,0,0:0:0:0:
256,192,211193,1,0,0:0:0:0:
256,192,211536,1,0,0:0:0:0:
256,192,211878,5,8,0:0:0:0:
256,192,212393,5,0,0:0:0:0:
256,192,212564,5,8,0:0:0:0:
256,192,212907,5,0,0:0:0:0:
256,192,213250,5,8,0:0:0:0:
256,192,213593,5,0,0:0:0:0:
256,192,213936,1,0,0:0:0:0:
256,192,214278,1,0,0:0:0:0:
256,192,214450,1,0,0:0:0:0:
256,192,214793,5,8,0:0:0:0:
256,192,214964,5,0,0:0:0:0:
256,192,215136,1,0,0:0:0:0:
256,192,215307,5,8,0:0:0:0:
256,192,215650,5,0,0:0:0:0:
256,192,215993,5,8,0:0:0:0:
256,192,216336,5,0,0:0:0:0:
256,192,216850,5,8,0:0:0:0:
256,192,217364,1,8,0:0:0:0:
256,192,217878,1,8,0:0:0:0:
256,192,218393,5,0,0:0:0:0:
256,192,218736,5,8,0:0:0:0:
256,192,219250,5,0,0:0:0:0:
256,192,219421,5,8,0:0:0:0:
256,192,219764,5,0,0:0:0:0:
256,192,220278,1,0,0:0:0:0:
256,192,220793,5,8,0:0:0:0:
256,192,221136,5,0,0:0:0:0:
256,192,221821,1,0,0:0:0:0:
256,192,222336,1,0,0:0:0:0:
256,192,223193,1,0,0:0:0:0:
256,192,223878,1,0,0:0:0:0:
256,192,224564,1,0,0:0:0:0:
256,192,225078,1,0,0:0:0:0:
256,192,225936,1,0,0:0:0:0:
256,192,226621,1,0,0:0:0:0:
256,192,226964,5,8,0:0:0:0:
256,192,227650,1,8,0:0:0:0:
256,192,227993,5,0,0:0:0:0:
256,192,228507,1,0,0:0:0:0:
256,192,229193,1,0,0:0:0:0:
256,192,229364,1,0,0:0:0:0:
256,192,229707,1,0,0:0:0:0:
256,192,230050,1,0,0:0:0:0:
256,192,230564,5,8,0:0:0:0:
256,192,231250,5,0,0:0:0:0:
256,192,231764,1,0,0:0:0:0:
256,192,232107,12,0,237250,0:0:0:0:
256,192,237593,12,0,243078,0:0:0:0:
