osu file format v12

[General]
AudioFilename: nyaa.mp3
AudioLeadIn: 0
PreviewTime: 14648
Countdown: 0
SampleSet: Soft
StackLeniency: 0.7
Mode: 0
LetterboxInBreaks: 0

[Editor]
DistanceSpacing: 1.1
BeatDivisor: 4
GridSize: 4

[Metadata]
Title:Graceful Anomaly
TitleUnicode:Graceful Anomaly
Artist:ave;new feat. Sakura Saori
ArtistUnicode:ave;new feat. 佐倉紗織
Creator:alacat
Version:Insane
Source:Magical Charming!
Tags:visual novel opening lump of sugar kosiga Melophobia hentai eroge
BeatmapID:246732
BeatmapSetID:91088

[Difficulty]
HPDrainRate:7
CircleSize:4
OverallDifficulty:7
ApproachRate:9
SliderMultiplier:1.8
SliderTickRate:1

[Events]
//Background and Video events
0,0,"me.jpg",0,0
Video,0,"op.flv"
//Break Periods
//Storyboard Layer 0 (Background)
//Storyboard Layer 1 (Fail)
//Storyboard Layer 2 (Pass)
//Storyboard Layer 3 (Foreground)
//Storyboard Sound Samples
//Background Colour Transformations
3,100,0,0,0

[TimingPoints]
13185,365.853658536585,4,2,1,50,1,0
13550,-100,4,2,2,40,0,0
14008,-100,4,2,1,50,0,0
14648,-100,4,2,1,70,0,1
19770,-100,4,2,1,50,0,1
19953,-100,4,2,1,55,0,1
20136,-100,4,2,1,60,0,1
20319,-100,4,2,1,65,0,1
20502,-100,4,2,1,70,0,1
23428,-100,4,2,1,75,0,1
24709,-100,4,2,1,80,0,1
25624,-100,4,2,1,70,0,1
25806,-100,4,2,1,60,0,1
25989,-100,4,2,1,50,0,1
27819,-100,4,2,1,70,0,0
28367,-100,4,2,2,50,0,0
29282,-133.333333333333,4,2,1,50,0,0
29648,-133.333333333333,4,2,1,40,0,0
29831,-133.333333333333,4,2,1,50,0,0
30014,-133.333333333333,4,2,1,40,0,0
30197,-133.333333333333,4,2,1,50,0,0
30380,-133.333333333333,4,2,1,40,0,0
30745,-133.333333333333,4,2,1,50,0,0
30928,-133.333333333333,4,2,1,40,0,0
31111,-133.333333333333,4,2,1,50,0,0
31294,-133.333333333333,4,2,1,40,0,0
32209,-133.333333333333,4,2,1,50,0,0
32575,-133.333333333333,4,2,1,40,0,0
32758,-133.333333333333,4,2,1,50,0,0
32941,-133.333333333333,4,2,1,40,0,0
33489,-133.333333333333,4,2,1,50,0,0
33672,-133.333333333333,4,2,1,40,0,0
33855,-133.333333333333,4,2,1,50,0,0
34038,-133.333333333333,4,2,1,40,0,0
34221,-133.333333333333,4,2,1,50,0,0
34404,-133.333333333333,4,2,1,40,0,0
34587,-133.333333333333,4,2,1,50,0,0
35136,-100,4,2,2,70,0,0
35227,-100,4,2,1,60,0,0
35684,-100,4,2,2,60,0,0
36233,-100,4,2,1,70,0,0
36599,-100,4,2,2,60,0,0
36965,-100,4,2,1,70,0,0
37148,-100,4,2,2,60,0,0
37697,-100,4,2,1,70,0,0
38063,-100,4,2,2,60,0,0
38245,-100,4,2,1,70,0,0
38611,-100,4,2,2,60,0,0
39160,-100,4,2,1,70,0,0
39709,-100,4,2,2,60,0,0
40624,-100,4,2,1,70,0,0
42453,-100,4,2,2,60,0,0
42544,-100,4,2,1,70,0,0
43002,-100,4,2,2,60,0,0
43367,-100,4,2,1,70,0,0
45380,-100,4,2,2,60,0,0
45471,-100,4,2,1,70,0,0
45928,-100,4,2,2,60,0,0
46111,-100,4,2,1,70,0,0
46294,-100,4,2,2,60,0,0
46477,-100,4,2,1,70,0,0
46660,-100,4,2,1,70,0,0
48306,-100,4,2,2,60,0,0
48398,-100,4,2,1,70,0,0
49770,-133.333333333333,4,2,1,50,0,0
50502,-133.333333333333,4,2,1,55,0,0
51233,-133.333333333333,4,2,1,60,0,0
51965,-133.333333333333,4,2,1,65,0,0
52697,-133.333333333333,4,2,1,70,0,0
54160,-133.333333333333,4,2,1,40,0,0
55441,-133.333333333333,4,2,1,50,0,0
55806,-133.333333333333,4,2,1,40,0,0
56538,-133.333333333333,4,2,1,60,0,0
57087,-100,4,2,1,50,0,0
57453,-100,4,2,2,40,0,0
57910,-100,4,2,1,50,0,0
58550,-100,4,2,1,70,0,1
60014,-100,4,2,1,80,0,1
60105,-100,4,2,1,70,0,1
61294,-100,4,2,1,60,0,1
61477,-100,4,2,1,70,0,1
62941,-100,4,2,1,80,0,1
63032,-100,4,2,1,70,0,1
63672,-100,4,2,1,60,0,1
64404,-100,4,2,1,80,0,1
64495,-100,4,2,1,70,0,1
65319,-100,4,2,1,80,0,1
65776,-100,4,2,1,70,0,1
66782,-100,4,2,1,80,0,1
67239,-100,4,2,1,70,0,1
67697,-100,4,2,1,80,0,1
68063,-100,4,2,1,70,0,1
68611,-100,4,2,1,80,0,1
68703,-100,4,2,1,70,0,1
69526,-100,4,2,1,80,0,0
70258,-100,4,2,1,80,0,1
70349,-100,4,2,1,70,0,1
73184,-100,4,2,1,80,0,1
73276,-100,4,2,1,70,0,1
74648,-100,4,2,1,80,0,1
74739,-100,4,2,1,70,0,1
75380,-100,4,2,1,80,0,1
75471,-100,4,2,1,70,0,1
76111,-133.333333333333,4,2,2,60,0,0
79038,-100,4,2,1,80,0,0
79221,-100,4,2,1,70,0,0
80319,-100,4,2,1,80,0,0
81233,-100,4,2,1,70,0,0
81416,-100,4,2,1,60,0,0
81599,-100,4,2,1,50,0,0
83245,-100,4,2,1,70,0,0
83611,-100,4,2,1,60,0,0
84892,-100,4,2,1,70,0,1
90014,-100,4,2,1,60,0,1
90380,-100,4,2,1,65,0,1
90745,-100,4,2,1,70,0,1
93672,-100,4,2,1,75,0,1
94953,-100,4,2,1,80,0,1
95867,-100,4,2,1,70,0,1
96050,-100,4,2,1,60,0,1
96233,-100,4,2,1,50,0,1
96416,-100,4,2,1,70,0,1
96508,-100,4,2,1,60,0,1
96965,-100,4,2,1,40,0,1
97514,-100,4,2,1,20,0,1
97880,-100,4,2,1,5,0,1
98063,-100,4,2,1,60,0,0
98794,-100,4,2,1,50,0,0
99526,-100,4,2,1,40,0,0
100258,-100,4,2,1,20,0,0
100989,-100,4,2,1,5,0,0

[Colours]
Combo1 : 255,255,255
Combo2 : 255,164,209
Combo3 : 142,255,255
Combo4 : 255,255,151

[HitObjects]
388,372,13184,2,0,P|345:320|281:316,1,135,4|0,0:0|0:0,0:0:0:0:
204,340,13550,2,0,P|168:308|160:268,1,90,8|8,0:0|0:0,0:0:0:0:
312,120,13916,2,0,B|268:199|268:199|224:212,1,135,8|0,0:0|0:0,0:0:0:0:
148,188,14282,2,0,L|104:200,2,45,8|8|0,0:0|0:3|0:3,0:0:0:0:
396,80,14648,6,0,L|488:68,1,90,4|0,0:0|0:0,0:0:0:0:
320,32,15014,1,8,0:0:0:0:
244,172,15197,2,0,P|236:220|244:264,1,90,2|0,0:0|0:0,0:0:0:0:
312,320,15563,1,2,0:0:0:0:
236,76,15745,1,8,0:0:0:0:
396,80,15928,6,0,L|488:68,1,90,4|0,0:0|0:0,0:0:0:0:
332,160,16294,2,0,L|240:172,1,90,2|8,0:0|0:0,0:0:0:0:
160,132,16660,2,0,P|64:123|7:178,1,180,4|0,0:0|0:0,0:0:0:0:
160,132,17209,1,8,0:0:0:0:
376,248,17392,1,0,0:0:0:0:
208,332,17575,6,0,P|192:292|200:244,1,90,4|0,0:0|0:0,0:0:0:0:
248,172,17941,1,8,0:0:0:0:
376,248,18124,2,0,L|468:236,1,90,2|0,0:0|0:0,0:0:0:0:
312,320,18489,1,2,0:0:0:0:
240,76,18672,1,8,0:0:0:0:
76,152,18855,6,0,P|160:184|248:172,1,180,4|0,0:0|0:0,0:0:0:0:
332,116,19404,1,8,0:0:0:0:
404,340,19587,1,0,0:0:0:0:
208,332,19770,1,2,0:0:0:0:
184,324,19861,1,0,0:0:0:0:
156,320,19953,1,0,0:0:0:0:
128,324,20044,1,0,0:0:0:0:
100,328,20136,2,0,L|72:312,7,22.5,10|0|0|0|0|0|0|0,0:0|0:0|0:0|0:0|0:0|0:0|0:0|0:0,0:0:0:0:
56,296,20502,6,0,P|40:252|40:208,1,90,4|0,0:0|0:0,0:0:0:0:
148,40,20867,1,8,0:0:0:0:
60,104,21051,2,0,P|132:148|220:120,1,180,2|2,0:0|0:0,0:0:0:0:
420,128,21599,1,8,0:0:0:0:
320,84,21782,6,0,L|304:172,1,90,4|0,0:0|0:0,0:0:0:0:
407,328,22148,2,0,L|392:240,1,90,2|8,0:0|0:0,0:0:0:0:
452,40,22514,2,0,P|508:116|484:192,1,180,4|0,0:0|0:0,0:0:0:0:
308,284,23063,1,8,0:0:0:0:
408,328,23245,1,0,0:0:0:0:
224,352,23428,6,0,P|142:310|139:227,1,180,4|8,0:0|0:0,0:0:0:0:
220,156,23977,1,2,0:0:0:0:
220,156,24343,2,0,P|229:108|220:68,1,90,2|8,0:0|0:0,0:0:0:0:
364,96,24709,2,0,B|344:166|388:218|388:218|376:266,1,180,4|0,0:0|0:0,0:0:0:0:
304,336,25258,1,12,0:0:0:0:
304,336,25624,5,2,0:0:0:0:
208,320,25806,1,0,0:0:0:0:
148,240,25989,1,2,0:0:0:0:
256,192,26172,12,4,27819,0:0:0:0:
280,336,28367,5,8,0:0:0:0:
292,324,28459,1,0,0:0:0:0:
308,312,28550,2,0,P|328:296|352:288,3,45,8|0|0|0,0:0|0:0|0:0|0:0,0:0:0:0:
372,284,28916,2,0,P|389:277|409:261,3,45,8|0|0|0,0:0|0:0|0:0|0:0,0:0:0:0:
432,232,29282,6,0,P|420:164|444:104,1,135.000005149842,4|0,0:0|0:0,0:0:0:0:
396,40,29831,2,0,L|328:52,1,67.5000025749208,2|0,0:0|0:0,0:0:0:0:
304,128,30197,2,0,L|236:140,1,67.5000025749208,2|0,0:0|0:0,0:0:0:0:
172,192,30563,1,0,0:0:0:0:
96,76,30745,1,2,0:0:0:0:
44,140,30928,1,0,0:0:0:0:
88,208,31111,2,0,P|92:248|88:276,1,67.5000025749208,2|0,0:0|0:0,0:0:0:0:
280,370,31660,6,0,P|276:330|279:303,1,67.5000025749208,0|2,0:0|0:0,0:0:0:0:
324,236,32026,1,0,0:0:0:0:
324,236,32209,2,0,P|340:168|328:104,1,135.000005149842,2|0,0:0|0:0,0:0:0:0:
442,39,32758,2,0,P|411:35|375:39,1,67.5000025749208,2|0,0:0|0:0,0:0:0:0:
180,104,33124,2,0,P|210:107|246:103,1,67.5000025749208
80,136,33489,2,0,P|60:160|45:193,1,67.5000025749208,2|0,0:0|0:0,0:0:0:0:
180,324,33855,5,2,0:0:0:0:
276,244,34038,1,0,0:0:0:0:
160,200,34221,1,2,0:0:0:0:
268,336,34404,1,0,0:0:0:0:
388,216,34587,1,2,0:0:0:0:
492,64,35136,6,0,B|456:148|456:148|488:184|480:232,1,180,6|8,0:0|0:0,0:0:0:0:
428,316,35684,1,2,0:0:0:0:
428,316,36050,1,2,0:0:0:0:
332,336,36233,1,8,0:0:0:0:
236,356,36416,1,0,0:0:0:0:
156,296,36599,2,0,P|188:212|156:132,1,180,2|8,0:0|0:0,0:0:0:0:
72,76,37148,1,2,0:0:0:0:
72,76,37514,1,2,0:0:0:0:
168,56,37697,1,8,0:0:0:0:
272,256,38063,5,6,0:0:0:0:
368,236,38246,1,0,0:0:0:0:
428,316,38428,1,8,0:0:0:0:
236,356,38611,2,0,P|176:300|184:208,1,180,2|2,0:0|0:0,0:0:0:0:
232,124,39160,2,0,L|216:36,1,90,8|4,0:0|0:0,0:0:0:0:
460,132,39709,6,0,L|500:156,2,45,0|0|8,0:0|0:0|0:0,0:0:0:0:
472,248,40075,2,0,L|500:284,2,45,0|0|8,0:0|0:0|0:0,0:0:0:0:
376,292,40441,1,0,0:0:0:0:
372,308,40532,1,0,0:0:0:0:
368,324,40624,1,8,0:0:0:0:
292,220,40806,5,0,0:0:0:0:
248,124,40989,1,6,0:0:0:0:
248,124,41355,1,8,0:0:0:0:
64,176,41538,1,0,0:0:0:0:
144,104,41721,1,2,0:0:0:0:
144,104,42087,1,8,0:0:0:0:
396,356,42453,6,0,P|424:312|428:276,1,90,2|0,0:0|0:0,0:0:0:0:
384,184,42819,1,8,0:0:0:0:
292,220,43002,1,2,0:0:0:0:
292,220,43367,2,0,L|200:220,1,90,8|8,0:0|0:0,0:0:0:0:
116,288,43733,5,0,0:0:0:0:
20,244,43916,1,6,0:0:0:0:
20,244,44282,1,8,0:0:0:0:
72,60,44465,1,0,0:0:0:0:
0,140,44648,1,2,0:0:0:0:
0,140,45014,1,8,0:0:0:0:
240,280,45380,6,0,P|236:324|212:364,1,90,2|0,0:0|0:0,0:0:0:0:
240,280,45745,1,8,0:0:0:0:
208,176,45928,1,2,0:0:0:0:
284,100,46111,2,0,P|332:100|372:116,1,90,8|2,0:0|0:0,0:0:0:0:
448,200,46477,1,8,0:0:0:0:
456,216,46569,1,0,0:0:0:0:
464,232,46660,5,0,0:0:0:0:
424,332,46843,1,6,0:0:0:0:
424,332,47209,1,8,0:0:0:0:
240,280,47392,1,0,0:0:0:0:
320,352,47575,1,2,0:0:0:0:
320,352,47941,1,8,0:0:0:0:
348,248,48124,6,0,P|364:204|368:160,2,90,2|2|2,0:0|0:0|0:0,0:0:0:0:
264,180,48672,1,8,0:0:0:0:
164,216,48855,2,0,P|72:208|36:136,1,180,2|2,0:0|0:0,0:0:0:0:
76,36,49404,1,8,0:0:0:0:
76,36,49770,6,0,L|144:56,1,67.5000025749208,4|0,0:0|0:0,0:0:0:0:
280,68,50136,2,0,L|216:88,1,67.5000025749208,8|0,0:0|0:0,0:0:0:0:
348,116,50502,2,0,L|368:180,1,67.5000025749208
344,312,50867,2,0,L|324:248,1,67.5000025749208,8|0,0:0|0:0,0:0:0:0:
252,204,51233,6,0,L|184:200,1,67.5000025749208,4|0,0:0|0:0,0:0:0:0:
412,256,51599,2,0,L|480:260,1,67.5000025749208,8|0,0:0|0:0,0:0:0:0:
252,284,51965,2,0,L|236:352,1,67.5000025749208
116,145,52331,2,0,L|132:80,1,67.5000025749208,8|0,0:0|0:0,0:0:0:0:
64,252,52697,22,0,B|75:290|75:290|94:313|94:313|103:344,2,101.250003862381,4|2|2,0:0|0:0|0:0,0:0:0:0:
196,144,53428,2,0,B|207:105|207:105|226:82|226:82|235:51,2,101.250003862381,2|2|2,0:0|0:0|0:0,0:0:0:0:
256,192,54160,12,2,55441,0:0:0:0:
174,86,55806,6,0,P|138:78|112:64,1,67.5000025749208,2|0,0:0|0:0,0:0:0:0:
256,60,56172,2,0,P|264:124|248:192,1,135.000005149842,2|2,0:0|0:0,0:0:0:0:
84,324,57087,6,0,P|78:258|100:192,1,135,8|0,0:3|0:0,0:0:0:0:
140,168,57453,1,8,0:0:0:0:
256,272,57636,1,8,0:0:0:0:
352,320,57819,2,0,P|408:320|464:264,1,135,8|0,0:0|0:0,0:0:0:0:
468,232,58184,2,0,L|472:188,2,45,8|0|0,0:0|0:0|0:0,0:0:0:0:
344,176,58550,5,4,0:0:0:0:
256,272,58733,1,0,0:0:0:0:
140,168,58916,2,0,P|96:168|48:180,1,90,8|0,0:0|0:0,0:0:0:0:
12,272,59282,1,2,0:0:0:0:
140,168,59465,1,0,0:0:0:0:
16,84,59648,1,10,0:0:0:0:
112,268,59831,1,0,0:0:0:0:
184,344,60014,6,0,P|276:368|344:324,1,180,4|8,0:0|0:0,0:0:0:0:
356,228,60563,1,0,0:0:0:0:
448,72,60745,2,0,P|444:115|428:159,1,90,2|0,0:0|0:0,0:0:0:0:
356,228,61111,1,10,0:0:0:0:
140,168,61294,1,2,0:0:0:0:
64,240,61477,6,0,B|12:184|48:116|48:116|16:84,1,180,4|8,0:0|0:0,0:0:0:0:
160,268,62026,2,0,P|168:316|164:360,1,90,0|2,0:0|0:0,0:0:0:0:
140,168,62392,1,0,0:0:0:0:
356,228,62575,1,10,0:0:0:0:
232,40,62758,1,0,0:0:0:0:
268,280,62941,5,4,0:0:0:0:
356,324,63124,1,0,0:0:0:0:
356,324,63215,1,0,0:0:0:0:
356,324,63306,1,8,0:0:0:0:
444,280,63489,1,0,0:0:0:0:
448,180,63672,2,0,L|440:88,1,90,2|0,0:0|0:0,0:0:0:0:
232,40,64038,2,0,L|239:129,1,90,10|0,0:0|0:0,0:0:0:0:
268,280,64404,6,0,P|192:320|108:288,1,180,4|8,0:0|0:0,0:0:0:0:
52,208,64953,2,0,P|60:160|60:116,1,90,2|0,0:0|0:0,0:0:0:0:
8,32,65319,1,8,0:0:0:0:
176,132,65502,1,8,0:0:0:0:
260,184,65684,6,0,P|344:176|412:112,1,180,4|0,0:0|0:0,0:0:0:0:
476,36,66233,1,8,0:0:0:0:
476,188,66416,2,0,P|472:236|464:280,1,90,2|0,0:0|0:0,0:0:0:0:
404,356,66782,1,8,0:0:0:0:
260,184,66965,1,8,0:0:0:0:
172,228,67148,6,0,P|80:236|24:176,1,180,4|0,0:0|0:0,0:0:0:0:
48,80,67697,1,12,0:0:0:0:
48,80,68063,1,2,0:0:0:0:
160,108,68245,1,0,0:0:0:0:
268,64,68428,1,10,0:0:0:0:
472,72,68611,2,0,P|432:148|344:152,1,180,4|0,0:0|0:0,0:0:0:0:
160,108,69160,1,8,0:0:0:0:
172,228,69343,1,0,0:0:0:0:
272,288,69526,5,2,0:0:0:0:
280,304,69617,1,0,0:0:0:0:
288,320,69709,1,0,0:0:0:0:
296,336,69800,1,0,0:0:0:0:
304,352,69892,1,2,0:0:0:0:
60,188,70258,6,0,P|44:232|48:276,1,90,4|0,0:0|0:0,0:0:0:0:
160,108,70624,2,0,L|248:88,1,90,8|0,0:0|0:0,0:0:0:0:
40,60,70989,1,2,0:0:0:0:
172,228,71172,1,0,0:0:0:0:
352,184,71355,1,10,0:0:0:0:
440,144,71538,5,2,0:0:0:0:
504,220,71722,2,0,P|491:268|466:299,1,90,4|0,0:0|0:0,0:0:0:0:
352,184,72087,1,8,0:0:0:0:
228,300,72270,2,0,P|136:312|80:252,1,180,2|2,0:0|0:0,0:0:0:0:
108,160,72819,1,8,0:0:0:0:
260,180,73002,5,0,0:0:0:0:
260,180,73093,1,0,0:0:0:0:
260,180,73184,2,0,P|292:216|304:256,1,90,4|0,0:0|0:0,0:0:0:0:
292,356,73550,1,8,0:0:0:0:
104,332,73733,2,0,P|72:296|60:256,1,90,0|2,0:0|0:0,0:0:0:0:
108,160,74099,1,0,0:0:0:0:
336,80,74282,1,10,0:0:0:0:
204,64,74465,1,0,0:0:0:0:
388,204,74648,6,0,P|436:208|480:200,2,90,4|0|8,0:0|0:0|0:0,0:0:0:0:
172,212,75197,1,0,0:0:0:0:
172,212,75380,2,0,P|156:300|172:340,1,135,4|0,0:0|0:0,0:0:0:0:
204,368,75745,2,0,L|296:356,1,90,8|0,0:0|0:0,0:0:0:0:
472,232,76111,6,0,P|440:280|368:288,1,135.000005149842,4|0,0:0|0:0,0:0:0:0:
264,164,76660,2,0,L|284:228,1,67.5000025749208,0|12,0:0|0:0,0:0:0:0:
100,148,77209,1,0,0:0:0:0:
52,240,77392,2,0,P|0:188|0:128,2,135.000005149842
52,240,78306,1,8,0:0:0:0:
244,304,78672,5,8,0:0:0:0:
256,288,78764,1,8,0:0:0:0:
268,272,78855,1,8,0:0:0:0:
280,256,78947,1,8,0:0:0:0:
292,240,79038,1,4,0:0:0:0:
376,192,79221,6,0,P|384:148|376:104,2,90,0|8|0,0:0|0:0|0:0,0:0:0:0:
152,192,79770,2,0,P|144:236|152:280,1,90
328,352,80136,1,8,0:0:0:0:
448,312,80319,2,0,B|472:224|472:224|464:136,1,180,4|4,0:0|0:0,0:0:0:0:
463,135,80867,1,4,0:0:0:0:
48,248,81233,5,2,0:0:0:0:
76,156,81416,1,0,0:0:0:0:
156,100,81599,1,2,0:0:0:0:
256,192,81782,12,4,83245,0:0:0:0:
208,256,83611,5,2,0:0:0:0:
24,144,83794,1,2,0:0:0:0:
48,248,83977,1,2,0:0:0:0:
128,176,84160,2,0,P|190:148|257:159,1,135,2|0,0:0|0:0,0:0:0:0:
320,200,84526,2,0,L|364:188,2,45,8|0|0,0:0|0:0|0:0,0:0:0:0:
44,336,84892,6,0,P|40:296|48:248,1,90,4|0,0:0|0:0,0:0:0:0:
128,176,85258,1,8,0:0:0:0:
228,40,85441,2,0,P|232:80|224:128,1,90,2|0,0:0|0:0,0:0:0:0:
160,276,85806,1,2,0:0:0:0:
24,144,85989,1,8,0:0:0:0:
248,228,86172,6,0,P|336:240|408:184,1,180,4|0,0:0|0:0,0:0:0:0:
308,136,86721,1,8,0:0:0:0:
244,324,86904,2,0,P|164:368|88:336,1,180,4|0,0:0|0:0,0:0:0:0:
128,176,87453,1,8,0:0:0:0:
244,324,87636,1,0,0:0:0:0:
402,296,87819,6,0,L|492:304,1,90,4|0,0:0|0:0,0:0:0:0:
320,244,88184,1,8,0:0:0:0:
240,188,88367,2,0,P|228:140|232:100,1,90,2|0,0:0|0:0,0:0:0:0:
308,32,88733,1,2,0:0:0:0:
128,176,88916,1,8,0:0:0:0:
92,280,89099,6,0,P|144:356|228:360,1,180,4|0,0:0|0:0,0:0:0:0:
404,296,89648,1,8,0:0:0:0:
332,144,89831,1,0,0:0:0:0:
180,256,90014,1,2,0:0:0:0:
180,256,90105,1,0,0:0:0:0:
180,256,90197,1,0,0:0:0:0:
24,200,90380,1,10,0:0:0:0:
12,180,90471,1,0,0:0:0:0:
8,156,90563,1,0,0:0:0:0:
12,132,90654,1,0,0:0:0:0:
24,112,90745,6,0,P|44:72|48:24,1,90,4|0,0:0|0:0,0:0:0:0:
164,72,91111,1,8,0:0:0:0:
332,144,91294,2,0,P|424:140|500:96,1,180,2|2,0:0|0:0,0:0:0:0:
272,60,91843,1,8,0:0:0:0:
128,176,92026,6,0,L|112:268,1,90,4|0,0:0|0:0,0:0:0:0:
44,336,92392,1,0,0:0:0:0:
12,244,92575,1,8,0:0:0:0:
172,336,92758,2,0,P|256:360|344:336,1,180,4|0,0:0|0:0,0:0:0:0:
384,176,93306,2,0,L|400:268,1,90,8|0,0:0|0:0,0:0:0:0:
264,236,93672,6,0,B|288:156|288:156|272:60,1,180,4|8,0:0|0:0,0:0:0:0:
108,84,94221,1,2,0:0:0:0:
404,84,94587,1,2,0:0:0:0:
172,336,94953,2,0,P|256:360|344:336,1,180,4|4,0:0|0:0,0:0:0:0:
400,256,95502,1,4,0:0:0:0:
400,256,95867,5,2,0:0:0:0:
452,172,96050,1,0,0:0:0:0:
404,84,96233,1,2,0:0:0:0:
308,108,96416,1,4,0:0:0:0:
256,192,96508,12,0,97880,0:0:0:0:
256,192,98063,12,4,100989,0:0:0:0:
