osu file format v12

[General]
AudioFilename: GIRLS.mp3
AudioLeadIn: 0
PreviewTime: -1
Countdown: 0
SampleSet: Normal
StackLeniency: 0.5
Mode: 0
LetterboxInBreaks: 1
WidescreenStoryboard: 0

[Editor]
DistanceSpacing: 1.2
BeatDivisor: 4
GridSize: 4

[Metadata]
Title:GIRLS -HARD dRESS STYLE-
TitleUnicode:GIRLS -HARD dRESS STYLE-
Artist:ave;new feat. Sakura Saori
ArtistUnicode:ave;new feat.佐倉紗織
Creator:[CSGA]Ar3sgice
Version:LUNATiC dRESS
Source:
Tags:inscribe CREEd a.k.a.dRESS avenew
BeatmapID:364621
BeatmapSetID:147258

[Difficulty]
HPDrainRate:3
CircleSize:4
OverallDifficulty:8
ApproachRate:9
SliderMultiplier:1.8
SliderTickRate:1

[Events]
//Background and Video events
0,0,"ev206bn5.JPG",0,0
//Break Periods
//Storyboard Layer 0 (Background)
//Storyboard Layer 1 (Fail)
//Storyboard Layer 2 (Pass)
//Storyboard Layer 3 (Foreground)
//Storyboard Sound Samples
//Background Colour Transformations
3,100,163,162,255

[TimingPoints]
384,428.571428571429,4,1,1,60,1,0
33812,-50,4,1,1,60,0,0
34884,-100,4,1,1,60,0,0
88991,-100,4,1,1,30,0,0
91884,-100,4,1,1,45,0,0
92526,-100,4,1,1,60,0,0
97241,-100,4,1,1,30,0,0
99384,-100,4,1,1,60,0,0
103562,-100,4,1,1,30,0,0
106669,-100,4,1,1,45,0,0
114384,-100,4,1,1,30,0,0
116634,-100,4,1,1,45,0,0
117169,-100,4,1,1,60,0,0
129812,-50,4,1,1,60,0,0
130884,-100,4,1,1,60,0,0
171598,-100,4,1,1,30,0,0
175026,-100,4,1,1,45,0,0
179312,-100,4,1,1,30,0,0
181884,-100,4,1,1,45,0,0
182419,-100,4,1,1,30,0,0
184991,-100,4,1,1,45,0,0
186384,-100,4,1,1,30,0,0
189169,-100,4,1,1,45,0,0
192384,-100,4,1,1,60,0,0
245312,-100,4,1,1,45,0,0
258384,-100,4,1,1,30,0,0
260955,-100,4,1,1,45,0,0
266955,-100,4,1,1,30,0,0
269741,-100,4,1,1,45,0,0

[Colours]
Combo1 : 254,190,133
Combo2 : 255,134,134
Combo3 : 255,191,238
Combo4 : 240,252,158

[HitObjects]
88,236,33812,2,0,P|36:160|132:36,1,270,0|0,0:0|0:0,0:0:0:0:
424,148,34241,2,0,P|476:224|380:348,1,270,8|0,0:0|0:0,0:0:0:0:
380,347,34669,5,0,0:0:0:0:
284,296,34884,2,0,P|236:300|196:320,1,90,0|8,0:0|0:0,0:0:0:0:
376,244,35312,1,0,0:0:0:0:
472,32,35526,2,0,P|484:80|480:136,1,90,0|0,0:0|0:0,0:0:0:0:
284,148,35848,2,0,P|272:100|288:4,1,135,8|0,0:0|0:0,0:0:0:0:
282,16,36276,1,0,0:0:0:0:
282,16,36384,1,0,0:0:0:0:
380,64,36598,5,0,0:0:0:0:
192,36,36812,2,0,P|144:40|104:64,1,90,8|0,0:0|0:0,0:0:0:0:
228,228,37241,1,0,0:0:0:0:
364,176,37348,1,0,0:0:0:0:
32,328,37562,2,0,P|76:352|160:348,1,135,8|0,0:0|0:0,0:0:0:0:
200,308,37991,5,0,0:0:0:0:
200,308,38098,2,0,L|212:216,1,90,0|0,0:0|0:0,0:0:0:0:
80,104,38526,1,8,0:0:0:0:
80,104,38634,2,0,L|64:200,1,90,0|0,0:0|0:0,0:0:0:0:
164,76,38955,1,0,0:0:0:0:
4,20,39169,1,0,0:0:0:0:
164,76,39384,2,0,L|260:64,1,90,8|0,0:0|0:0,0:0:0:0:
384,132,39812,5,0,0:0:0:0:
384,132,39919,2,0,P|396:176|388:236,1,90,0|0,0:0|0:0,0:0:0:0:
364,264,40241,2,0,P|361:308|372:352,1,90,8|0,0:0|0:0,0:0:0:0:
476,320,40669,1,0,0:0:0:0:
272,288,40776,1,0,0:0:0:0:
272,288,40991,2,0,L|260:152,1,135,0|0,0:0|0:0,0:0:0:0:
436,48,41526,5,0,0:0:0:0:
332,80,41741,1,0,0:0:0:0:
436,48,41955,2,0,P|448:100|440:152,1,90,8|0,0:0|0:0,0:0:0:0:
240,24,42384,1,0,0:0:0:0:
112,208,42598,1,0,0:0:0:0:
36,152,42705,2,0,P|76:124|164:132,1,135,8|0,0:0|0:0,0:0:0:0:
288,272,43241,5,0,0:0:0:0:
176,360,43455,1,0,0:0:0:0:
288,272,43669,2,0,L|384:288,1,90,8|0,0:0|0:0,0:0:0:0:
496,144,44098,1,0,0:0:0:0:
380,176,44205,1,0,0:0:0:0:
380,176,44419,2,0,P|360:128|368:44,1,135,0|0,0:0|0:0,0:0:0:0:
460,252,44955,6,0,P|456:296|436:344,1,90,0|0,0:0|0:0,0:0:0:0:
280,192,45384,1,8,0:0:0:0:
280,192,45491,2,0,P|284:148|304:100,1,90,0|0,0:0|0:0,0:0:0:0:
352,84,45812,1,0,0:0:0:0:
200,28,46026,2,0,P|156:36|112:60,1,90,8|8,0:0|0:0,0:0:0:0:
232,276,46455,6,0,P|288:284|360:244,1,135,0|0,0:0|0:0,0:0:0:0:
388,204,46884,1,0,0:0:0:0:
304,368,47098,1,8,0:0:0:0:
204,156,47312,1,0,0:0:0:0:
464,272,47526,1,0,0:0:0:0:
464,272,47634,2,0,L|472:180,1,90,0|0,0:0|0:0,0:0:0:0:
472,168,47955,1,8,0:0:0:0:
473,154,48169,5,0,0:0:0:0:
474,140,48276,1,0,0:0:0:0:
477,126,48384,1,0,0:0:0:0:
368,40,48598,6,0,P|320:36|272:48,1,90,0|8,0:0|0:0,0:0:0:0:
144,256,49026,1,0,0:0:0:0:
0,120,49241,1,0,0:0:0:0:
72,192,49348,2,0,P|96:144|92:96,1,90,0|0,0:0|0:0,0:0:0:0:
128,68,49669,1,8,0:0:0:0:
236,136,49884,2,0,L|280:160,1,45,0|0,0:0|0:0,0:0:0:0:
320,184,50098,1,0,0:0:0:0:
444,56,50312,6,0,P|460:100|460:148,1,90,0|8,0:0|0:0,0:0:0:0:
332,352,50741,1,0,0:0:0:0:
496,228,50955,1,0,0:0:0:0:
384,256,51062,2,0,P|364:212|364:160,1,90,0|0,0:0|0:0,0:0:0:0:
392,124,51384,1,8,0:0:0:0:
256,72,51598,2,0,L|212:52,2,45,8|0|0,0:0|0:0|0:0,0:0:0:0:
144,168,52026,6,0,P|96:172|40:156,1,90,0|8,0:0|0:0,0:0:0:0:
244,224,52455,1,0,0:0:0:0:
8,84,52669,1,0,0:0:0:0:
68,184,52776,2,0,P|68:236|48:280,1,90,0|0,0:0|0:0,0:0:0:0:
8,316,53098,2,0,L|100:352,1,90,8|0,0:0|0:0,0:0:0:0:
208,296,53526,5,0,0:0:0:0:
248,304,53634,1,0,0:0:0:0:
288,296,53741,1,0,0:0:0:0:
316,268,53848,1,0,0:0:0:0:
324,228,53955,2,0,L|316:176,1,45,8|0,0:0|0:0,0:0:0:0:
392,160,54169,2,0,L|392:112,1,45,8|0,0:0|0:0,0:0:0:0:
452,48,54384,5,0,0:0:0:0:
304,80,54491,2,0,P|252:80|208:64,1,90,0|0,0:0|0:0,0:0:0:0:
80,140,54812,2,0,L|128:144,1,45,8|0,0:0|0:0,0:0:0:0:
236,216,55026,2,0,L|188:232,1,45,0|0,0:0|0:0,0:0:0:0:
128,336,55241,1,0,0:0:0:0:
304,164,55455,6,0,P|352:168|396:184,1,90,0|8,0:0|0:0,0:0:0:0:
328,264,55884,1,0,0:0:0:0:
504,80,56098,1,0,0:0:0:0:
400,40,56205,2,0,P|352:40|304:64,1,90,0|0,0:0|0:0,0:0:0:0:
208,40,56526,2,0,P|164:56|116:52,1,90,8|0,0:0|0:0,0:0:0:0:
8,272,56955,5,0,0:0:0:0:
192,180,57169,2,0,P|204:224|208:272,1,90,0|8,0:0|0:0,0:0:0:0:
120,140,57598,2,0,L|60:140,1,45,0|0,0:0|0:0,0:0:0:0:
264,92,57812,1,0,0:0:0:0:
308,156,57919,2,0,P|356:164|408:156,1,90,0|0,0:0|0:0,0:0:0:0:
488,272,58241,2,0,P|440:264|388:272,1,90,8|0,0:0|0:0,0:0:0:0:
460,40,58669,5,0,0:0:0:0:
468,76,58776,1,0,0:0:0:0:
464,112,58884,1,0,0:0:0:0:
448,144,58991,1,0,0:0:0:0:
384,200,59098,5,8,0:0:0:0:
344,168,59205,1,0,0:0:0:0:
328,120,59312,1,0,0:0:0:0:
332,68,59419,1,0,0:0:0:0:
268,0,59526,5,0,0:0:0:0:
144,108,59634,2,0,P|132:152|136:200,1,90,0|0,0:0|0:0,0:0:0:0:
232,272,59955,2,0,L|221:228,1,45,8|0,0:0|0:0,0:0:0:0:
48,192,60169,2,0,L|40:236,1,45,8|0,0:0|0:0,0:0:0:0:
152,344,60384,5,0,0:0:0:0:
184,360,60491,1,0,0:0:0:0:
220,364,60598,1,0,0:0:0:0:
256,360,60705,1,0,0:0:0:0:
288,344,60812,6,0,L|304:320,1,22.5,8|0,0:0|0:0,0:0:0:0:
324,336,60919,2,0,L|344:320,1,22.5,0|0,0:0|0:0,0:0:0:0:
360,336,61026,2,0,L|384:328,1,22.5,0|0,0:0|0:0,0:0:0:0:
396,348,61134,2,0,L|424:344,1,22.5,0|0,0:0|0:0,0:0:0:0:
428,368,61241,6,0,L|476:352,1,45,0|0,0:0|0:0,0:0:0:0:
492,220,61455,2,0,L|448:232,1,45,0|0,0:0|0:0,0:0:0:0:
324,168,61669,2,0,P|316:120|328:80,1,90,8|0,0:0|0:0,0:0:0:0:
436,56,62098,5,0,0:0:0:0:
224,16,62312,1,0,0:0:0:0:
388,256,62526,2,0,L|408:160,1,90,8|0,0:0|0:0,0:0:0:0:
244,348,62955,2,0,P|192:360|108:348,1,135,0|0,0:0|0:0,0:0:0:0:
16,264,63384,1,8,0:0:0:0:
136,72,63598,5,0,0:0:0:0:
136,72,63705,2,0,L|144:176,1,90,0|0,0:0|0:0,0:0:0:0:
200,236,64026,1,0,0:0:0:0:
40,20,64241,1,8,0:0:0:0:
232,104,64455,1,0,0:0:0:0:
72,160,64669,1,0,0:0:0:0:
212,24,64776,2,0,P|260:24|308:52,1,90,0|0,0:0|0:0,0:0:0:0:
364,128,65098,2,0,L|372:176,1,45,8|0,0:0|0:0,0:0:0:0:
492,120,65312,2,0,L|484:72,1,45,0|0,0:0|0:0,0:0:0:0:
328,252,65526,6,0,P|376:260|416:252,1,90,0|0,0:0|0:0,0:0:0:0:
272,352,65848,1,0,0:0:0:0:
216,348,65955,2,0,P|196:328|184:308,1,45,8|0,0:0|0:0,0:0:0:0:
232,184,66169,2,0,L|224:240,1,45,0|0,0:0|0:0,0:0:0:0:
152,96,66384,2,0,P|204:108|252:100,1,90,0|0,0:0|0:0,0:0:0:0:
332,48,66705,2,0,L|356:96,1,45,0|8,0:0|0:0,0:0:0:0:
416,200,66919,1,0,0:0:0:0:
416,200,67026,2,0,L|444:248,1,45,8|0,0:0|0:0,0:0:0:0:
460,112,67241,5,0,0:0:0:0:
328,264,67455,1,0,0:0:0:0:
480,360,67669,2,0,P|496:312|496:268,1,90,8|0,0:0|0:0,0:0:0:0:
144,176,68098,1,0,0:0:0:0:
88,256,68205,2,0,P|144:272|176:268,1,90,0|0,0:0|0:0,0:0:0:0:
200,96,68526,2,0,P|144:80|112:84,1,90,8|0,0:0|0:0,0:0:0:0:
4,328,68955,5,0,0:0:0:0:
240,180,69169,1,0,0:0:0:0:
200,372,69384,1,8,0:0:0:0:
44,140,69598,1,0,0:0:0:0:
280,280,69812,2,0,P|332:288|420:256,1,135,0|0,0:0|0:0,0:0:0:0:
480,160,70241,1,8,0:0:0:0:
356,256,70455,6,0,P|352:300|364:344,1,90,0|0,0:0|0:0,0:0:0:0:
388,112,70884,2,0,P|392:68|380:24,1,90,0|8,0:0|0:0,0:0:0:0:
208,208,71312,1,0,0:0:0:0:
460,264,71526,5,0,0:0:0:0:
320,168,71634,2,0,P|276:184|228:180,1,90,0|0,0:0|0:0,0:0:0:0:
40,120,71955,2,0,L|96:112,1,45,8|0,0:0|0:0,0:0:0:0:
128,276,72169,5,0,0:0:0:0:
84,260,72276,1,0,0:0:0:0:
52,224,72384,2,0,P|40:180|44:136,1,90,0|0,0:0|0:0,0:0:0:0:
236,40,72812,1,8,0:0:0:0:
236,40,73026,2,0,P|248:84|244:128,1,90,0|0,0:0|0:0,0:0:0:0:
328,280,73455,1,0,0:0:0:0:
372,288,73562,1,0,0:0:0:0:
416,280,73669,2,0,P|464:268|504:236,1,90,8|0,0:0|0:0,0:0:0:0:
412,152,74098,5,0,0:0:0:0:
488,360,74312,1,0,0:0:0:0:
256,232,74526,2,0,L|200:240,1,45,8|0,0:0|0:0,0:0:0:0:
128,144,74741,2,0,L|176:148,1,45,8|0,0:0|0:0,0:0:0:0:
56,216,74955,1,0,0:0:0:0:
56,216,75062,2,0,P|28:164|28:128,1,90,0|0,0:0|0:0,0:0:0:0:
192,72,75384,2,0,P|220:124|220:160,1,90,8|0,0:0|0:0,0:0:0:0:
140,300,75812,5,0,0:0:0:0:
312,368,76026,1,0,0:0:0:0:
140,300,76241,2,0,L|232:304,1,90,8|0,0:0|0:0,0:0:0:0:
448,248,76669,2,0,P|456:200|440:116,1,135,0|0,0:0|0:0,0:0:0:0:
344,48,77098,1,8,0:0:0:0:
140,160,77312,6,0,L|240:152,1,90,0|0,0:0|0:0,0:0:0:0:
28,52,77741,1,0,0:0:0:0:
28,52,77848,1,0,0:0:0:0:
28,52,77955,2,0,L|12:144,1,90,8|0,0:0|0:0,0:0:0:0:
136,308,78384,1,0,0:0:0:0:
230,179,78491,2,0,P|230:134|216:92,1,90,0|0,0:0|0:0,0:0:0:0:
184,248,78812,6,0,L|288:264,1,90,8|0,0:0|0:0,0:0:0:0:
344,232,79134,1,0,0:0:0:0:
408,280,79241,2,0,P|456:280|504:256,1,90,0|0,0:0|0:0,0:0:0:0:
292,92,79669,1,8,0:0:0:0:
292,92,79776,2,0,P|244:92|196:116,1,90,0|0,0:0|0:0,0:0:0:0:
120,132,80098,2,0,L|20:140,1,90,0|0,0:0|0:0,0:0:0:0:
128,288,80419,2,0,L|224:280,1,90,8|0,0:0|0:0,0:0:0:0:
280,220,80741,1,8,0:0:0:0:
72,360,80955,5,0,0:0:0:0:
180,188,81169,1,0,0:0:0:0:
36,72,81384,2,0,P|20:120|24:164,1,90,8|0,0:0|0:0,0:0:0:0:
288,344,81812,5,0,0:0:0:0:
336,348,81919,1,0,0:0:0:0:
384,336,82026,1,0,0:0:0:0:
428,312,82134,1,0,0:0:0:0:
456,272,82241,2,0,L|468:224,1,45,8|0,0:0|0:0,0:0:0:0:
416,104,82455,2,0,L|420:156,1,45,0|0,0:0|0:0,0:0:0:0:
492,68,82669,5,0,0:0:0:0:
320,8,82884,1,0,0:0:0:0:
248,220,83098,2,0,P|300:228|344:224,1,90,8|0,0:0|0:0,0:0:0:0:
164,160,83526,2,0,P|140:212|140:292,1,135,0|0,0:0|0:0,0:0:0:0:
208,364,83955,1,8,0:0:0:0:
24,196,84169,5,0,0:0:0:0:
24,196,84276,2,0,L|36:100,1,90,0|0,0:0|0:0,0:0:0:0:
104,40,84598,1,0,0:0:0:0:
304,132,84812,1,8,0:0:0:0:
160,216,85026,1,0,0:0:0:0:
368,48,85241,5,0,0:0:0:0:
492,164,85348,2,0,P|500:216|492:264,1,90,8|0,0:0|0:0,0:0:0:0:
412,148,85669,2,0,L|424:100,1,45,8|0,0:0|0:0,0:0:0:0:
288,16,85884,2,0,L|276:68,1,45,0|0,0:0|0:0,0:0:0:0:
176,128,86098,6,0,P|124:132|88:124,1,90,0|0,0:0|0:0,0:0:0:0:
0,320,86526,1,8,0:0:0:0:
124,256,86741,2,0,P|172:256|224:272,1,90,0|0,0:0|0:0,0:0:0:0:
368,344,87169,2,0,L|416:332,1,45,0|0,0:0|0:0,0:0:0:0:
508,368,87384,1,8,0:0:0:0:
400,144,87598,6,0,P|388:188|388:236,1,90,0|0,0:0|0:0,0:0:0:0:
504,68,88026,1,0,0:0:0:0:
504,68,88134,1,0,0:0:0:0:
504,68,88241,2,0,L|452:84,1,45,8|0,0:0|0:0,0:0:0:0:
344,24,88455,2,0,L|392:32,1,45,0|0,0:0|0:0,0:0:0:0:
304,180,88669,6,0,P|256:188|208:180,1,90,0|0,0:0|0:0,0:0:0:0:
212,173,88991,1,0,0:0:0:0:
208,164,89098,1,8,0:0:0:0:
204,155,89312,5,0,0:0:0:0:
200,146,89527,5,0,0:0:0:0:
196,137,89634,1,0,0:0:0:0:
192,128,89848,5,0,0:0:0:0:
188,119,89956,1,0,0:0:0:0:
184,110,90169,5,0,0:0:0:0:
180,101,90276,1,0,0:0:0:0:
176,92,90383,1,0,0:0:0:0:
173,83,90491,1,0,0:0:0:0:
170,74,90704,5,0,0:0:0:0:
166,65,90812,1,0,0:0:0:0:
163,56,91026,5,0,0:0:0:0:
160,47,91241,5,0,0:0:0:0:
157,38,91348,1,0,0:0:0:0:
153,29,91562,5,0,0:0:0:0:
149,20,91669,1,0,0:0:0:0:
36,80,91884,5,0,0:0:0:0:
100,188,92098,1,0,0:0:0:0:
100,188,92205,2,0,P|104:240|96:280,1,90,0|0,0:0|0:0,0:0:0:0:
20,336,92526,2,0,L|124:368,1,90,8|0,0:0|0:0,0:0:0:0:
232,316,92955,2,0,P|280:328|412:312,1,180,0|8,0:0|0:0,0:0:0:0:
496,188,93598,5,0,0:0:0:0:
496,188,93705,1,0,0:0:0:0:
496,188,93812,2,0,L|484:88,1,90,0|0,0:0|0:0,0:0:0:0:
304,72,94241,1,8,0:0:0:0:
304,72,94348,2,0,L|316:172,1,90,0|0,0:0|0:0,0:0:0:0:
248,236,94669,2,0,P|196:244|144:228,1,90,0|0,0:0|0:0,0:0:0:0:
220,24,95098,5,8,0:0:0:0:
400,64,95312,1,0,0:0:0:0:
220,24,95526,2,0,L|124:48,1,90,0|0,0:0|0:0,0:0:0:0:
60,116,95848,1,0,0:0:0:0:
60,116,95955,2,0,P|44:168|48:216,1,90,8|0,0:0|0:0,0:0:0:0:
140,332,96384,6,0,P|224:344|320:312,1,180,0|8,0:0|0:0,0:0:0:0:
392,92,97026,1,0,0:0:0:0:
395,100,97241,5,0,0:0:0:0:
398,108,97348,1,0,0:0:0:0:
401,116,97562,5,0,0:0:0:0:
404,124,97669,1,0,0:0:0:0:
407,132,97884,5,0,0:0:0:0:
410,140,97991,1,0,0:0:0:0:
413,148,98098,1,0,0:0:0:0:
416,156,98206,1,0,0:0:0:0:
419,164,98419,5,0,0:0:0:0:
422,172,98526,1,0,0:0:0:0:
425,180,98741,5,0,0:0:0:0:
428,188,98848,1,0,0:0:0:0:
431,196,98955,1,0,0:0:0:0:
434,204,99061,1,0,0:0:0:0:
437,212,99277,5,0,0:0:0:0:
440,220,99384,1,0,0:0:0:0:
344,356,99598,5,0,0:0:0:0:
208,312,99812,2,0,P|157:322|64:300,1,135,0|0,0:0|0:0,0:0:0:0:
12,236,100241,2,0,L|20:144,1,90,0|0,0:0|0:0,0:0:0:0:
128,40,100669,5,0,0:0:0:0:
128,40,100776,1,0,0:0:0:0:
236,120,100991,2,0,L|332:108,1,90,0|0,0:0|0:0,0:0:0:0:
400,152,101312,1,0,0:0:0:0:
488,32,101526,5,0,0:0:0:0:
488,32,101634,2,0,L|508:124,1,90,0|0,0:0|0:0,0:0:0:0:
460,244,101955,2,0,P|408:260|356:256,1,90,0|0,0:0|0:0,0:0:0:0:
180,192,102384,2,0,L|84:188,1,90,0|0,0:0|0:0,0:0:0:0:
56,348,102705,1,0,0:0:0:0:
56,348,102812,2,0,L|152:352,1,90,8|0,0:0|0:0,0:0:0:0:
320,288,103241,6,0,P|368:288|408:272,1,90,0|0,0:0|0:0,0:0:0:0:
410,264,103562,1,0,0:0:0:0:
413,255,103669,1,0,0:0:0:0:
416,246,103884,5,0,0:0:0:0:
419,237,103992,1,0,0:0:0:0:
422,228,104099,1,0,0:0:0:0:
425,219,104205,1,0,0:0:0:0:
428,210,104419,5,0,0:0:0:0:
431,201,104526,1,0,0:0:0:0:
434,192,104741,5,0,0:0:0:0:
437,183,104848,1,0,0:0:0:0:
441,174,104956,1,0,0:0:0:0:
444,165,105063,1,0,0:0:0:0:
448,156,105276,5,0,0:0:0:0:
452,148,105383,1,0,0:0:0:0:
456,140,105598,5,0,0:0:0:0:
460,132,105705,1,0,0:0:0:0:
464,124,105812,1,0,0:0:0:0:
468,115,105919,1,0,0:0:0:0:
472,107,106134,5,0,0:0:0:0:
476,99,106241,1,0,0:0:0:0:
480,91,106455,5,0,0:0:0:0:
484,83,106562,1,0,0:0:0:0:
488,75,106669,1,0,0:0:0:0:
256,192,106776,12,0,109241,0:0:0:0:
77,49,109669,6,0,P|61:93|60:188,1,135,8|0,0:0|0:0,0:0:0:0:
116,247,110098,2,0,P|166:264|209:264,1,90,0|0,0:0|0:0,0:0:0:0:
320,188,110526,1,8,0:0:0:0:
459,342,110741,1,0,0:0:0:0:
459,342,110848,1,0,0:0:0:0:
459,342,110955,2,0,L|470:253,1,90,0|0,0:0|0:0,0:0:0:0:
412,32,111384,6,0,L|420:132,1,90,8|0,0:0|0:0,0:0:0:0:
419,121,111705,1,0,0:0:0:0:
419,121,111812,1,0,0:0:0:0:
232,252,112026,2,0,P|180:252|128:232,1,90,0|8,0:0|0:0,0:0:0:0:
48,36,112455,5,0,0:0:0:0:
48,36,112562,1,0,0:0:0:0:
48,36,112669,2,0,L|56:92,1,45,0|0,0:0|0:0,0:0:0:0:
76,204,112991,1,0,0:0:0:0:
200,128,113205,1,0,0:0:0:0:
200,128,113312,2,0,P|248:124|296:136,1,90,0|0,0:0|0:0,0:0:0:0:
440,228,113741,5,0,0:0:0:0:
440,228,113848,1,0,0:0:0:0:
440,228,113955,2,0,L|448:136,1,90,8|0,0:0|0:0,0:0:0:0:
272,24,114384,5,0,0:0:0:0:
273,32,114491,1,0,0:0:0:0:
274,40,114705,5,0,0:0:0:0:
275,48,114812,1,0,0:0:0:0:
276,56,115027,5,0,0:0:0:0:
277,64,115134,1,0,0:0:0:0:
278,72,115241,1,0,0:0:0:0:
279,81,115349,1,0,0:0:0:0:
280,89,115562,5,0,0:0:0:0:
281,97,115669,1,0,0:0:0:0:
282,105,115884,5,0,0:0:0:0:
283,113,115991,1,0,0:0:0:0:
284,121,116098,1,0,0:0:0:0:
285,129,116205,1,0,0:0:0:0:
286,138,116419,5,0,0:0:0:0:
204,252,116634,5,0,0:0:0:0:
204,252,116741,2,0,P|145:256|109:248,1,90,0|0,0:0|0:0,0:0:0:0:
0,348,117169,5,0,0:0:0:0:
144,140,117384,2,0,L|156:240,1,90,8|0,0:0|0:0,0:0:0:0:
28,120,117812,1,0,0:0:0:0:
236,44,118026,1,0,0:0:0:0:
320,128,118134,2,0,P|364:140|460:128,1,135,8|0,0:0|0:0,0:0:0:0:
451,131,118562,1,0,0:0:0:0:
451,131,118669,1,0,0:0:0:0:
224,188,118884,6,0,L|216:232,1,45,0|0,0:0|0:0,0:0:0:0:
360,168,119098,2,0,P|368:116|360:72,1,90,8|0,0:0|0:0,0:0:0:0:
472,236,119526,1,0,0:0:0:0:
432,348,119634,1,0,0:0:0:0:
432,348,119848,2,0,P|376:360|292:352,1,135,8|8,0:0|0:0,0:0:0:0:
220,304,120276,5,0,0:0:0:0:
220,304,120384,2,0,L|208:208,1,90,0|0,0:0|0:0,0:0:0:0:
432,56,120812,1,8,0:0:0:0:
432,56,120919,2,0,P|380:68|332:60,1,90,0|0,0:0|0:0,0:0:0:0:
264,32,121241,1,0,0:0:0:0:
444,176,121455,1,0,0:0:0:0:
264,32,121669,2,0,L|248:128,1,90,0|8,0:0|0:0,0:0:0:0:
4,184,122098,5,0,0:0:0:0:
4,184,122205,2,0,P|48:196|96:196,1,90,8|0,0:0|0:0,0:0:0:0:
180,120,122526,1,8,0:0:0:0:
24,316,122741,1,0,0:0:0:0:
64,40,122955,5,0,0:0:0:0:
104,184,123062,1,0,0:0:0:0:
104,184,123276,2,0,P|152:208|236:200,1,135,0|0,0:0|0:0,0:0:0:0:
268,176,123705,1,0,0:0:0:0:
288,136,123812,1,0,0:0:0:0:
480,200,124026,5,0,0:0:0:0:
324,264,124241,1,8,0:0:0:0:
416,76,124462,2,0,L|424:128,1,45,0|0,0:0|0:0,0:0:0:0:
488,32,124669,1,0,0:0:0:0:
356,184,124884,1,0,0:0:0:0:
356,184,124991,2,0,P|304:184|228:148,1,135,8|0,0:0|0:0,0:0:0:0:
208,100,125419,1,0,0:0:0:0:
208,100,125526,1,0,0:0:0:0:
8,244,125741,5,0,0:0:0:0:
140,152,125955,2,0,L|148:252,1,90,8|0,0:0|0:0,0:0:0:0:
44,104,126384,1,0,0:0:0:0:
124,8,126491,1,0,0:0:0:0:
256,168,126705,1,8,0:0:0:0:
160,288,126919,1,0,0:0:0:0:
160,288,127026,2,0,L|196:328,1,45,8|0,0:0|0:0,0:0:0:0:
268,352,127241,6,0,P|316:356|368:344,1,90,0|0,0:0|0:0,0:0:0:0:
448,148,127669,1,8,0:0:0:0:
448,148,127776,2,0,L|424:56,1,90,0|0,0:0|0:0,0:0:0:0:
356,112,128098,1,0,0:0:0:0:
496,8,128312,1,0,0:0:0:0:
356,112,128526,2,0,L|264:104,1,90,8|0,0:0|0:0,0:0:0:0:
220,124,128848,1,0,0:0:0:0:
192,164,128955,6,0,P|180:212|188:256,1,90,0|0,0:0|0:0,0:0:0:0:
428,160,129384,2,0,P|440:112|428:56,1,90,8|0,0:0|0:0,0:0:0:0:
364,240,129812,6,0,P|448:256|520:200,1,180,0|0,0:0|0:0,0:0:0:0:
264,268,130134,2,0,P|180:252|108:308,1,180,0|0,0:0|0:0,0:0:0:0:
200,344,130455,2,0,L|168:156,1,180,0|0,0:0|0:0,0:0:0:0:
20,116,130884,6,0,L|4:212,1,90,0|8,0:0|0:0,0:0:0:0:
5,204,131312,1,0,0:0:0:0:
160,24,131526,1,0,0:0:0:0:
256,124,131634,2,0,P|304:128|360:116,1,90,0|0,0:0|0:0,0:0:0:0:
420,68,131955,2,0,L|416:180,1,90,8|0,0:0|0:0,0:0:0:0:
492,304,132384,5,0,0:0:0:0:
336,220,132598,2,0,P|292:216|244:228,1,90,0|8,0:0|0:0,0:0:0:0:
104,336,133026,1,0,0:0:0:0:
320,368,133241,1,0,0:0:0:0:
344,248,133348,2,0,L|364:148,1,90,0|0,0:0|0:0,0:0:0:0:
496,88,133669,2,0,P|504:148|496:184,1,90,8|0,0:0|0:0,0:0:0:0:
292,40,134098,5,0,0:0:0:0:
112,208,134312,2,0,P|160:220|204:220,1,90,0|8,0:0|0:0,0:0:0:0:
392,128,134741,1,0,0:0:0:0:
156,112,134955,1,0,0:0:0:0:
100,192,135062,2,0,P|96:248|104:288,1,90,0|0,0:0|0:0,0:0:0:0:
240,148,135384,2,0,P|244:92|236:52,1,90,8|0,0:0|0:0,0:0:0:0:
44,352,135812,6,0,P|92:368|136:364,1,90,0|0,0:0|0:0,0:0:0:0:
312,320,136134,2,0,L|212:320,1,90,8|0,0:0|0:0,0:0:0:0:
300,224,136455,2,0,L|352:224,1,45,8|0,0:0|0:0,0:0:0:0:
448,256,136669,1,0,0:0:0:0:
448,256,136776,2,0,P|464:208|460:152,1,90,8|0,0:0|0:0,0:0:0:0:
400,48,137098,2,0,L|404:96,1,45,8|0,0:0|0:0,0:0:0:0:
288,72,137312,2,0,L|284:124,1,45,8|0,0:0|0:0,0:0:0:0:
176,32,137526,1,0,0:0:0:0:
0,168,137741,6,0,P|40:184|88:184,1,90,0|8,0:0|0:0,0:0:0:0:
284,280,138169,1,0,0:0:0:0:
96,348,138384,1,0,0:0:0:0:
124,224,138491,2,0,L|136:128,1,90,0|0,0:0|0:0,0:0:0:0:
300,160,138812,2,0,P|248:172|208:168,1,90,8|0,0:0|0:0,0:0:0:0:
64,76,139241,5,0,0:0:0:0:
324,32,139455,2,0,L|340:128,1,90,0|8,0:0|0:0,0:0:0:0:
376,296,139884,1,0,0:0:0:0:
480,140,140098,1,0,0:0:0:0:
344,204,140205,2,0,P|288:208|240:200,1,90,0|0,0:0|0:0,0:0:0:0:
312,48,140526,2,0,P|368:44|416:52,1,90,8|0,0:0|0:0,0:0:0:0:
492,224,140955,5,0,0:0:0:0:
496,268,141062,1,0,0:0:0:0:
484,312,141169,1,0,0:0:0:0:
452,344,141276,1,0,0:0:0:0:
376,328,141384,5,8,0:0:0:0:
332,360,141491,1,0,0:0:0:0:
280,368,141598,1,0,0:0:0:0:
228,356,141705,1,0,0:0:0:0:
168,292,141812,5,0,0:0:0:0:
268,176,141919,2,0,L|284:272,1,90,8|0,0:0|0:0,0:0:0:0:
400,232,142241,2,0,L|384:136,1,90,8|0,0:0|0:0,0:0:0:0:
372,100,142562,1,0,0:0:0:0:
344,64,142669,5,0,0:0:0:0:
304,40,142776,1,8,0:0:0:0:
260,36,142884,1,0,0:0:0:0:
216,44,142991,1,0,0:0:0:0:
176,64,143098,6,0,L|128:76,1,45,8|0,0:0|0:0,0:0:0:0:
96,168,143312,2,0,L|48:188,1,45,0|0,0:0|0:0,0:0:0:0:
0,304,143526,1,0,0:0:0:0:
84,360,143634,2,0,P|132:364|180:352,1,90,8|0,0:0|0:0,0:0:0:0:
260,312,143955,2,0,L|364:320,1,90,8|0,0:0|0:0,0:0:0:0:
488,152,144384,5,0,0:0:0:0:
316,180,144598,1,0,0:0:0:0:
488,152,144812,2,0,L|500:244,1,90,8|0,0:0|0:0,0:0:0:0:
216,128,145241,6,0,P|168:140|80:120,1,135,0|0,0:0|0:0,0:0:0:0:
24,56,145669,1,8,0:0:0:0:
288,24,145884,6,0,L|300:168,1,135,0|0,0:0|0:0,0:0:0:0:
352,232,146312,2,0,L|408:240,1,45,0|0,0:0|0:0,0:0:0:0:
504,152,146526,1,8,0:0:0:0:
360,356,146741,1,0,0:0:0:0:
496,264,146955,5,0,0:0:0:0:
412,156,147062,2,0,P|416:104|432:68,1,90,0|0,0:0|0:0,0:0:0:0:
264,128,147384,2,0,L|204:132,1,45,8|0,0:0|0:0,0:0:0:0:
80,236,147598,5,0,0:0:0:0:
120,256,147705,1,0,0:0:0:0:
164,260,147812,2,0,P|216:264|252:256,1,90,0|0,0:0|0:0,0:0:0:0:
324,200,148134,1,0,0:0:0:0:
324,200,148241,2,0,L|332:88,1,90,8|0,0:0|0:0,0:0:0:0:
156,28,148669,5,0,0:0:0:0:
156,28,148776,2,0,L|148:124,1,90,0|0,0:0|0:0,0:0:0:0:
140,224,149098,2,0,P|140:272|160:320,1,90,8|0,0:0|0:0,0:0:0:0:
240,152,149526,5,0,0:0:0:0:
16,252,149741,1,0,0:0:0:0:
64,120,149955,1,8,0:0:0:0:
244,280,150169,1,0,0:0:0:0:
380,52,150384,5,0,0:0:0:0:
468,120,150491,2,0,P|480:172|476:220,1,90,0|0,0:0|0:0,0:0:0:0:
428,316,150812,2,0,P|392:340|332:348,1,90,8|0,0:0|0:0,0:0:0:0:
168,172,151241,5,0,0:0:0:0:
360,188,151455,1,0,0:0:0:0:
168,172,151669,2,0,L|160:268,1,90,8|0,0:0|0:0,0:0:0:0:
20,164,152098,6,0,P|12:120|40:32,1,135,0|0,0:0|0:0,0:0:0:0:
76,56,152526,1,8,0:0:0:0:
220,112,152741,2,0,P|272:124|352:108,1,135,0|0,0:0|0:0,0:0:0:0:
424,36,153169,1,0,0:0:0:0:
224,216,153384,1,8,0:0:0:0:
288,16,153598,1,0,0:0:0:0:
504,184,153812,5,0,0:0:0:0:
376,272,153919,2,0,L|332:256,1,45,0|0,0:0|0:0,0:0:0:0:
376,272,154134,2,0,L|396:136,1,135,0|0,0:0|0:0,0:0:0:0:
440,336,154562,5,0,0:0:0:0:
440,336,154669,2,0,P|392:360|340:360,1,90,0|0,0:0|0:0,0:0:0:0:
116,268,155098,1,8,0:0:0:0:
116,268,155312,2,0,P|164:244|216:244,1,90,0|0,0:0|0:0,0:0:0:0:
244,256,155634,1,0,0:0:0:0:
288,252,155741,1,0,0:0:0:0:
328,232,155848,1,0,0:0:0:0:
348,192,155955,6,0,L|340:128,1,45,8|0,0:0|0:0,0:0:0:0:
496,64,156169,2,0,L|488:112,1,45,0|0,0:0|0:0,0:0:0:0:
412,4,156384,1,0,0:0:0:0:
236,144,156598,1,0,0:0:0:0:
472,196,156812,1,8,0:0:0:0:
360,104,157026,1,0,0:0:0:0:
392,340,157241,5,0,0:0:0:0:
392,340,157348,2,0,L|304:360,1,90,0|0,0:0|0:0,0:0:0:0:
108,296,157669,2,0,P|160:308|212:304,1,90,8|0,0:0|0:0,0:0:0:0:
12,212,158098,5,0,0:0:0:0:
240,84,158312,1,0,0:0:0:0:
88,68,158526,2,0,L|76:164,1,90,8|0,0:0|0:0,0:0:0:0:
312,240,158955,1,0,0:0:0:0:
412,132,159062,1,8,0:0:0:0:
224,212,159276,2,0,L|236:308,1,90,8|0,0:0|0:0,0:0:0:0:
392,336,159598,6,0,P|328:360|252:348,1,135,0|0,0:0|0:0,0:0:0:0:
156,296,160026,1,0,0:0:0:0:
492,184,160241,1,8,0:0:0:0:
328,96,160455,1,0,0:0:0:0:
456,32,160669,5,0,0:0:0:0:
400,168,160776,2,0,P|356:184|300:184,1,90,8|0,0:0|0:0,0:0:0:0:
208,136,161098,2,0,L|112:128,1,90,8|0,0:0|0:0,0:0:0:0:
24,200,161419,5,0,0:0:0:0:
24,200,161526,2,0,P|16:256|44:336,1,135,0|0,0:0|0:0,0:0:0:0:
124,372,161955,2,0,L|224:372,1,90,8|0,0:0|0:0,0:0:0:0:
260,364,162276,1,0,0:0:0:0:
300,340,162384,2,0,P|320:288|320:248,1,90,0|0,0:0|0:0,0:0:0:0:
240,84,162705,2,0,P|224:128|224:180,1,90,0|0,0:0|0:0,0:0:0:0:
312,32,163026,2,0,L|364:32,1,45,8|0,0:0|0:0,0:0:0:0:
428,152,163241,5,0,0:0:0:0:
512,72,163455,1,8,0:0:0:0:
320,188,163669,1,0,0:0:0:0:
476,276,163884,1,8,0:0:0:0:
244,128,164098,1,0,0:0:0:0:
244,128,164205,2,0,P|224:176|232:228,1,90,8|0,0:0|0:0,0:0:0:0:
272,292,164526,2,0,L|256:384,1,90,8|0,0:0|0:0,0:0:0:0:
128,176,164955,5,0,0:0:0:0:
368,96,165169,1,0,0:0:0:0:
272,292,165384,2,0,L|260:200,1,90,8|0,0:0|0:0,0:0:0:0:
496,332,165812,2,0,P|456:352|360:356,1,135,0|0,0:0|0:0,0:0:0:0:
188,276,166241,1,8,0:0:0:0:
396,128,166455,6,0,L|404:180,1,45,0|0,0:0|0:0,0:0:0:0:
420,256,166669,1,0,0:0:0:0:
492,72,166884,1,0,0:0:0:0:
260,28,167098,2,0,L|356:48,1,90,8|0,0:0|0:0,0:0:0:0:
104,136,167526,1,0,0:0:0:0:
248,176,167634,1,8,0:0:0:0:
20,216,167848,6,0,P|-4:168|0:80,1,135,8|0,0:0|0:0,0:0:0:0:
60,16,168276,1,0,0:0:0:0:
60,16,168383,2,0,L|156:8,1,90,0|0,0:0|0:0,0:0:0:0:
356,188,168812,1,8,0:0:0:0:
252,296,169026,2,0,L|156:304,1,90,0|0,0:0|0:0,0:0:0:0:
296,96,169455,1,0,0:0:0:0:
340,80,169562,1,0,0:0:0:0:
384,84,169669,1,8,0:0:0:0:
512,184,169884,6,0,L|504:240,1,45,0|0,0:0|0:0,0:0:0:0:
436,328,170098,1,0,0:0:0:0:
396,344,170205,1,0,0:0:0:0:
352,348,170312,1,0,0:0:0:0:
308,344,170419,1,0,0:0:0:0:
228,264,170526,5,8,0:0:0:0:
184,252,170634,1,0,0:0:0:0:
140,256,170741,1,0,0:0:0:0:
100,276,170848,1,0,0:0:0:0:
4,356,170955,5,0,0:0:0:0:
24,268,171062,2,0,L|40:180,1,90,8|0,0:0|0:0,0:0:0:0:
60,88,171384,1,8,0:0:0:0:
68,88,171598,5,0,0:0:0:0:
76,88,171705,1,0,0:0:0:0:
84,89,171812,1,0,0:0:0:0:
92,90,172026,5,0,0:0:0:0:
100,91,172133,1,0,0:0:0:0:
108,92,172240,1,0,0:0:0:0:
117,93,172455,5,0,0:0:0:0:
125,94,172562,1,0,0:0:0:0:
133,95,172669,1,0,0:0:0:0:
141,96,172776,1,0,0:0:0:0:
149,97,172991,5,0,0:0:0:0:
157,98,173098,1,0,0:0:0:0:
165,98,173312,5,0,0:0:0:0:
174,99,173420,1,0,0:0:0:0:
182,100,173527,1,0,0:0:0:0:
190,101,173634,1,0,0:0:0:0:
198,102,173848,5,0,0:0:0:0:
206,103,173955,1,0,0:0:0:0:
331,121,174169,5,0,0:0:0:0:
331,121,174276,1,0,0:0:0:0:
331,121,174384,2,0,P|378:120|426:98,2,90,0|0|8,0:0|0:0|0:0,0:0:0:0:
360,28,175026,6,0,L|404:56,1,45,0|0,0:0|0:0,0:0:0:0:
476,132,175241,2,0,P|488:180|488:224,1,90,0|0,0:0|0:0,0:0:0:0:
428,308,175562,1,0,0:0:0:0:
428,308,175669,2,0,L|340:332,1,90,8|0,0:0|0:0,0:0:0:0:
204,300,176098,5,0,0:0:0:0:
204,300,176205,2,0,L|116:320,1,90,0|0,0:0|0:0,0:0:0:0:
24,276,176526,2,0,P|8:228|12:180,1,90,8|0,0:0|0:0,0:0:0:0:
128,40,176955,5,0,0:0:0:0:
104,184,177169,1,0,0:0:0:0:
128,40,177384,2,0,L|220:48,1,90,8|0,0:0|0:0,0:0:0:0:
300,56,177705,1,0,0:0:0:0:
300,56,177812,2,0,P|344:60|392:52,1,90,0|0,0:0|0:0,0:0:0:0:
464,88,178134,1,0,0:0:0:0:
464,88,178241,2,0,P|480:136|480:184,1,90,8|0,0:0|0:0,0:0:0:0:
332,352,178669,6,0,L|352:244,1,90,0|0,0:0|0:0,0:0:0:0:
496,336,179098,1,8,0:0:0:0:
264,212,179312,5,0,0:0:0:0:
255,215,179419,1,0,0:0:0:0:
246,218,179526,1,0,0:0:0:0:
237,221,179634,1,0,0:0:0:0:
228,224,179848,5,0,0:0:0:0:
219,227,179955,1,0,0:0:0:0:
210,230,180169,5,0,0:0:0:0:
201,233,180276,1,0,0:0:0:0:
192,236,180383,1,0,0:0:0:0:
183,239,180490,1,0,0:0:0:0:
175,242,180705,5,0,0:0:0:0:
166,245,180812,1,0,0:0:0:0:
157,248,181026,5,0,0:0:0:0:
148,251,181133,1,0,0:0:0:0:
139,254,181240,1,0,0:0:0:0:
130,257,181347,1,0,0:0:0:0:
121,260,181562,5,0,0:0:0:0:
112,263,181670,1,0,0:0:0:0:
24,44,181884,5,0,0:0:0:0:
40,92,181991,1,0,0:0:0:0:
80,120,182098,2,0,P|128:124|176:112,1,90,0|0,0:0|0:0,0:0:0:0:
204,80,182419,1,0,0:0:0:0:
212,82,182526,1,0,0:0:0:0:
220,84,182741,5,0,0:0:0:0:
228,86,182955,5,0,0:0:0:0:
236,88,183062,1,0,0:0:0:0:
244,90,183276,5,0,0:0:0:0:
252,92,183383,1,0,0:0:0:0:
260,94,183598,5,0,0:0:0:0:
269,97,183705,1,0,0:0:0:0:
277,99,183813,1,0,0:0:0:0:
285,101,183920,1,0,0:0:0:0:
293,103,184134,5,0,0:0:0:0:
301,105,184241,1,0,0:0:0:0:
309,107,184455,5,0,0:0:0:0:
317,109,184562,1,0,0:0:0:0:
325,111,184669,1,0,0:0:0:0:
333,113,184777,1,0,0:0:0:0:
436,204,184991,5,0,0:0:0:0:
436,204,185098,2,0,P|436:252|412:308,1,90,8|0,0:0|0:0,0:0:0:0:
288,352,185526,6,0,L|184:352,1,90,0|0,0:0|0:0,0:0:0:0:
68,352,185955,1,8,0:0:0:0:
8,236,186169,2,0,L|24:184,1,45,0|0,0:0|0:0,0:0:0:0:
48,112,186384,1,0,0:0:0:0:
56,110,186491,1,0,0:0:0:0:
64,108,186705,5,0,0:0:0:0:
72,106,186812,1,0,0:0:0:0:
80,104,187027,5,0,0:0:0:0:
88,102,187134,1,0,0:0:0:0:
96,100,187241,1,0,0:0:0:0:
104,98,187349,1,0,0:0:0:0:
112,96,187562,5,0,0:0:0:0:
120,94,187669,1,0,0:0:0:0:
128,92,187884,5,0,0:0:0:0:
136,90,187991,1,0,0:0:0:0:
144,88,188098,1,0,0:0:0:0:
152,86,188205,1,0,0:0:0:0:
160,84,188419,5,0,0:0:0:0:
169,83,188526,1,0,0:0:0:0:
177,81,188741,5,0,0:0:0:0:
185,79,188848,1,0,0:0:0:0:
193,77,188955,1,0,0:0:0:0:
356,112,189169,5,0,0:0:0:0:
356,112,189384,2,0,L|374:14,1,90,2|0,0:2|0:0,0:0:0:0:
480,240,189812,1,0,0:0:0:0:
416,300,189919,2,0,P|372:312|316:304,1,90,0|0,0:0|0:0,0:0:0:0:
256,360,190241,2,0,L|152:360,1,90,8|0,0:0|0:0,0:0:0:0:
24,156,190669,5,0,0:0:0:0:
220,176,190884,1,0,0:0:0:0:
32,268,191098,2,0,L|40:176,1,90,2|0,0:2|0:0,0:0:0:0:
164,28,191526,1,0,0:0:0:0:
164,28,191634,2,0,P|224:40|268:32,1,90,0|0,0:0|0:0,0:0:0:0:
332,80,191955,2,0,L|432:80,1,90,8|0,0:0|0:0,0:0:0:0:
440,248,192384,5,0,0:0:0:0:
512,120,192598,1,0,0:0:0:0:
440,248,192812,2,0,L|452:340,1,90,8|0,0:0|0:0,0:0:0:0:
300,300,193241,1,0,0:0:0:0:
236,352,193348,2,0,P|188:360|140:352,1,90,0|0,0:0|0:0,0:0:0:0:
80,312,193669,1,8,0:0:0:0:
8,200,193884,5,0,0:0:0:0:
24,160,193991,1,0,0:0:0:0:
60,136,194098,2,0,P|108:132|156:144,2,90,0|0|8,0:0|0:0|0:0,0:0:0:0:
216,56,194741,2,0,L|260:56,1,45,0|0,0:0|0:0,0:0:0:0:
352,32,194955,1,0,0:0:0:0:
352,32,195062,2,0,P|360:88|352:124,1,90,0|0,0:0|0:0,0:0:0:0:
312,212,195384,2,0,L|316:288,2,45,8|0|0,0:0|0:0|0:0,0:0:0:0:
408,360,195812,5,0,0:0:0:0:
504,152,196026,1,0,0:0:0:0:
508,276,196241,2,0,L|412:284,1,90,8|0,0:0|0:0,0:0:0:0:
252,352,196669,1,0,0:0:0:0:
252,352,196776,2,0,P|204:356|160:348,1,90,0|0,0:0|0:0,0:0:0:0:
96,292,197098,2,0,L|84:196,1,90,8|0,0:0|0:0,0:0:0:0:
152,72,197526,5,0,0:0:0:0:
196,44,197634,1,0,0:0:0:0:
248,36,197741,2,0,L|264:68,1,22.5,0|0,0:0|0:0,0:0:0:0:
304,44,197848,2,0,L|308:72,1,22.5,0|0,0:0|0:0,0:0:0:0:
344,84,197955,2,0,L|340:116,1,22.5,8|0,0:0|0:0,0:0:0:0:
368,136,198062,2,0,L|352:164,1,22.5,0|0,0:0|0:0,0:0:0:0:
340,192,198169,5,0,0:0:0:0:
340,244,198276,1,0,0:0:0:0:
368,292,198384,2,0,L|380:268,1,22.5,8|0,0:0|0:0,0:0:0:0:
416,312,198491,2,0,L|416:288,1,22.5,0|0,0:0|0:0,0:0:0:0:
468,304,198651,2,0,L|460:276,1,22.5,0|0,0:0|0:0,0:0:0:0:
508,268,198759,2,0,L|488:244,1,22.5,8|8,0:0|0:0,0:0:0:0:
288,348,199026,6,0,L|236:356,1,45,8|0,0:0|0:0,0:0:0:0:
164,368,199241,1,0,0:0:0:0:
4,208,199455,6,0,P|56:228|96:228,1,90,0|8,0:0|0:0,0:0:0:0:
292,152,199884,1,0,0:0:0:0:
112,48,200098,1,0,0:0:0:0:
188,132,200205,2,0,P|188:188|176:236,1,90,0|0,0:0|0:0,0:0:0:0:
256,308,200526,2,0,L|348:320,1,90,8|0,0:0|0:0,0:0:0:0:
504,96,200955,5,0,0:0:0:0:
436,268,201169,2,0,L|428:172,1,90,0|8,0:0|0:0,0:0:0:0:
252,32,201598,2,0,L|296:52,1,45,0|0,0:0|0:0,0:0:0:0:
192,112,201812,1,0,0:0:0:0:
192,112,201919,2,0,P|144:116|88:108,1,90,8|0,0:0|0:0,0:0:0:0:
24,188,202241,2,0,L|4:284,1,90,8|0,0:0|0:0,0:0:0:0:
112,368,202669,5,0,0:0:0:0:
216,264,202884,2,0,P|268:260|312:272,1,90,0|8,0:0|0:0,0:0:0:0:
504,128,203312,1,0,0:0:0:0:
356,160,203526,1,0,0:0:0:0:
268,88,203634,2,0,P|224:84|176:96,1,90,8|0,0:0|0:0,0:0:0:0:
72,56,203955,2,0,L|48:152,1,90,8|0,0:0|0:0,0:0:0:0:
156,344,204384,6,0,P|200:360|244:360,1,90,0|0,0:0|0:0,0:0:0:0:
160,172,204705,2,0,P|128:204|112:256,1,90,8|0,0:0|0:0,0:0:0:0:
268,188,205026,2,0,L|276:140,1,45,8|0,0:0|0:0,0:0:0:0:
368,68,205241,1,0,0:0:0:0:
368,68,205348,2,0,P|416:68|464:84,1,90,8|0,0:0|0:0,0:0:0:0:
504,200,205669,2,0,L|512:256,1,45,8|0,0:0|0:0,0:0:0:0:
400,260,205884,2,0,L|392:312,1,45,8|0,0:0|0:0,0:0:0:0:
292,364,206098,1,0,0:0:0:0:
180,292,206312,6,0,P|132:296|88:316,1,90,0|8,0:0|0:0,0:0:0:0:
8,132,206741,1,0,0:0:0:0:
176,180,206955,1,0,0:0:0:0:
136,64,207062,2,0,P|192:56|240:64,1,90,0|0,0:0|0:0,0:0:0:0:
328,104,207384,2,0,L|424:104,1,90,8|0,0:0|0:0,0:0:0:0:
500,276,207812,5,0,0:0:0:0:
336,232,208026,2,0,P|288:232|240:248,1,90,0|8,0:0|0:0,0:0:0:0:
400,360,208455,2,0,L|408:304,1,45,0|0,0:0|0:0,0:0:0:0:
424,192,208669,1,0,0:0:0:0:
424,192,208776,2,0,P|424:140|408:92,1,90,8|0,0:0|0:0,0:0:0:0:
248,216,209098,2,0,P|248:268|264:316,1,90,8|8,0:0|0:0,0:0:0:0:
220,340,209419,1,0,0:0:0:0:
168,360,209526,6,0,L|120:360,1,45,0|0,0:0|0:0,0:0:0:0:
64,276,209741,2,0,L|16:256,1,45,0|0,0:0|0:0,0:0:0:0:
48,168,209955,1,8,0:0:0:0:
36,116,210062,1,0,0:0:0:0:
56,64,210169,1,0,0:0:0:0:
100,32,210276,1,0,0:0:0:0:
152,24,210384,5,0,0:0:0:0:
284,116,210491,2,0,P|236:132|184:128,1,90,8|0,0:0|0:0,0:0:0:0:
340,52,210812,2,0,L|360:8,1,45,8|0,0:0|0:0,0:0:0:0:
336,184,211026,2,0,L|356:232,1,45,8|0,0:0|0:0,0:0:0:0:
476,160,211241,6,0,P|488:212|480:268,1,90,0|0,0:0|0:0,0:0:0:0:
440,352,211562,1,0,0:0:0:0:
440,352,211669,1,8,0:0:0:0:
256,240,211884,1,0,0:0:0:0:
400,104,212098,2,0,L|392:56,1,45,0|0,0:0|0:0,0:0:0:0:
372,236,212312,2,0,L|364:180,1,45,0|0,0:0|0:0,0:0:0:0:
316,324,212526,2,0,P|268:340|224:340,1,90,8|0,0:0|0:0,0:0:0:0:
20,228,212955,5,0,0:0:0:0:
172,248,213169,1,0,0:0:0:0:
20,228,213384,2,0,L|4:320,1,90,8|0,0:0|0:0,0:0:0:0:
248,200,213812,2,0,P|272:156|280:72,1,135,0|0,0:0|0:0,0:0:0:0:
196,12,214241,1,8,0:0:0:0:
368,112,214455,6,0,P|416:112|468:96,1,90,0|0,0:0|0:0,0:0:0:0:
152,148,214884,1,0,0:0:0:0:
152,148,214991,1,0,0:0:0:0:
152,148,215098,2,0,L|56:144,1,90,8|0,0:0|0:0,0:0:0:0:
0,304,215526,1,0,0:0:0:0:
120,264,215634,2,0,P|132:316|128:364,1,90,0|0,0:0|0:0,0:0:0:0:
228,228,215955,2,0,P|272:232|320:224,1,90,8|0,0:0|0:0,0:0:0:0:
380,160,216276,5,0,0:0:0:0:
380,160,216384,2,0,L|392:64,1,90,0|0,0:0|0:0,0:0:0:0:
476,16,216705,1,0,0:0:0:0:
476,16,216812,1,8,0:0:0:0:
296,124,217026,1,0,0:0:0:0:
464,204,217241,2,0,L|476:296,1,90,0|0,0:0|0:0,0:0:0:0:
396,360,217562,2,0,P|348:368|296:360,1,90,8|0,0:0|0:0,0:0:0:0:
244,232,217884,2,0,L|240:284,1,45,8|0,0:0|0:0,0:0:0:0:
176,336,218098,5,0,0:0:0:0:
352,208,218312,1,8,0:0:0:0:
96,228,218526,1,0,0:0:0:0:
204,20,218741,1,8,0:0:0:0:
252,112,218955,1,0,0:0:0:0:
252,112,219062,2,0,P|200:120|156:116,1,90,8|0,0:0|0:0,0:0:0:0:
72,48,219384,2,0,L|44:144,1,90,8|0,0:0|0:0,0:0:0:0:
200,272,219812,5,0,0:0:0:0:
76,352,220026,1,0,0:0:0:0:
200,272,220241,2,0,L|296:272,1,90,8|0,0:0|0:0,0:0:0:0:
420,216,220669,2,0,P|440:164|440:80,1,135,0|0,0:0|0:0,0:0:0:0:
364,24,221098,1,8,0:0:0:0:
240,128,221312,6,0,P|180:136|100:116,1,135,0|0,0:0|0:0,0:0:0:0:
72,76,221741,2,0,L|64:32,1,45,0|0,0:0|0:0,0:0:0:0:
24,168,221955,2,0,L|16:216,1,45,8|0,0:0|0:0,0:0:0:0:
88,256,222169,2,0,L|84:304,1,45,0|0,0:0|0:0,0:0:0:0:
152,368,222384,1,0,0:0:0:0:
240,264,222491,2,0,P|296:256|352:264,1,90,0|0,0:0|0:0,0:0:0:0:
464,168,222812,2,0,P|424:176|368:172,1,90,8|0,0:0|0:0,0:0:0:0:
328,144,223134,5,0,0:0:0:0:
328,144,223241,2,0,L|312:52,1,90,0|0,0:0|0:0,0:0:0:0:
496,80,223669,1,8,0:0:0:0:
472,252,223884,2,0,L|460:348,1,90,0|0,0:0|0:0,0:0:0:0:
332,272,224312,5,0,0:0:0:0:
288,272,224419,1,0,0:0:0:0:
244,292,224526,2,0,L|216:332,1,45,8|0,0:0|0:0,0:0:0:0:
136,268,224741,2,0,L|96:308,1,45,0|0,0:0|0:0,0:0:0:0:
24,360,224955,5,0,0:0:0:0:
204,204,225169,2,0,L|156:184,1,45,0|0,0:0|0:0,0:0:0:0:
36,116,225384,1,8,0:0:0:0:
64,236,225598,1,0,0:0:0:0:
100,40,225812,1,0,0:0:0:0:
192,20,225919,2,0,P|244:24|284:40,1,90,0|0,0:0|0:0,0:0:0:0:
360,92,226241,2,0,L|468:84,1,90,8|0,0:0|0:0,0:0:0:0:
300,188,226669,5,0,0:0:0:0:
408,8,226884,1,0,0:0:0:0:
500,212,227098,2,0,P|496:260|480:300,1,90,8|0,0:0|0:0,0:0:0:0:
360,360,227526,2,0,P|300:368|220:360,1,135,0|0,0:0|0:0,0:0:0:0:
120,304,227955,1,8,0:0:0:0:
216,132,228169,5,0,0:0:0:0:
216,132,228276,2,0,L|232:232,1,90,0|0,0:0|0:0,0:0:0:0:
230,220,228598,1,0,0:0:0:0:
152,48,228812,2,0,L|204:48,1,45,8|0,0:0|0:0,0:0:0:0:
312,92,229026,2,0,L|304:156,1,45,0|0,0:0|0:0,0:0:0:0:
364,220,229241,5,0,0:0:0:0:
460,104,229348,2,0,P|476:152|480:204,1,90,0|0,0:0|0:0,0:0:0:0:
316,360,229669,2,0,P|300:312|296:260,1,90,8|0,0:0|0:0,0:0:0:0:
248,300,229991,1,0,0:0:0:0:
196,312,230098,6,0,P|152:312|96:296,1,90,0|0,0:0|0:0,0:0:0:0:
208,88,230526,2,0,P|252:88|308:104,1,90,8|0,0:0|0:0,0:0:0:0:
340,132,230848,1,0,0:0:0:0:
340,132,230955,2,0,L|436:132,1,90,0|0,0:0|0:0,0:0:0:0:
404,224,231276,2,0,L|500:224,1,90,8|0,0:0|0:0,0:0:0:0:
340,300,231598,2,0,L|312:340,1,45,8|0,0:0|0:0,0:0:0:0:
424,368,231812,5,0,0:0:0:0:
272,224,232026,1,0,0:0:0:0:
420,48,232241,2,0,P|440:96|440:148,1,90,8|8,0:0|0:0,0:0:0:0:
196,160,232669,1,0,0:0:0:0:
196,160,232776,2,0,L|100:160,1,90,8|0,0:0|0:0,0:0:0:0:
28,248,233098,2,0,P|28:304|40:344,1,90,8|8,0:0|0:0,0:0:0:0:
176,60,233526,5,0,0:0:0:0:
140,276,233741,1,0,0:0:0:0:
276,100,233955,1,8,0:0:0:0:
76,76,234169,1,0,0:0:0:0:
276,100,234384,2,0,P|292:152|284:236,1,135,0|0,0:0|0:0,0:0:0:0:
224,340,234812,1,8,0:0:0:0:
372,116,235026,6,0,L|432:120,1,45,0|0,0:0|0:0,0:0:0:0:
496,68,235241,1,0,0:0:0:0:
368,216,235455,1,0,0:0:0:0:
396,16,235669,1,8,0:0:0:0:
484,192,235884,1,0,0:0:0:0:
300,104,236098,1,0,0:0:0:0:
176,72,236205,2,0,P|164:128|172:180,1,90,0|0,0:0|0:0,0:0:0:0:
252,344,236526,2,0,P|264:288|256:236,1,90,8|0,0:0|0:0,0:0:0:0:
168,296,236848,5,0,0:0:0:0:
168,296,236955,2,0,L|272:296,1,90,0|0,0:0|0:0,0:0:0:0:
204,112,237384,1,8,0:0:0:0:
96,112,237598,2,0,L|-8:112,1,90,0|0,0:0|0:0,0:0:0:0:
0,164,237919,5,0,0:0:0:0:
16,216,238026,1,0,0:0:0:0:
60,248,238134,1,0,0:0:0:0:
112,256,238241,2,0,L|132:208,1,45,8|0,0:0|0:0,0:0:0:0:
228,228,238455,2,0,L|252:180,1,45,0|0,0:0|0:0,0:0:0:0:
316,328,238669,6,0,P|372:344|416:344,1,90,0|0,0:0|0:0,0:0:0:0:
496,288,238991,1,0,0:0:0:0:
484,236,239098,2,0,L|488:200,1,22.5,8|0,0:0|0:0,0:0:0:0:
456,184,239205,2,0,L|448:148,1,22.5,0|0,0:0|0:0,0:0:0:0:
412,156,239312,2,0,L|392:128,1,22.5,0|0,0:0|0:0,0:0:0:0:
360,144,239419,2,0,L|328:128,1,22.5,0|0,0:0|0:0,0:0:0:0:
316,104,239526,5,0,0:0:0:0:
248,72,239634,2,0,P|196:68|152:76,1,90,0|0,0:0|0:0,0:0:0:0:
92,40,239955,2,0,L|80:12,7,22.5,8|0|0|0|0|0|0|0,0:0|0:0|0:0|0:0|0:0|0:0|0:0|0:0,0:0:0:0:
40,28,240384,6,0,P|20:72|28:168,1,135,0|0,0:0|0:0,0:0:0:0:
92,216,240812,2,0,L|108:312,1,90,8|0,0:0|0:0,0:0:0:0:
188,356,241134,1,0,0:0:0:0:
188,356,241241,2,0,P|240:368|324:352,1,135,0|0,0:0|0:0,0:0:0:0:
420,280,241669,1,8,0:0:0:0:
304,148,241884,5,0,0:0:0:0:
304,148,241991,1,0,0:0:0:0:
304,148,242098,2,0,P|284:200|284:244,1,90,0|0,0:0|0:0,0:0:0:0:
412,112,242526,1,8,0:0:0:0:
220,108,242741,1,0,0:0:0:0:
412,112,242955,1,0,0:0:0:0:
268,32,243062,2,0,P|220:20|144:60,1,135,0|8,0:0|0:0,0:0:0:0:
256,192,243491,12,0,245098,0:0:0:0:
168,72,245312,6,0,P|152:120|152:164,1,90,0|0,0:0|0:0,0:0:0:0:
344,312,245741,2,0,P|360:264|360:220,1,90,0|8,0:0|0:0,0:0:0:0:
244,132,246169,1,0,0:0:0:0:
244,132,246276,1,0,0:0:0:0:
244,132,246384,1,0,0:0:0:0:
60,200,246598,1,0,0:0:0:0:
232,228,246812,1,8,0:0:0:0:
72,108,247026,1,0,0:0:0:0:
124,268,247241,6,0,P|120:316|136:364,1,90,0|0,0:0|0:0,0:0:0:0:
328,164,247669,2,0,P|332:116|316:68,1,90,8|0,0:0|0:0,0:0:0:0:
400,24,248098,2,0,P|416:80|412:208,1,180,0|8,0:0|0:0,0:0:0:0:
308,304,248741,2,0,L|304:352,2,45,0|0|0,0:0|0:0|0:0,0:0:0:0:
196,204,249169,5,0,0:0:0:0:
392,312,249384,2,0,L|496:300,1,90,8|0,0:0|0:0,0:0:0:0:
196,204,250026,1,0,0:0:0:0:
344,164,250241,2,0,P|368:116|376:76,1,90,8|0,0:0|0:0,0:0:0:0:
84,120,250669,6,0,P|72:168|84:308,1,180,0|8,0:0|0:0,0:0:0:0:
204,360,251312,1,0,0:0:0:0:
204,360,251419,1,0,0:0:0:0:
204,360,251526,2,0,L|304:360,1,90,0|8,0:0|0:0,0:0:0:0:
348,248,251955,2,0,L|448:248,1,90,8|0,0:0|0:0,0:0:0:0:
472,208,252276,1,0,0:0:0:0:
492,156,252384,6,0,P|488:108|472:68,1,90,0|0,0:0|0:0,0:0:0:0:
256,232,252812,2,0,P|260:280|276:320,1,90,8|0,0:0|0:0,0:0:0:0:
275,318,253134,1,0,0:0:0:0:
275,318,253241,1,0,0:0:0:0:
296,148,253455,1,0,0:0:0:0:
160,192,253669,2,0,P|112:196|72:188,1,90,8|0,0:0|0:0,0:0:0:0:
236,72,254098,6,0,B|296:44|344:68|344:68|384:80|420:64,1,180,0|8,0:0|0:0,0:0:0:0:
496,136,254741,1,0,0:0:0:0:
408,196,254955,2,0,P|400:248|416:336,1,135,0|0,0:0|0:0,0:0:0:0:
413,328,255384,1,8,0:0:0:0:
240,180,256026,6,0,L|180:168,1,45,0|0,0:0|0:0,0:0:0:0:
96,140,256241,2,0,P|84:192|92:332,1,180,8|0,0:0|0:0,0:0:0:0:
192,272,256884,1,0,0:0:0:0:
4,152,257098,2,0,L|20:56,1,90,8|0,0:0|0:0,0:0:0:0:
144,4,257526,6,0,P|196:0|320:44,1,180,0|8,0:0|0:0,0:0:0:0:
376,168,258169,2,0,L|400:116,1,45,0|0,0:0|0:0,0:0:0:0:
448,20,258384,1,0,0:0:0:0:
449,28,258491,1,0,0:0:0:0:
450,36,258705,5,0,0:0:0:0:
451,44,258812,1,0,0:0:0:0:
452,52,259027,5,0,0:0:0:0:
453,60,259134,1,0,0:0:0:0:
454,68,259240,1,0,0:0:0:0:
455,77,259348,1,0,0:0:0:0:
456,85,259562,5,0,0:0:0:0:
457,93,259669,1,0,0:0:0:0:
458,101,259884,5,0,0:0:0:0:
459,109,259991,1,0,0:0:0:0:
460,117,260098,1,0,0:0:0:0:
461,125,260205,1,0,0:0:0:0:
462,133,260419,5,0,0:0:0:0:
463,141,260526,1,0,0:0:0:0:
464,149,260741,5,0,0:0:0:0:
465,157,260848,1,0,0:0:0:0:
466,165,260955,1,0,0:0:0:0:
386,244,261169,6,0,P|337:249|295:241,1,90,0|8,0:0|0:0,0:0:0:0:
192,180,261598,1,0,0:0:0:0:
192,180,261705,1,0,0:0:0:0:
192,180,261812,2,0,P|179:235|193:357,1,180,0|8,0:0|0:0,0:0:0:0:
41,253,262455,1,0,0:0:0:0:
41,253,262562,2,0,L|58:113,1,135,0|0,0:0|0:0,0:0:0:0:
134,32,263098,1,8,0:0:0:0:
235,84,263312,5,0,0:0:0:0:
235,84,263419,1,0,0:0:0:0:
235,84,263526,2,0,P|288:92|368:84,1,135,0|0,0:0|0:0,0:0:0:0:
412,48,263955,1,8,0:0:0:0:
488,152,264169,2,0,L|516:200,2,45,0|0|0,0:0|0:0|0:0,0:0:0:0:
372,232,264598,6,0,P|368:280|376:336,1,90,0|8,0:0|0:0,0:0:0:0:
148,96,265455,2,0,P|160:144|160:188,1,90,8|8,0:0|0:0,0:0:0:0:
80,272,265884,6,0,P|124:292|260:288,1,180,0|0,0:0|0:0,0:0:0:0:
304,260,266419,1,0,0:0:0:0:
304,260,266526,2,0,L|320:164,1,90,8|0,0:0|0:0,0:0:0:0:
456,348,266955,5,0,0:0:0:0:
447,345,267169,5,0,0:0:0:0:
438,342,267276,1,0,0:0:0:0:
429,339,267383,1,0,0:0:0:0:
420,336,267598,5,0,0:0:0:0:
411,333,267812,5,0,0:0:0:0:
402,330,267919,1,0,0:0:0:0:
393,327,268134,5,0,0:0:0:0:
384,324,268241,1,0,0:0:0:0:
375,321,268455,5,0,0:0:0:0:
366,318,268562,1,0,0:0:0:0:
357,315,268670,1,0,0:0:0:0:
348,312,268777,1,0,0:0:0:0:
339,309,268991,5,0,0:0:0:0:
330,306,269098,1,0,0:0:0:0:
321,303,269312,5,0,0:0:0:0:
312,300,269419,1,0,0:0:0:0:
303,298,269526,1,0,0:0:0:0:
200,364,269741,5,0,0:0:0:0:
296,208,269955,2,0,P|300:160|292:116,1,90,8|0,0:0|0:0,0:0:0:0:
56,56,270384,1,0,0:0:0:0:
56,56,270491,2,0,L|156:56,1,90,0|0,0:0|0:0,0:0:0:0:
200,68,270812,2,0,P|248:68|296:52,1,90,8|8,0:0|0:0,0:0:0:0:
488,104,271241,5,0,0:0:0:0:
384,172,271455,1,0,0:0:0:0:
488,104,271669,2,0,L|496:208,1,90,8|0,0:0|0:0,0:0:0:0:
436,328,272098,5,0,0:0:0:0:
436,328,272205,1,0,0:0:0:0:
312,276,272419,1,0,0:0:0:0:
200,352,272634,1,8,0:0:0:0:
200,352,272741,2,0,L|152:352,2,45,8|0|0,0:0|0:0|0:0,0:0:0:0:
256,192,273062,12,0,278098,0:0:0:0:
