osu file format v9

[General]
AudioFilename: 11.mp3
AudioLeadIn: 0
PreviewTime: 1226
Countdown: 1
SampleSet: Normal
StackLeniency: 0.7
Mode: 0
LetterboxInBreaks: 1

[Editor]
DistanceSpacing: 2
BeatDivisor: 4
GridSize: 8

[Metadata]
Title:onnanokotte mazi tyouenzyeru
Artist:ave;new feat. Sakura Saori & Shirasawa Rie
Creator:jnkinsu
Version:kyun kyun
Source:Kaitou Tenshi Twin Angel
Tags:jnkinsu

[Difficulty]
HPDrainRate:8
CircleSize:4
OverallDifficulty:7
ApproachRate:8
SliderMultiplier:1.6
SliderTickRate:1

[Events]
//Background and Video events
0,0,"05.jpg"
//Break Periods
//Storyboard Layer 0 (Background)
//Storyboard Layer 1 (Fail)
//Storyboard Layer 2 (Pass)
//Storyboard Layer 3 (Foreground)
//Storyboard Sound Samples
//Background Colour Transformations
3,100,163,162,255

[TimingPoints]
1226,329.67032967033,4,1,0,100,1,0
5825,329.67032967033,4,1,0,100,1,0
21317,329.67032967033,4,1,0,100,1,0
31784,-200,4,1,0,100,0,0
47278,-133.333333333333,4,1,0,100,0,0
48597,-100,4,1,0,100,0,0
53954,329.67032967033,4,1,0,100,1,0
89475,-200,4,1,0,100,0,0
105300,-133.333333333333,4,1,0,100,0,0
106454,-100,4,1,0,100,0,0

[Colours]
Combo1 : 255,255,255
Combo2 : 255,0,0
Combo3 : 0,0,255

[HitObjects]
160,112,5825,1,0
288,176,5990,1,0
48,320,6319,2,0,B|160:352|296:352,1,240
384,288,6979,1,0
256,240,7144,1,0
144,320,7308,1,0
128,176,7473,2,0,B|80:240,1,80
352,336,7968,2,0,B|448:256|464:208,1,160
272,16,8627,6,0,B|352:32,1,80
448,112,8957,2,0,B|288:80,1,160
136,104,9451,1,0
280,168,9616,1,0
392,48,9781,1,0
384,208,9945,2,0,B|432:280,1,80
280,312,10275,1,0
144,24,10605,2,0,B|72:80|32:160,1,160
336,24,11264,5,0
224,136,11429,2,0,B|304:88,2,80
104,240,11923,1,0
264,232,12088,1,0
400,312,12253,1,0
240,336,12418,2,0,B|328:336,1,80
464,296,12748,2,0,B|384:296,1,80
232,248,13242,2,0,B|472:248,1,240
400,104,13901,5,0
240,104,14066,1,0
96,184,14231,2,0,B|40:264,1,80
200,312,14561,2,0,B|112:312,2,80
360,312,15055,1,0
240,208,15220,1,0
392,152,15385,1,0
272,40,15550,5,0
256,64,15632,1,0
240,88,15715,1,0
256,120,15797,1,0
272,144,15879,1,0
256,176,15962,1,0
240,208,16044,1,0
264,280,16209,1,0
176,320,16374,5,0
64,200,16539,1,0
224,168,16704,1,0
352,80,16868,2,0,B|424:224,1,160
280,296,17363,1,0
424,360,17528,1,0
352,216,17693,2,0,B|440:216,1,80
296,136,18022,2,0,B|208:136,1,80
72,232,18352,1,0
168,360,18517,1,0
72,232,18682,1,0
464,192,19011,5,0
432,192,19176,1,0
400,192,19341,1,0
88,128,19671,5,0
248,128,19835,1,0
480,352,20165,1,0
320,352,20330,1,0
400,40,20660,1,0
400,192,20825,1,0
64,128,21317,5,0
176,160,21481,1,0
88,240,21646,1,0
88,240,21729,1,0
88,240,21811,1,0
0,328,21976,2,0,B|88:328,1,80
200,328,22306,1,0
320,328,22470,1,0
256,232,22635,1,0
320,328,22800,2,0,B|392:304|416:256|408:120,1,240
120,48,23954,6,0,B|200:64,1,80
192,184,24284,2,0,B|272:200,1,80
352,112,24613,1,0
368,144,24696,1,0
384,176,24778,1,0
344,288,24943,2,0,B|384:360,2,80
288,184,25437,1,0
344,288,25602,1,0
224,288,25767,1,0
168,184,25932,1,0
48,184,26097,2,0,B|144:48|144:48|80:88,1,240
280,160,26921,5,0
336,216,27086,1,0
392,272,27251,1,0
336,328,27415,1,0
416,320,27580,1,0
440,288,27663,1,0
424,248,27745,1,0
464,176,27910,1,0
440,144,27992,1,0
464,112,28075,1,0
488,32,28240,2,0,B|416:80|336:56,1,160
184,112,28899,6,0,B|240:176,1,80
168,216,29229,2,0,B|88:264,1,80
200,320,29558,1,0
320,320,29723,1,0
368,216,29888,1,0
248,216,30053,1,0
256,96,30218,5,0
256,72,30547,1,0
256,48,30877,1,0
56,256,31866,6,0,B|120:296|224:280,1,160
296,248,32855,1,0
376,296,33185,1,0
432,216,33514,2,0,B|408:176,1,40
384,144,33844,2,0,B|400:104,1,40
264,56,34503,6,0,B|264:144,1,80
264,232,35163,1,0
200,296,35492,2,0,B|232:344,2,40
168,256,35987,1,0
208,168,36317,5,0
232,152,36481,1,0
208,136,36646,1,0
440,72,37470,6,0,B|464:152,1,80
392,208,38130,2,0,B|336:272|392:360,1,160
424,320,38954,1,0
392,288,39119,1,0
352,312,39284,1,0
320,280,39448,2,0,B|320:232,1,40
272,240,39778,2,0,B|272:192,2,40
240,272,40273,1,0
240,272,40437,1,0
192,272,40602,2,0,B|136:272,1,40
104,272,40932,2,0,B|144:272,1,40
144,320,41262,2,0,B|232:344|344:336,1,200
400,280,42251,5,0
448,208,42415,1,0
408,136,42580,2,0,B|376:104,1,40
328,168,42910,1,0
288,152,42992,1,0
256,176,43075,1,0
304,240,43240,1,0
256,304,43404,6,0,B|216:296|176:304,1,80
48,200,44064,2,0,B|80:184|128:192,1,80
240,80,44723,2,0,B|248:184|312:232,1,160
448,280,45712,1,0
432,128,46042,1,0
392,56,46207,1,0
312,56,46371,1,0
392,56,46536,1,0
320,200,46866,5,0
320,344,47031,1,0
96,264,47360,5,0
16,176,47525,1,0
136,160,47690,1,0
192,56,47855,1,0
304,104,48020,2,0,B|360:144,1,59.9999982118607
384,256,48349,2,0,B|440:296,1,59.9999982118607
280,336,48679,2,0,B|184:336,1,80
304,216,49009,2,0,B|392:216,1,80
248,136,49338,5,0
88,136,49503,1,0
352,312,49833,5,0
432,176,49998,2,0,B|456:208|504:224,2,80
320,64,50492,2,0,B|296:32|248:16,2,80
264,224,50987,1,0
104,224,51152,2,0,B|72:128|-32:176|0:312|112:440|120:440|232:304|264:152|136:128|112:232,1,560
400,80,52635,6,0,B|320:80,1,80
184,160,52965,2,0,B|264:160,1,80
416,224,53295,1,0
400,248,53377,1,0
376,272,53459,1,0
352,288,53542,1,0
320,296,53624,1,0
288,296,53707,1,0
256,288,53789,1,0
160,216,53954,5,0
248,136,54118,1,0
296,248,54283,1,0
296,248,54366,1,0
296,248,54448,1,0
352,136,54613,2,0,B|384:112|440:96,1,80
288,184,54943,2,0,B|232:208|208:232,1,80
128,304,55272,1,0
232,360,55437,1,0
272,344,55519,1,0
312,328,55602,1,0
368,216,55767,1,0
424,64,55932,2,0,B|336:40,1,80
200,112,56261,2,0,B|280:80,1,80
376,144,56591,5,0
256,168,56756,1,0
152,232,56921,1,0
96,336,57085,1,0
208,296,57250,2,0,B|208:240|224:208,2,80
304,344,57745,1,0
400,272,57910,5,0
368,240,57992,1,0
320,240,58074,1,0
224,216,58239,1,0
192,184,58322,1,0
176,136,58404,1,0
256,80,58569,6,0,B|304:112|344:112,2,80
176,24,59063,1,0
112,96,59228,2,0,B|64:128|32:136,1,80
152,192,59558,2,0,B|192:240|224:240,1,80
112,312,59888,2,0,B|80:352|48:360,2,80
224,264,60382,1,0
464,304,60712,5,0
464,184,60877,1,0
264,56,61206,5,0
264,56,61289,1,0
264,56,61371,1,0
168,128,61536,1,0
224,232,61701,2,0,B|304:176,1,80
408,176,62030,2,0,B|336:232,1,80
352,344,62360,1,0
264,304,62525,2,0,B|224:344|176:352,2,80
376,256,63019,5,0
400,224,63102,1,0
416,192,63184,1,0
424,152,63267,1,0
424,112,63349,1,0
424,72,63432,1,0
424,40,63514,1,0
216,112,63844,6,0,B|144:80,1,80
304,64,64338,2,0,B|344:184|472:232,1,240
456,144,64997,1,0
376,184,65162,1,0
424,248,65327,1,0
400,280,65410,1,0
376,312,65492,1,0
304,272,65657,1,0
232,312,65822,1,0
296,352,65986,1,0
296,352,66151,2,0,B|216:304|128:320,1,160
176,152,66646,5,0
176,152,66728,1,0
176,152,66811,1,0
288,120,66975,2,0,B|320:80|320:40,2,80
280,200,67470,1,0
344,248,67635,2,0,B|416:304,1,80
488,296,67964,2,0,B|400:296,1,80
408,296,68294,1,0
352,344,68459,1,0
272,328,68624,5,0
240,328,68706,1,0
208,320,68789,1,0
184,312,68871,1,0
160,296,68954,1,0
144,280,69036,1,0
128,256,69118,1,0
264,192,69283,5,0
232,120,69448,1,0
296,64,69613,2,0,B|336:96|384:80,1,80
416,152,69943,1,0
376,168,70025,1,0
360,208,70107,1,0
344,304,70272,2,0,B|272:272,1,80
192,304,70602,2,0,B|112:272,1,80
48,232,70932,1,0
0,296,71096,1,0
64,344,71261,2,0,B|136:336|200:256,1,160
272,288,71756,5,0
272,288,71838,1,0
272,288,71921,1,0
328,232,72085,2,0,B|368:304|448:336,1,160
456,248,72580,1,0
504,312,72745,1,0
464,376,72910,1,0
384,352,73074,2,0,B|384:304|352:264,1,80
400,208,73404,2,0,B|392:160|416:128,1,80
368,64,73734,1,0
304,112,73899,2,0,B|208:136|136:128,1,160
112,144,74311,1,0
80,160,74393,1,0
96,232,74558,5,0
256,288,74723,2,0,B|168:304,2,80
384,176,75217,1,0
296,48,75382,2,0,B|320:136,1,80
344,280,75712,2,0,B|320:192,1,80
160,208,76041,1,0
272,320,76206,1,0
112,328,76371,6,0,B|80:368,2,40
80,168,76701,2,0,B|32:144,2,40
240,168,77030,2,0,B|272:128,2,40
288,320,77360,2,0,B|320:352,2,40
400,176,77690,5,0
400,16,77855,1,0
272,112,78019,1,0
128,40,78184,1,0
32,168,78349,1,0
104,312,78514,1,0
200,184,78679,1,0
312,296,78844,1,0
448,208,79008,6,0,B|400:136,1,80
272,88,79338,2,0,B|320:168,1,80
248,304,79668,1,0
248,144,79833,1,0
88,136,79997,2,0,B|48:208,1,80
136,344,80327,6,0,B|224:296|384:288,1,240
472,168,80986,2,0,B|392:184,1,80
296,56,81316,2,0,B|208:64,1,80
128,288,81975,5,0
128,288,82140,1,0
128,288,82305,2,0,B|208:288,1,80
360,352,82635,2,0,B|272:352,1,80
360,216,82964,2,0,B|400:192|400:192|400:160,1,80
312,24,83294,2,0,B|280:48|280:48|280:96,1,80
184,216,83624,1,0
136,64,83789,1,0
24,168,83954,1,0
80,16,84118,2,0,B|184:80|320:56,1,240
88,320,85107,5,0
88,320,85190,1,0
88,320,85272,2,0,B|160:288,1,80
320,304,85602,1,0
408,168,85767,1,0
304,48,85932,1,0
184,344,86261,2,0,B|160:256|112:184,1,160
400,32,86921,6,0,B|328:80,1,80
192,160,87250,1,0
336,224,87415,2,0,B|256:272,1,80
120,336,87745,1,0
280,336,87910,1,0
120,336,88074,1,0
128,176,88239,6,0,B|176:184|192:240,1,80
264,368,88569,2,0,B|216:360|200:304,1,80
312,200,88899,1,0
312,200,88981,1,0
312,200,89063,1,0
312,200,89146,1,0
312,200,89228,1,0
312,200,89311,1,0
312,200,89393,1,0
128,80,89558,6,0,B|192:64|304:48,1,160
432,112,90547,1,0
312,136,90712,2,0,B|272:160,1,40
440,200,91041,2,0,B|392:224,1,40
216,216,91371,2,0,B|152:216|24:288,1,200
88,344,92360,1,0
176,344,92525,5,0
248,264,92690,1,0
304,160,92855,1,0
176,152,93019,2,0,B|200:112,1,40
384,56,93349,2,0,B|360:96,1,40
344,248,93679,1,0
344,248,93844,1,0
344,248,94008,1,0
448,136,94173,2,0,B|464:176,1,40
480,208,94503,1,0
496,248,94668,2,0,B|440:272|408:336,1,120
288,352,95327,5,0
192,288,95492,1,0
192,288,95574,1,0
192,288,95657,1,0
72,320,95822,2,0,B|40:248,1,80
64,144,96316,1,0
104,40,96481,2,0,B|200:40,1,80
240,128,96975,1,0
336,88,97140,1,0
360,112,97223,1,0
384,136,97305,1,0
288,224,97470,1,0
264,248,97552,1,0
240,272,97635,1,0
360,344,97800,5,0
424,200,97964,1,0
280,64,98129,1,0
280,64,98294,1,0
104,152,98459,1,0
104,152,98624,1,0
128,320,98789,2,0,B|168:288,1,40
272,192,99118,1,0
272,192,99283,2,0,B|272:264|320:312,1,120
424,192,100107,5,0
480,136,100272,1,0
416,88,100437,1,0
416,88,100602,2,0,B|368:128|288:104,1,120
232,80,101261,1,0
296,32,101426,2,0,B|344:96|360:184,1,160
304,240,102250,1,0
184,344,102580,2,0,B|112:288|32:296,1,160
128,72,103734,5,0
168,56,103816,1,0
208,48,103899,1,0
280,80,104063,2,0,B|304:120,1,40
344,184,104393,2,0,B|312:224,1,40
256,360,104888,1,0
256,360,105052,1,0
72,192,105382,5,0
144,96,105547,1,0
256,144,105712,1,0
376,120,105877,2,0,B|448:96,1,59.9999982118607
328,224,106206,2,0,B|272:240,1,59.9999982118607
112,264,106536,6,0,B|144:336,1,80
80,192,106866,2,0,B|40:104,1,80
184,32,107195,1,0
336,80,107360,1,0
336,80,107443,1,0
336,80,107525,1,0
488,32,107690,1,0
488,32,107772,1,0
488,32,107855,1,0
424,176,108019,6,0,B|472:256,1,80
360,368,108349,2,0,B|312:288,1,80
160,304,108679,1,0
272,184,108844,1,0
208,40,109008,1,0
56,72,109173,5,0
64,104,109256,1,0
72,136,109338,1,0
80,168,109421,1,0
88,200,109503,1,0
96,232,109585,1,0
104,264,109668,1,0
256,304,109833,2,0,B|336:304,1,80
472,216,110162,2,0,B|376:216,1,80
240,168,110492,1,0
128,40,110657,5,0
280,80,110822,1,0
160,192,110986,1,0
304,256,111151,1,0
336,232,111234,1,0
376,232,111316,1,0
408,216,111399,1,0
424,184,111481,1,0
432,152,111563,1,0
424,120,111646,1,0
40,352,111975,5,0
40,352,112058,1,0
40,352,112140,2,0,B|136:352,1,80
280,352,112470,1,0
416,272,112635,1,0
280,352,112800,1,0
416,272,112964,1,0
320,144,113129,2,0,B|304:192|272:208,1,80
152,312,113459,2,0,B|104:288|64:296,1,80
104,136,113789,5,0
248,72,113954,1,0
408,88,114118,2,0,B|456:72|488:40,2,80
288,192,114613,1,0
416,288,114778,1,0
440,312,114860,1,0
480,320,114943,1,0
328,360,115107,1,0
168,352,115272,2,0,B|88:376,1,80
16,232,115602,6,0,B|48:160,1,80
192,240,115932,2,0,B|224:312,1,80
328,192,116261,1,0
192,112,116426,1,0
336,40,116591,1,0
368,56,116673,1,0
392,80,116756,1,0
416,112,116838,1,0
432,144,116921,1,0
496,288,117085,6,0,B|424:288|264:352,1,240
112,304,117745,1,0
240,208,117910,1,0
368,304,118074,1,0
368,304,118157,1,0
368,304,118239,1,0
216,360,118404,2,0,B|256:320|280:312,1,80
432,360,118734,2,0,B|456:312|456:280,1,80
248,40,119228,5,0
248,56,119393,1,0
248,72,119558,1,0
112,192,119723,2,0,B|200:192,1,80
384,192,120052,2,0,B|296:192,1,80
80,192,120382,1,0
416,192,120547,1,0
248,160,120712,1,0
104,336,120877,5,0
136,336,120959,1,0
168,328,121041,1,0
200,320,121124,1,0
232,312,121206,1,0
264,312,121289,1,0
296,312,121372,1,0
328,304,121454,1,0
360,304,121536,1,0
120,88,121866,5,0
120,88,122030,1,0
288,32,122195,1,0
288,32,122360,2,0,B|304:112|368:184,1,160
224,64,122855,1,0
376,112,123019,1,0
224,168,123184,2,0,B|136:208,1,80
104,360,123514,1,0
8,232,123679,1,0
304,352,124008,6,0,B|352:296|456:272,1,160
464,256,124421,1,0
488,232,124503,1,0
400,96,124668,2,0,B|440:80|480:32,2,80
256,24,125162,1,0
304,176,125327,1,0
232,320,125492,1,0
304,176,125657,1,0
184,72,125822,2,0,B|96:80,1,80
16,216,126151,2,0,B|96:208,1,80
408,296,126646,6,0,B|352:304|256:344,1,160
96,344,127140,1,0
200,216,127305,1,0
216,248,127388,1,0
232,280,127470,1,0
88,216,127635,2,0,B|96:144|48:64,1,160
88,216,128129,1,0
368,56,128459,5,0
472,176,128624,1,0
368,56,128789,1,0
280,192,128954,2,0,B|240:240|208:248,2,80
160,296,129448,1,0
0,312,129613,1,0
0,280,129695,1,0
0,248,129778,1,0
0,216,129860,1,0
0,184,129943,1,0
96,56,130107,6,0,B|128:104|120:136,1,80
280,152,130437,2,0,B|240:184|208:184,2,80
208,296,130932,1,0
88,192,131096,1,0
176,56,131261,1,0
88,192,131426,1,0
152,352,131591,5,0
184,344,131673,1,0
216,336,131756,1,0
248,328,131838,1,0
280,320,131921,1,0
312,312,132003,1,0
344,304,132085,1,0
192,24,132415,5,0
192,24,132580,1,0
192,24,132745,1,0
352,32,132910,2,0,B|424:120|496:144,1,160
416,288,133404,1,0
473,134,133569,1,0
352,32,133734,2,0,B|304:128|248:160,1,160
128,176,134228,1,0
64,320,134393,2,0,B|160:320,1,80
304,320,134723,1,0
256,0,135052,5,0
256,32,135217,1,0
256,64,135382,1,0
256,96,135547,1,0
120,16,135712,5,0
120,176,135877,1,0
400,328,136206,1,0
400,168,136371,1,0
80,192,136701,1,0
240,192,136866,1,0
