osu file format v12

[General]
AudioFilename: Allure.mp3
AudioLeadIn: 0
PreviewTime: 106702
Countdown: 0
SampleSet: Soft
StackLeniency: 0.7
Mode: 0
LetterboxInBreaks: 1
WidescreenStoryboard: 0

[Editor]
DistanceSpacing: 1.1
BeatDivisor: 4
GridSize: 4
TimelineZoom: 1

[Metadata]
Title:Allure -HARD dRESS STYLE-
TitleUnicode:Allure -HARD dRESS STYLE-
Artist:ave;new feat. BRACE;d
ArtistUnicode:ave;new feat. BRACE;d
Creator:[CSGA]Ar3sgice
Version:close my eyes, dress finds another truth
Source:CREEd -HARD dRESS STYLE-
Tags:avenew a.k.a.dRESS tatsuya uzuki miwa osaki it's a secret, right on our soul
BeatmapID:413523
BeatmapSetID:170877

[Difficulty]
HPDrainRate:5
CircleSize:4
OverallDifficulty:8
ApproachRate:9
SliderMultiplier:1.8
SliderTickRate:1

[Events]
//Background and Video events
0,0,"allure_bg.jpg",0,0
//Break Periods
//Storyboard Layer 0 (Background)
//Storyboard Layer 1 (Fail)
//Storyboard Layer 2 (Pass)
//Storyboard Layer 3 (Foreground)
//Storyboard Sound Samples
//Background Colour Transformations
3,100,163,162,255

[TimingPoints]
417,428.571428571429,4,2,1,60,1,0
417,-200,4,2,1,60,0,0
10274,-200,4,2,1,5,0,0
10702,-100,4,2,1,75,0,0
23774,-133.333333333333,4,2,1,75,0,0
24417,-100,4,2,1,75,0,0
106702,-100,4,2,1,75,0,1
134131,-100,4,2,1,75,0,0
175274,-100,4,2,1,75,0,1
202702,-100,4,2,1,75,0,0
203774,-100,4,2,1,60,0,0
209559,-100,4,2,1,75,0,0
210631,-100,4,2,1,70,0,0
216417,-100,4,2,1,75,0,0
226702,-100,4,2,1,80,0,0
230131,-100,4,2,1,75,0,0
241488,-100,4,2,1,65,0,0
241917,-100,4,2,1,55,0,0
242345,-100,4,2,1,65,0,0
242988,-100,4,2,1,55,0,0
243417,-100,4,2,1,45,0,0
243845,-100,4,2,1,75,0,0
257559,-100,4,2,1,75,0,1
284988,-100,4,2,1,60,0,0

[Colours]
Combo1 : 255,155,155
Combo2 : 255,251,179
Combo3 : 157,238,255
Combo4 : 154,255,149

[HitObjects]
492,147,417,5,0,0:0:0:0:
340,109,738,1,0,0:0:0:0:
477,55,1059,1,0,0:0:0:0:
403,177,1274,2,0,L|393:259,2,67.5
479,293,2131,6,0,P|449:322|320:308,1,180,0|0,0:0|0:0,0:0:0:0:
322,310,3095,2,2,L|168:341,1,157.5,0|0,0:0|0:0,0:0:0:0:
155,342,3952,5,0,0:0:0:0:
143,344,4059,1,0,0:0:0:0:
133,347,4167,2,0,L|131:290,1,45
120,298,4488,5,0,0:0:0:0:
110,295,4595,1,0,0:0:0:0:
101,291,4702,2,0,P|90:273|82:246,1,45
256,192,5559,12,0,7274,0:0:0:0:
400,208,7595,5,0,0:0:0:0:
400,208,7702,1,0,0:0:0:0:
332,131,7917,1,0,0:0:0:0:
240,163,8131,2,0,P|231:194|237:353,1,180
256,192,9417,12,0,10274,0:0:0:0:
354,171,10702,6,0,L|345:78,1,90
215,27,11131,1,0,0:0:0:0:
200,59,11238,1,0,0:0:0:0:
193,94,11345,1,0,0:0:0:0:
193,129,11452,1,0,0:0:0:0:
207,161,11559,2,0,P|160:177|109:180,1,90,8|0,0:3|0:0,0:0:0:0:
20,146,11988,1,0,0:0:0:0:
312,176,12417,6,0,L|405:172,1,90
499,113,12845,1,0,0:0:0:0:
499,113,12952,2,0,P|508:161|499:254,1,135,2|0,0:0|0:0,0:0:0:0:
433,330,13488,1,0,0:0:0:0:
327,352,13702,1,0,0:0:0:0:
327,352,13809,2,0,P|269:357|192:340,1,135,0|0,0:0|0:0,0:0:0:0:
103,281,14345,5,0,0:0:0:0:
169,195,14559,1,0,0:0:0:0:
169,195,14667,2,0,L|165:102,1,90,2|0,0:0|0:0,0:0:0:0:
194,60,14988,2,0,P|240:52|294:58,1,90
406,84,15417,1,0,0:0:0:0:
416,250,15845,6,0,P|462:257|510:251,2,90
369,278,16381,2,0,L|278:277,1,90,2|0,0:0|0:0,0:0:0:0:
232,303,16702,2,0,P|185:307|141:302,2,90,8|0|0,0:0|0:0|0:0,0:0:0:0:
275,270,17238,2,0,P|285:212|280:132,1,135,0|2,0:0|0:0,0:0:0:0:
149,69,17774,5,0,0:0:0:0:
149,69,17881,2,0,L|289:63,1,135
395,50,18417,1,8,0:0:0:0:
491,98,18631,1,0,0:0:0:0:
395,50,18845,1,0,0:0:0:0:
395,50,18952,2,0,P|386:106|393:192,1,135
356,355,19702,5,0,0:0:0:0:
356,355,19809,1,0,0:0:0:0:
258,307,20024,1,0,0:0:0:0:
258,307,20131,2,0,P|204:303|81:346,1,180,8|0,0:0|0:0,0:0:0:0:
86,342,20667,2,0,L|59:254,1,90
40,206,20988,1,0,0:0:0:0:
483,118,21845,5,8,0:0:0:0:
126,80,22702,5,0,0:0:0:0:
257,194,23131,1,0,0:0:0:0:
378,310,23559,1,0,0:0:0:0:
362,202,23774,2,0,L|345:66,1,135.000005149842,2|0,0:0|0:0,0:0:0:0:
212,26,24417,5,0,0:0:0:0:
193,56,24524,1,0,0:0:0:0:
182,90,24631,1,0,0:0:0:0:
177,125,24738,1,0,0:0:0:0:
179,160,24845,2,0,L|186:258,1,90,8|0,0:0|0:0,0:0:0:0:
112,365,25274,1,0,0:0:0:0:
265,284,25488,1,0,0:0:0:0:
65,256,25702,1,8,0:0:0:0:
65,256,25809,2,0,P|59:208|62:156,1,90,0|0,0:0|0:0,0:0:0:0:
256,192,26131,12,0,26988,0:0:0:0:
412,177,27202,5,0,0:0:0:0:
318,245,27417,1,8,0:0:0:0:
318,245,27524,2,0,P|305:195|314:112,1,135,0|0,0:0|0:0,0:0:0:0:
286,71,27952,1,0,0:0:0:0:
236,80,28059,1,0,0:0:0:0:
129,38,28274,5,8,0:0:0:0:
129,38,28488,2,0,P|111:88|112:143,1,90,0|0,0:0|0:0,0:0:0:0:
158,220,28917,1,0,0:0:0:0:
93,309,29131,1,8,0:0:0:0:
93,309,29238,2,0,P|146:328|230:321,1,135,0|0,0:0|0:0,0:0:0:0:
449,230,29988,5,8,0:0:0:0:
449,230,30202,2,0,L|452:130,1,90,0|0,0:0|0:0,0:0:0:0:
376,61,30631,1,0,0:0:0:0:
284,118,30845,1,8,0:0:0:0:
284,118,30952,2,0,P|230:127|142:118,1,135,0|0,0:0|0:0,0:0:0:0:
116,132,31381,5,0,0:0:0:0:
93,160,31488,1,0,0:0:0:0:
87,195,31595,1,0,0:0:0:0:
98,229,31702,2,0,P|145:240|204:238,1,90,8|0,0:0|0:0,0:0:0:0:
275,302,32131,2,0,P|326:298|374:304,2,90,0|0|0,0:0|0:0|0:0,0:0:0:0:
499,228,32988,5,0,0:0:0:0:
499,228,33095,1,0,0:0:0:0:
441,136,33309,1,0,0:0:0:0:
441,136,33417,2,0,P|391:128|345:129,1,90,8|0,0:0|0:0,0:0:0:0:
239,60,33845,2,0,P|233:127|239:164,2,90,0|0|0,0:0|0:0|0:0,0:0:0:0:
28,220,34702,5,4,0:0:0:0:
28,220,34809,1,0,0:0:0:0:
112,300,35024,1,0,0:0:0:0:
112,300,35131,2,0,L|209:310,1,90,8|0,0:0|0:0,0:0:0:0:
366,327,35559,1,0,0:0:0:0:
350,219,35774,1,0,0:0:0:0:
489,267,35988,2,0,L|496:219,1,45,8|0,0:0|0:0,0:0:0:0:
449,151,36202,2,0,L|441:97,1,45,0|0,0:0|0:0,0:0:0:0:
383,44,36417,5,4,0:0:0:0:
383,44,36524,2,0,P|329:39|273:47,1,90,0|0,0:0|0:0,0:0:0:0:
246,68,36845,2,0,P|193:75|151:70,1,90,8|0,0:0|0:0,0:0:0:0:
49,14,37274,2,0,L|17:108,2,90,0|0|0,0:0|0:0|0:0,0:0:0:0:
210,203,38131,5,4,0:0:0:0:
40,340,38559,1,8,0:0:0:0:
130,158,38774,1,0,0:0:0:0:
130,158,38881,2,0,L|120:303,1,135,0|0,0:0|0:0,0:0:0:0:
240,320,39417,1,8,0:0:0:0:
45,231,39631,1,0,0:0:0:0:
225,158,39845,6,0,L|231:66,1,90,0|0,0:0|0:0,0:0:0:0:
230,68,40274,1,8,0:0:0:0:
285,235,40702,2,0,P|333:250|477:244,1,180,0|8,0:0|0:0,0:0:0:0:
509,150,41345,1,0,0:0:0:0:
405,36,41559,6,0,P|397:88|399:129,1,90,0|0,0:0|0:0,0:0:0:0:
455,255,41988,1,8,0:0:0:0:
351,349,42202,1,0,0:0:0:0:
351,349,42309,2,0,P|301:358|216:352,1,135,0|0,0:0|0:0,0:0:0:0:
91,294,42845,1,8,0:0:0:0:
175,101,43059,1,0,0:0:0:0:
240,210,43274,6,0,P|151:222|62:206,2,180,0|0|0,0:0|0:0|0:0,0:0:0:0:
294,17,44559,1,8,0:0:0:0:
404,88,44774,5,0,0:0:0:0:
404,88,44881,1,0,0:0:0:0:
404,88,44988,2,0,L|412:182,1,90,4|0,0:0|0:0,0:0:0:0:
424,294,45417,1,8,0:0:0:0:
320,363,45631,1,0,0:0:0:0:
320,363,45738,2,0,P|264:370|182:360,1,135,0|0,0:0|0:0,0:0:0:0:
77,279,46274,1,8,0:0:0:0:
121,165,46488,1,0,0:0:0:0:
243,202,46702,6,0,P|285:181|317:140,1,90,0|0,0:0|0:0,0:0:0:0:
444,161,47131,2,0,P|377:165|312:148,1,135,8|0,0:0|0:0,0:0:0:0:
280,106,47559,1,0,0:0:0:0:
383,7,47774,1,0,0:0:0:0:
511,80,47988,1,8,0:0:0:0:
475,235,48202,1,0,0:0:0:0:
327,241,48417,6,0,P|277:244|237:260,1,90,4|0,0:0|0:0,0:0:0:0:
153,361,48845,1,8,0:0:0:0:
53,302,49059,1,0,0:0:0:0:
53,302,49167,2,0,P|46:241|51:164,1,135,0|0,0:0|0:0,0:0:0:0:
135,68,49702,1,8,0:0:0:0:
236,143,49917,1,0,0:0:0:0:
341,69,50131,6,0,P|391:67|475:96,2,135,0|8|0,0:0|0:0|0:0,0:0:0:0:
282,215,50988,1,0,0:0:0:0:
282,215,51095,2,0,L|287:311,1,90,0|0,0:0|0:0,0:0:0:0:
321,346,51417,2,0,P|369:352|425:346,1,90,8|0,0:0|0:0,0:0:0:0:
188,264,51845,5,4,0:0:0:0:
365,175,52059,1,0,0:0:0:0:
365,175,52167,1,0,0:0:0:0:
365,175,52274,2,0,L|371:78,1,90,8|0,0:0|0:0,0:0:0:0:
278,28,52702,1,0,0:0:0:0:
479,124,52917,1,0,0:0:0:0:
244,135,53131,1,0,0:0:0:0:
422,273,53452,5,0,0:0:0:0:
422,273,53559,2,0,P|373:284|328:281,1,90,0|0,0:0|0:0,0:0:0:0:
212,244,53988,2,0,L|120:244,1,90,8|0,0:0|0:0,0:0:0:0:
81,208,54309,1,0,0:0:0:0:
81,208,54417,2,0,P|76:157|83:111,2,90,0|0|8,0:0|0:0|0:0,0:0:0:0:
158,336,55059,5,0,0:0:0:0:
234,159,55274,2,0,P|283:152|377:181,2,135,0|0|0,0:0|0:0|0:0,0:0:0:0:
288,252,56131,1,0,0:0:0:0:
403,52,56345,2,0,L|413:158,1,90,0|8,0:0|0:0,0:0:0:0:
431,275,56774,1,0,0:0:0:0:
512,166,56988,6,0,P|467:150|375:155,2,135,0|0|0,0:0|0:0|0:0,0:0:0:0:
348,349,57845,2,0,L|299:364,1,45,0|0,0:0|0:0,0:0:0:0:
227,311,58059,2,0,L|182:306,1,45,0|0,0:0|0:0,0:0:0:0:
110,249,58274,2,0,P|101:200|103:158,1,90,8|0,0:0|0:0,0:0:0:0:
160,29,58702,5,0,0:0:0:0:
25,165,58917,1,0,0:0:0:0:
25,165,59024,1,0,0:0:0:0:
25,165,59131,2,0,L|120:183,1,90,8|0,0:0|0:0,0:0:0:0:
243,208,59559,2,0,P|295:212|337:208,2,90,0|0|8,0:0|0:0|0:0,0:0:0:0:
449,32,60417,5,0,0:0:0:0:
449,32,60524,1,0,0:0:0:0:
496,140,60738,1,0,0:0:0:0:
496,140,60845,2,0,L|473:235,1,90,8|0,0:0|0:0,0:0:0:0:
436,353,61274,2,0,P|390:362|344:360,2,90,0|0|8,0:0|0:0|0:0,0:0:0:0:
202,304,62131,5,4,0:0:0:0:
329,167,62452,1,0,0:0:0:0:
329,167,62559,1,0,0:0:0:0:
268,359,62774,1,0,0:0:0:0:
145,241,62988,2,0,L|47:237,1,90,0|0,0:0|0:0,0:0:0:0:
16,104,63417,1,8,0:0:0:0:
232,24,63631,2,0,L|200:60,1,45
154,107,63845,6,0,P|206:112|285:154,2,135,4|0|0,0:0|0:0|0:0,0:0:0:0:
366,43,64702,1,2,0:0:0:0:
254,239,64917,1,0,0:0:0:0:
281,52,65131,2,0,L|288:7,1,45,8|0,0:0|0:0,0:0:0:0:
385,162,65345,2,0,L|394:115,1,45,2|0,0:0|0:0,0:0:0:0:
484,225,65559,5,0,0:0:0:0:
336,275,65774,1,0,0:0:0:0:
336,275,65881,1,0,0:0:0:0:
336,275,65988,2,0,P|333:328|342:369,1,90,8|0,0:0|0:0,0:0:0:0:
435,312,66417,1,0,0:0:0:0:
209,204,66631,1,0,0:0:0:0:
246,350,66845,1,8,0:0:0:0:
293,149,67059,5,0,0:0:0:0:
293,149,67167,1,0,0:0:0:0:
293,149,67274,2,0,P|256:119|209:106,1,90,2|0,0:0|0:0,0:0:0:0:
127,257,67702,2,0,L|32:269,1,90,8|0,0:0|0:0,0:0:0:0:
107,366,68131,1,0,0:0:0:0:
66,150,68345,1,0,0:0:0:0:
237,244,68559,5,8,0:0:0:0:
276,255,68667,1,0,0:0:0:0:
316,254,68774,1,0,0:0:0:0:
354,241,68881,1,0,0:0:0:0:
383,213,68988,1,0,0:0:0:0:
491,123,69202,2,0,P|501:177|501:229,2,90,0|8|0,0:0|0:0|0:0,0:0:0:0:
380,36,69845,2,0,L|284:26,1,90,0|0,0:0|0:0,0:0:0:0:
81,109,70274,2,0,L|129:103,1,45,8|0,0:0|0:0,0:0:0:0:
61,212,70488,2,0,L|106:206,1,45,0|0,0:0|0:0,0:0:0:0:
203,259,70702,6,0,P|251:264|302:258,2,90,0|0|8,0:0|0:0|0:0,0:0:0:0:
374,145,71345,1,0,0:0:0:0:
374,145,71452,1,0,0:0:0:0:
374,145,71559,2,0,L|385:243,1,90,0|0,0:0|0:0,0:0:0:0:
400,358,71988,1,8,0:0:0:0:
400,358,72095,2,0,L|443:377,2,45,0|0|0,0:0|0:0|0:0,0:0:0:0:
256,192,72417,12,0,73274,0:0:0:0:
28,259,73488,6,0,L|8:167,1,90
265,92,74131,5,0,0:0:0:0:
265,92,74345,2,0,L|255:189,2,90,0|8|0,0:0|0:0|0:0,0:0:0:0:
357,27,74988,1,0,0:0:0:0:
169,131,75202,1,0,0:0:0:0:
348,182,75417,1,8,0:0:0:0:
348,182,75524,2,0,P|355:229|351:284,1,90,0|0,0:0|0:0,0:0:0:0:
328,319,75845,6,0,L|410:362,2,90,0|0|8,0:0|0:0|0:0,0:0:0:0:
212,356,76488,2,0,P|165:361|31:328,1,180,0|0,0:0|0:0,0:0:0:0:
100,204,77131,2,0,L|114:156,1,45,8|0,0:0|0:0,0:0:0:0:
40,104,77345,2,0,L|29:51,1,45,0|0,0:0|0:0,0:0:0:0:
125,23,77559,6,0,P|175:22|222:35,2,90,4|0|8,0:0|0:0|0:0,0:0:0:0:
204,143,78202,2,0,L|392:134,1,180,0|0,0:0|0:0,0:0:0:0:
508,63,78845,2,0,L|498:16,1,45,8|0,0:0|0:0,0:0:0:0:
473,179,79059,2,0,L|459:122,1,45,0|0,0:0|0:0,0:0:0:0:
501,259,79274,5,4,0:0:0:0:
314,346,79488,1,0,0:0:0:0:
380,140,79702,1,8,0:0:0:0:
427,362,79917,1,0,0:0:0:0:
427,362,80024,2,0,L|404:262,1,90,0|0,0:0|0:0,0:0:0:0:
365,239,80345,2,0,P|317:231|265:238,2,90,0|8|0,0:0|0:0|0:0,0:0:0:0:
193,300,80988,5,0,0:0:0:0:
265,142,81202,1,0,0:0:0:0:
117,239,81417,1,8,0:0:0:0:
265,142,81631,1,0,0:0:0:0:
265,142,81738,2,0,P|311:154|360:155,1,90,0|0,0:0|0:0,0:0:0:0:
402,132,82059,2,0,L|500:126,2,90,0|8|0,0:0|0:0|0:0,0:0:0:0:
483,23,82702,5,4,0:0:0:0:
447,239,82917,1,0,0:0:0:0:
330,62,83131,1,8,0:0:0:0:
447,239,83345,1,0,0:0:0:0:
447,239,83452,2,0,P|401:248|305:242,1,135,0|0,0:0|0:0,0:0:0:0:
171,166,83988,1,8,0:0:0:0:
93,301,84202,1,0,0:0:0:0:
233,377,84417,6,0,P|245:330|236:189,1,180,0|8,0:0|0:0,0:0:0:0:
69,31,85274,2,0,L|49:132,1,90,0|8,0:0|0:0,0:0:0:0:
51,119,85702,1,0,0:0:0:0:
183,54,85917,5,0,0:0:0:0:
183,54,86024,1,0,0:0:0:0:
183,54,86131,2,0,L|280:53,1,90,4|0,0:0|0:0,0:0:0:0:
413,78,86559,1,8,0:0:0:0:
336,170,86774,1,0,0:0:0:0:
336,170,86881,2,0,P|329:225|334:272,1,90,0|0,0:0|0:0,0:0:0:0:
367,299,87202,2,0,P|415:307|470:306,2,90,0|8|0,0:0|0:0|0:0,0:0:0:0:
259,365,87845,5,0,0:0:0:0:
155,287,88059,1,0,0:0:0:0:
203,168,88274,1,8,0:0:0:0:
268,275,88488,1,0,0:0:0:0:
268,275,88595,2,0,P|209:286|126:272,1,135,0|0,0:0|0:0,0:0:0:0:
43,360,89131,1,8,0:0:0:0:
97,185,89345,1,0,0:0:0:0:
206,328,89559,6,0,L|314:327,1,90,4|0,0:0|0:0,0:0:0:0:
337,322,89881,1,0,0:0:0:0:
369,294,89988,2,0,P|380:245|376:193,1,90,8|0,0:0|0:0,0:0:0:0:
353,168,90309,2,0,P|347:123|366:33,1,135,0|0,0:0|0:0,0:0:0:0:
243,141,90845,5,8,0:0:0:0:
457,81,91059,1,0,0:0:0:0:
413,238,91274,1,0,0:0:0:0:
413,238,91381,2,0,L|311:236,1,90,0|0,0:0|0:0,0:0:0:0:
277,265,91702,2,0,L|186:265,1,90,8|0,0:0|0:0,0:0:0:0:
93,361,92131,5,0,0:0:0:0:
4,235,92345,1,0,0:0:0:0:
107,113,92559,2,0,L|100:159,1,45,8|0,0:0|0:0,0:0:0:0:
192,86,92774,2,0,L|185:132,1,45,8|0,0:0|0:0,0:0:0:0:
254,174,92988,6,0,P|301:178|353:171,1,90,4|0,0:0|0:0,0:0:0:0:
464,109,93417,1,8,0:0:0:0:
354,52,93631,2,0,P|341:107|351:241,1,180,0|0,0:0|0:0,0:0:0:0:
456,357,94274,2,0,L|471:264,1,90,8|0,0:0|0:0,0:0:0:0:
256,192,94702,12,0,95559,0:0:0:0:
103,308,95774,5,0,0:0:0:0:
192,196,95988,2,0,L|286:201,1,90,8|0,0:0|0:0,0:0:0:0:
326,197,96309,1,0,0:0:0:0:
361,171,96417,2,0,P|372:119|351:35,2,135,0|0|0,0:0|0:0|0:0,0:0:0:0:
477,41,97274,1,0,0:0:0:0:
263,114,97488,1,0,0:0:0:0:
439,205,97702,2,0,L|443:297,1,90,8|0,0:0|0:0,0:0:0:0:
415,341,98024,5,0,0:0:0:0:
415,341,98131,2,0,P|360:355|317:353,1,90,0|0,0:0|0:0,0:0:0:0:
280,327,98452,2,0,L|142:327,1,135,0|0,0:0|0:0,0:0:0:0:
34,371,98988,1,0,0:0:0:0:
146,243,99202,1,0,0:0:0:0:
22,129,99417,2,0,L|11:176,1,45,8|0,0:0|0:0,0:0:0:0:
113,88,99631,2,0,L|98:145,1,45,8|0,0:0|0:0,0:0:0:0:
196,129,99845,6,0,P|245:137|382:128,1,180,0|8,0:0|0:0,0:0:0:0:
486,58,100488,1,0,0:0:0:0:
343,20,100702,1,0,0:0:0:0:
296,236,100917,1,0,0:0:0:0:
445,290,101131,2,0,P|454:243|452:190,1,90,8|0,0:0|0:0,0:0:0:0:
300,103,101559,5,0,0:0:0:0:
254,101,101667,1,0,0:0:0:0:
213,120,101774,1,0,0:0:0:0:
186,156,101881,1,0,0:0:0:0:
175,199,101988,2,0,L|85:211,1,90,8|0,0:0|0:0,0:0:0:0:
1,111,102417,1,0,0:0:0:0:
128,302,102631,1,0,0:0:0:0:
159,50,102845,2,0,L|65:63,1,90,8|0,0:0|0:0,0:0:0:0:
249,102,103274,6,0,P|296:108|387:92,2,135,4|0|0,0:0|0:0|0:0,0:0:0:0:
205,220,104131,1,0,0:0:0:0:
298,318,104345,1,0,0:0:0:0:
424,282,104559,2,0,P|425:331|425:332,1,45,8|0,0:0|0:0,0:0:0:0:
506,235,104774,2,0,L|506:284,1,45,8|0,0:0|0:0,0:0:0:0:
454,162,104988,6,0,P|406:170|317:160,2,135,4|0|0,0:0|0:0|0:0,0:0:0:0:
283,15,105845,2,0,L|260:106,1,90,0|0,0:0|0:0,0:0:0:0:
426,288,106274,2,0,L|435:242,1,45,8|0,0:0|0:0,0:0:0:0:
386,82,106488,2,0,L|372:142,1,45,8|0,0:0|0:0,0:0:0:0:
304,206,106702,6,0,P|252:215|165:202,1,135,4|0,0:0|0:0,0:0:0:0:
124,161,107131,1,8,0:0:0:0:
219,16,107345,2,0,L|226:68,1,45,0|0,0:0|0:0,0:0:0:0:
309,44,107559,1,0,0:0:0:0:
46,115,107774,2,0,L|32:168,1,45,0|0,0:0|0:0,0:0:0:0:
63,238,107988,1,8,0:0:0:0:
192,354,108202,6,0,P|241:358|326:340,1,135,0|0,0:0|0:0,0:0:0:0:
387,285,108631,1,0,0:0:0:0:
280,186,108845,1,8,0:0:0:0:
486,236,109059,1,0,0:0:0:0:
356,63,109274,2,0,L|361:163,1,90,0|0,0:0|0:0,0:0:0:0:
222,253,109702,5,8,0:0:0:0:
177,261,109809,1,0,0:0:0:0:
132,251,109917,1,0,0:0:0:0:
95,224,110024,1,0,0:0:0:0:
74,183,110131,2,0,L|65:85,1,90,4|0,0:0|0:0,0:0:0:0:
182,124,110559,1,8,0:0:0:0:
2,245,110774,5,0,0:0:0:0:
2,245,110881,1,0,0:0:0:0:
2,245,110988,2,0,L|-2:301,1,45,0|0,0:0|0:0,0:0:0:0:
210,370,111309,1,0,0:0:0:0:
210,370,111417,2,0,L|215:314,1,45,8|0,0:0|0:0,0:0:0:0:
219,197,111631,5,0,0:0:0:0:
242,153,111738,1,0,0:0:0:0:
278,118,111845,2,0,P|322:107|368:107,1,90,0|0,0:0|0:0,0:0:0:0:
485,60,112274,1,8,0:0:0:0:
512,215,112488,1,0,0:0:0:0:
512,215,112595,1,0,0:0:0:0:
512,215,112702,2,0,P|468:226|422:226,1,90,0|0,0:0|0:0,0:0:0:0:
381,209,113024,1,0,0:0:0:0:
347,179,113131,6,0,L|329:133,1,45,8|0,0:0|0:0,0:0:0:0:
169,146,113345,2,0,L|187:200,1,45,8|0,0:0|0:0,0:0:0:0:
241,330,113559,2,0,P|195:341|140:340,1,90,4|0,0:0|0:0,0:0:0:0:
101,321,113881,1,0,0:0:0:0:
101,321,113988,2,0,L|92:270,1,45,8|0,0:0|0:0,0:0:0:0:
10,234,114202,2,0,L|21:182,1,45,0|0,0:0|0:0,0:0:0:0:
74,112,114417,2,0,P|125:103|174:107,1,90,0|0,0:0|0:0,0:0:0:0:
280,40,114845,1,8,0:0:0:0:
209,187,115059,1,0,0:0:0:0:
352,88,115274,6,0,P|400:94|452:91,1,90,0|0,0:0|0:0,0:0:0:0:
488,118,115595,1,0,0:0:0:0:
488,118,115702,2,0,L|507:214,1,90,8|0,0:0|0:0,0:0:0:0:
498,260,116024,1,0,0:0:0:0:
458,294,116131,2,0,P|410:305|357:303,1,90,0|0,0:0|0:0,0:0:0:0:
231,256,116559,1,8,0:0:0:0:
317,174,116774,5,0,0:0:0:0:
317,174,116881,1,0,0:0:0:0:
317,174,116988,1,4,0:0:0:0:
252,365,117202,1,8,0:0:0:0:
126,277,117417,2,0,P|114:225|120:136,1,135,8|0,0:0|0:0,0:0:0:0:
150,101,117845,1,0,0:0:0:0:
20,195,118059,5,0,0:0:0:0:
67,22,118274,1,8,0:0:0:0:
20,195,118488,1,0,0:0:0:0:
228,146,118702,1,0,0:0:0:0:
83,112,118917,2,0,L|137:111,1,45,8|0,0:0|0:0,0:0:0:0:
279,42,119132,1,8,0:0:0:0:
188,236,119345,5,0,0:0:0:0:
225,262,119452,1,0,0:0:0:0:
268,273,119559,2,0,P|317:274|363:262,2,90,0|0|8,0:0|0:0|0:0,0:0:0:0:
203,343,120095,1,0,0:0:0:0:
203,343,120202,2,0,L|151:352,1,45,0|0,0:0|0:0,0:0:0:0:
76,370,120417,6,0,P|54:325|50:230,1,135,4|0,0:0|0:0,0:0:0:0:
71,192,120845,1,8,0:0:0:0:
204,31,121059,2,0,L|199:125,1,90,0|0,0:0|0:0,0:0:0:0:
352,154,121488,2,0,L|356:101,1,45,0|0,0:0|0:0,0:0:0:0:
363,23,121702,1,8,0:0:0:0:
489,193,121917,6,0,P|493:242|472:336,1,135,0|0,0:0|0:0,0:0:0:0:
427,348,122345,1,0,0:0:0:0:
235,259,122559,1,8,0:0:0:0:
383,222,122774,1,8,0:0:0:0:
235,259,122988,2,0,L|226:348,1,90,0|0,0:0|0:0,0:0:0:0:
178,373,123309,1,0,0:0:0:0:
178,373,123417,2,0,P|129:372|84:355,1,90,8|0,0:0|0:0,0:0:0:0:
41,156,123845,5,0,0:0:0:0:
11,273,124059,1,0,0:0:0:0:
168,164,124274,1,8,0:0:0:0:
33,33,124488,1,0,0:0:0:0:
168,164,124702,2,0,P|219:173|305:164,1,135,0|0,0:0|0:0,0:0:0:0:
346,135,125131,1,8,0:0:0:0:
447,33,125345,1,0,0:0:0:0:
264,85,125559,5,0,0:0:0:0:
419,182,125774,1,0,0:0:0:0:
419,182,125881,1,0,0:0:0:0:
419,182,125988,2,0,L|428:242,1,45,8|0,0:0|0:0,0:0:0:0:
358,280,126202,2,0,L|348:328,1,45,8|0,0:0|0:0,0:0:0:0:
273,373,126417,2,0,P|227:379|175:373,2,90,0|0|8,0:0|0:0|0:0,0:0:0:0:
477,306,127059,1,0,0:0:0:0:
274,228,127274,6,0,P|260:180|262:93,1,135,0|0,0:0|0:0,0:0:0:0:
297,135,127702,2,0,L|183:149,1,90,8|0,0:0|0:0,0:0:0:0:
76,169,128131,1,0,0:0:0:0:
162,38,128345,1,0,0:0:0:0:
162,38,128452,1,0,0:0:0:0:
162,38,128559,1,8,0:0:0:0:
212,237,128774,1,0,0:0:0:0:
21,314,128988,6,0,P|71:341|153:350,2,135,0|8|0,0:0|0:0|0:0,0:0:0:0:
146,177,129845,1,0,0:0:0:0:
296,264,130059,1,0,0:0:0:0:
296,264,130167,1,0,0:0:0:0:
296,264,130274,2,0,L|292:359,1,90,8|0,0:0|0:0,0:0:0:0:
449,288,130702,5,4,0:0:0:0:
449,288,130809,2,0,L|468:241,1,45,0|0,0:0|0:0,0:0:0:0:
405,165,131024,1,0,0:0:0:0:
405,165,131131,2,0,L|403:103,1,45,8|0,0:0|0:0,0:0:0:0:
329,55,131345,2,0,P|282:54|225:66,1,90,0|0,0:0|0:0,0:0:0:0:
45,160,131774,2,0,P|94:174|185:169,1,135,0|0,0:0|0:0,0:0:0:0:
227,151,132202,1,0,0:0:0:0:
108,261,132417,6,0,L|90:355,1,90,0|0,0:0|0:0,0:0:0:0:
264,238,132845,1,8,0:0:0:0:
264,238,132952,2,0,L|249:337,1,90,0|0,0:0|0:0,0:0:0:0:
291,362,133274,2,0,P|339:368|385:363,2,90,0|0|8,0:0|0:0|0:0,0:0:0:0:
64,280,134131,5,4,0:0:0:0:
217,155,134345,1,0,0:0:0:0:
108,21,134559,2,0,P|96:69|94:112,1,90,8|0,0:0|0:0,0:0:0:0:
117,158,134881,2,0,P|124:211|111:306,1,135,0|0,0:0|0:0,0:0:0:0:
240,246,135417,1,0,0:0:0:0:
29,201,135631,1,0,0:0:0:0:
192,29,135845,5,0,0:0:0:0:
44,89,136059,1,0,0:0:0:0:
252,121,136274,1,0,0:0:0:0:
147,193,136488,1,0,0:0:0:0:
147,193,136595,2,0,P|138:251|151:331,1,135,0|0,0:0|0:0,0:0:0:0:
265,364,137131,1,8,0:0:0:0:
397,307,137345,1,0,0:0:0:0:
256,192,137559,12,0,138417,0:0:0:0:
232,144,138631,5,0,0:0:0:0:
336,218,138845,1,8,0:0:0:0:
501,68,139059,1,0,0:0:0:0:
247,26,139274,5,0,0:0:0:0:
512,233,139702,1,8,0:0:0:0:
171,347,140131,2,0,L|79:339,1,90,0|8,0:0|0:0,0:0:0:0:
81,339,140559,1,8,0:0:0:0:
22,181,140774,2,0,L|34:138,1,45,0|0,0:0|0:0,0:0:0:0:
52,51,140988,5,4,0:0:0:0:
200,216,141202,1,0,0:0:0:0:
52,261,141417,1,8,0:0:0:0:
150,104,141631,1,0,0:0:0:0:
150,104,141738,2,0,P|198:99|294:112,1,135,0|0,0:0|0:0,0:0:0:0:
472,148,142274,1,8,0:0:0:0:
299,228,142488,1,0,0:0:0:0:
393,45,142702,5,0,0:0:0:0:
407,256,142917,1,0,0:0:0:0:
218,329,143131,1,8,0:0:0:0:
134,133,143345,1,0,0:0:0:0:
134,133,143452,2,0,P|125:191|131:280,1,135,0|0,0:0|0:0,0:0:0:0:
301,361,143988,1,8,0:0:0:0:
342,197,144202,1,0,0:0:0:0:
228,234,144417,5,4,0:0:0:0:
456,266,144631,1,0,0:0:0:0:
271,115,144845,1,8,0:0:0:0:
434,28,145059,1,0,0:0:0:0:
434,28,145167,2,0,P|442:78|433:178,1,135,0|0,0:0|0:0,0:0:0:0:
308,41,145702,1,8,0:0:0:0:
154,121,145917,1,0,0:0:0:0:
263,212,146131,6,0,P|271:266|256:351,2,135,0|8|0,0:0|0:0|0:0,0:0:0:0:
76,54,146988,1,0,0:0:0:0:
76,54,147095,2,0,L|64:150,1,90,0|0,0:0|0:0,0:0:0:0:
55,196,147417,1,8,0:0:0:0:
219,122,147631,1,0,0:0:0:0:
169,300,147845,6,0,P|214:311|353:309,1,180,4|8,0:0|0:0,0:0:0:0:
470,226,148488,1,0,0:0:0:0:
372,98,148702,1,0,0:0:0:0:
342,215,148917,1,0,0:0:0:0:
512,317,149131,2,0,P|461:325|421:318,1,90,8|0,0:0|0:0,0:0:0:0:
381,350,149452,5,0,0:0:0:0:
381,350,149559,2,0,L|277:349,1,90,0|0,0:0|0:0,0:0:0:0:
134,241,149988,1,8,0:0:0:0:
180,353,150202,1,0,0:0:0:0:
153,129,150417,1,0,0:0:0:0:
31,251,150631,1,0,0:0:0:0:
233,207,150845,2,0,L|284:214,1,45,8|0,0:0|0:0,0:0:0:0:
288,99,151059,2,0,L|338:106,1,45,8|0,0:0|0:0,0:0:0:0:
443,91,151274,6,0,P|456:148|450:232,2,135,0|0|0,0:0|0:0|0:0,0:0:0:0:
295,19,152131,1,0,0:0:0:0:
166,120,152345,1,0,0:0:0:0:
311,184,152559,1,8,0:0:0:0:
322,227,152667,1,0,0:0:0:0:
322,271,152774,1,0,0:0:0:0:
308,313,152881,1,0,0:0:0:0:
273,341,152988,6,0,L|136:356,2,135,0|0|0,0:0|0:0|0:0,0:0:0:0:
427,318,153845,1,0,0:0:0:0:
215,247,154059,1,0,0:0:0:0:
361,81,154274,1,8,0:0:0:0:
361,81,154381,2,0,L|388:185,1,90,0|0,0:0|0:0,0:0:0:0:
378,219,154702,5,4,0:0:0:0:
449,21,154917,1,0,0:0:0:0:
449,21,155024,1,0,0:0:0:0:
449,21,155131,1,8,0:0:0:0:
270,132,155345,1,0,0:0:0:0:
479,140,155559,1,0,0:0:0:0:
310,13,155774,1,0,0:0:0:0:
205,202,155988,1,8,0:0:0:0:
205,202,156095,2,0,L|193:297,1,90,0|0,0:0|0:0,0:0:0:0:
222,337,156417,6,0,P|268:351|317:351,2,90,0|0|8,0:0|0:0|0:0,0:0:0:0:
81,273,157059,1,0,0:0:0:0:
239,85,157274,1,0,0:0:0:0:
287,245,157488,1,0,0:0:0:0:
136,162,157702,1,8,0:0:0:0:
136,162,157809,2,0,L|108:122,2,45,0|0|0,0:0|0:0|0:0,0:0:0:0:
179,194,158131,6,0,P|240:204|317:198,1,135,4|0,0:0|0:0,0:0:0:0:
349,163,158559,2,0,P|395:152|457:153,1,90
483,170,158881,1,0,0:0:0:0:
511,210,158988,2,0,L|501:311,1,90,0|0,0:0|0:0,0:0:0:0:
374,369,159417,2,0,L|361:326,1,45,0|0,0:0|0:0,0:0:0:0:
260,347,159631,2,0,L|245:299,1,45,0|0,0:0|0:0,0:0:0:0:
296,212,159845,6,0,P|351:205|428:223,2,135,4|0|0,0:0|0:0|0:0,0:0:0:0:
179,162,160702,2,0,L|32:172,1,135,0|0,0:0|0:0,0:0:0:0:
44,171,161131,2,0,P|34:121|40:74,1,90,0|0,0:0|0:0,0:0:0:0:
273,112,161559,5,0,0:0:0:0:
282,156,161667,1,0,0:0:0:0:
276,200,161774,1,0,0:0:0:0:
249,236,161881,1,0,0:0:0:0:
209,258,161988,2,0,L|113:267,1,90,8|0,0:0|0:0,0:0:0:0:
274,355,162417,1,0,0:0:0:0:
148,164,162631,1,0,0:0:0:0:
35,318,162845,1,8,0:0:0:0:
35,318,162952,1,0,0:0:0:0:
188,368,163167,5,0,0:0:0:0:
188,368,163274,2,0,L|192:277,1,90,0|0,0:0|0:0,0:0:0:0:
198,73,163702,1,8,0:0:0:0:
69,219,163917,1,0,0:0:0:0:
253,154,164131,1,0,0:0:0:0:
99,88,164345,1,0,0:0:0:0:
265,239,164559,2,0,L|317:231,1,45,8|0,0:0|0:0,0:0:0:0:
336,110,164774,2,0,L|384:100,1,45,8|0,0:0|0:0,0:0:0:0:
488,150,164988,6,0,P|495:197|494:247,1,90,0|0,0:0|0:0,0:0:0:0:
445,361,165417,1,8,0:0:0:0:
318,367,165631,2,0,L|214:371,1,90,0|0,0:0|0:0,0:0:0:0:
35,256,166059,1,0,0:0:0:0:
146,323,166274,1,8,0:0:0:0:
146,323,166381,2,0,L|154:230,1,90,0|0,0:0|0:0,0:0:0:0:
193,196,166702,6,0,P|240:188|283:192,2,90,0|0|8,0:0|0:0|0:0,0:0:0:0:
83,135,167345,1,0,0:0:0:0:
253,273,167559,1,0,0:0:0:0:
308,46,167774,1,0,0:0:0:0:
176,21,167988,1,8,0:0:0:0:
176,21,168095,2,0,L|160:116,1,90,0|0,0:0|0:0,0:0:0:0:
256,192,168417,12,0,169274,0:0:0:0:
381,228,169488,5,0,0:0:0:0:
512,280,169702,2,0,L|501:179,1,90,8|0,0:0|0:0,0:0:0:0:
429,60,170131,1,0,0:0:0:0:
429,60,170238,2,0,P|379:54|332:60,1,90,0|0,0:0|0:0,0:0:0:0:
288,73,170559,2,0,L|182:72,1,90,8|0,0:0|0:0,0:0:0:0:
38,161,170988,1,0,0:0:0:0:
119,11,171202,1,0,0:0:0:0:
203,170,171417,5,8,0:0:0:0:
197,214,171524,1,0,0:0:0:0:
178,255,171631,1,0,0:0:0:0:
146,287,171738,1,0,0:0:0:0:
103,300,171845,2,0,L|240:324,1,135,0|0,0:0|0:0,0:0:0:0:
415,353,172488,1,0,0:0:0:0:
450,122,172702,1,0,0:0:0:0:
299,257,172917,1,0,0:0:0:0:
505,272,173131,5,8,0:0:0:0:
479,235,173238,1,0,0:0:0:0:
442,208,173345,1,0,0:0:0:0:
397,201,173452,1,0,0:0:0:0:
352,206,173559,2,0,P|330:154|328:68,2,135,0|0|0,0:0|0:0|0:0,0:0:0:0:
210,27,174417,2,0,L|199:74,1,45,0|0,0:0|0:0,0:0:0:0:
157,208,174631,1,0,0:0:0:0:
157,208,175274,6,0,L|292:201,1,135,4|0,0:0|0:0,0:0:0:0:
346,195,175702,1,8,0:0:0:0:
157,107,175917,2,0,L|112:80,1,45,0|0,0:0|0:0,0:0:0:0:
36,48,176131,1,0,0:0:0:0:
11,275,176345,2,0,L|52:300,1,45,0|0,0:0|0:0,0:0:0:0:
136,332,176559,1,8,0:0:0:0:
410,108,176774,6,0,P|363:95|272:106,1,135,0|0,0:0|0:0,0:0:0:0:
244,145,177202,1,0,0:0:0:0:
412,7,177417,1,8,0:0:0:0:
512,136,177631,1,8,0:0:0:0:
442,278,177845,2,0,P|397:290|350:293,1,90,0|0,0:0|0:0,0:0:0:0:
301,274,178167,1,0,0:0:0:0:
301,274,178274,2,0,L|255:251,1,45,8|0,0:0|0:0,0:0:0:0:
168,203,178488,1,0,0:0:0:0:
237,364,178702,5,4,0:0:0:0:
345,189,178917,2,0,L|336:138,1,45,0|0,0:0|0:0,0:0:0:0:
313,38,179131,1,8,0:0:0:0:
192,119,179345,1,0,0:0:0:0:
426,149,179559,2,0,P|439:202|435:291,1,135,0|0,0:0|0:0,0:0:0:0:
404,325,179988,2,0,L|370:362,1,45,8|0,0:0|0:0,0:0:0:0:
292,270,180202,2,0,L|238:282,1,45,8|0,0:0|0:0,0:0:0:0:
133,234,180417,5,0,0:0:0:0:
42,350,180631,1,0,0:0:0:0:
42,350,180738,1,0,0:0:0:0:
42,350,180845,2,0,L|87:365,1,45,8|0,0:0|0:0,0:0:0:0:
48,243,181059,2,0,L|4:230,1,45,0|0,0:0|0:0,0:0:0:0:
140,145,181274,2,0,P|191:143|238:157,1,90,0|0,0:0|0:0,0:0:0:0:
275,178,181595,1,0,0:0:0:0:
275,178,181702,2,0,L|377:172,1,90,8|0,0:0|0:0,0:0:0:0:
465,26,182131,6,0,L|448:73,1,45,4|0,0:0|0:0,0:0:0:0:
465,155,182345,2,0,L|481:201,1,45,0|0,0:0|0:0,0:0:0:0:
446,283,182559,1,8,0:0:0:0:
414,315,182667,1,0,0:0:0:0:
371,329,182774,1,0,0:0:0:0:
326,329,182881,1,0,0:0:0:0:
282,316,182988,2,0,L|194:352,1,90,0|0,0:0|0:0,0:0:0:0:
154,357,183309,1,0,0:0:0:0:
108,356,183417,2,0,P|62:349|19:324,1,90,8|0,0:0|0:0,0:0:0:0:
149,174,183845,5,0,0:0:0:0:
149,174,183952,2,0,L|159:226,2,45,0|0|0,0:0|0:0|0:0,0:0:0:0:
118,128,184274,2,0,P|165:117|215:119,1,90,8|0,0:0|0:0,0:0:0:0:
334,158,184702,1,0,0:0:0:0:
334,158,184917,2,0,L|351:255,1,90,0|8,0:0|0:0,0:0:0:0:
422,74,185345,5,0,0:0:0:0:
422,74,185452,1,0,0:0:0:0:
422,74,185559,1,4,0:0:0:0:
256,206,185774,1,8,0:0:0:0:
476,243,185988,2,0,L|476:339,1,90,8|0,0:0|0:0,0:0:0:0:
432,368,186309,1,0,0:0:0:0:
432,368,186417,2,0,B|385:374|332:368|331:368,1,90,0|0,0:0|0:0,0:0:0:0:
216,148,186845,1,8,0:0:0:0:
154,340,187059,6,0,L|201:326,1,45,0|0,0:0|0:0,0:0:0:0:
294,292,187274,1,0,0:0:0:0:
94,216,187488,1,0,0:0:0:0:
301,132,187702,1,8,0:0:0:0:
178,253,187917,1,0,0:0:0:0:
178,253,188024,1,0,0:0:0:0:
178,253,188131,1,0,0:0:0:0:
242,46,188345,2,0,P|298:34|336:36,1,90,8|8,0:0|0:0,0:0:0:0:
370,57,188667,1,0,0:0:0:0:
395,93,188774,1,0,0:0:0:0:
401,137,188881,1,0,0:0:0:0:
389,180,188988,6,0,L|378:318,1,135,4|0,0:0|0:0,0:0:0:0:
403,361,189417,1,8,0:0:0:0:
278,276,189631,2,0,P|229:278|186:288,1,90,0|0,0:0|0:0,0:0:0:0:
19,238,190059,2,0,L|4:290,1,45,0|0,0:0|0:0,0:0:0:0:
65,364,190274,1,8,0:0:0:0:
289,142,190488,6,0,P|232:127|141:137,1,135,0|0,0:0|0:0,0:0:0:0:
113,168,190917,1,0,0:0:0:0:
238,229,191131,1,8,0:0:0:0:
178,41,191345,1,8,0:0:0:0:
238,229,191559,2,0,P|287:238|336:233,1,90,0|0,0:0|0:0,0:0:0:0:
410,197,191881,1,0,0:0:0:0:
410,197,191988,2,0,L|463:203,1,45,8|0,0:0|0:0,0:0:0:0:
496,306,192202,2,0,L|450:319,1,45,8|0,0:0|0:0,0:0:0:0:
366,355,192417,5,0,0:0:0:0:
170,300,192631,1,0,0:0:0:0:
294,151,192845,1,8,0:0:0:0:
274,337,193059,2,0,L|264:291,1,45,0|0,0:0|0:0,0:0:0:0:
203,210,193274,2,0,P|153:200|64:208,1,135,0|0,0:0|0:0,0:0:0:0:
30,169,193702,2,0,L|39:72,1,90,8|0,0:0|0:0,0:0:0:0:
184,11,194131,5,0,0:0:0:0:
292,79,194345,1,0,0:0:0:0:
292,79,194452,1,0,0:0:0:0:
292,79,194559,2,0,L|344:69,1,45,8|0,0:0|0:0,0:0:0:0:
385,145,194774,2,0,L|435:151,1,45,8|0,0:0|0:0,0:0:0:0:
488,230,194988,2,0,P|487:275|471:327,2,90,0|0|8,0:0|0:0|0:0,0:0:0:0:
404,272,195524,1,0,0:0:0:0:
404,272,195631,2,0,L|349:273,1,45,0|0,0:0|0:0,0:0:0:0:
278,282,195845,6,0,P|261:232|261:147,2,135,0|0|0,0:0|0:0|0:0,0:0:0:0:
180,366,196702,1,0,0:0:0:0:
59,308,196917,1,0,0:0:0:0:
59,308,197024,1,0,0:0:0:0:
59,308,197131,2,0,L|50:258,1,45,8|0,0:0|0:0,0:0:0:0:
97,186,197345,2,0,L|103:137,1,45,0|0,0:0|0:0,0:0:0:0:
162,77,197559,6,0,P|208:69|301:80,2,135,0|0|0,0:0|0:0|0:0,0:0:0:0:
277,183,198417,1,0,0:0:0:0:
277,183,198524,2,0,L|367:176,1,90,0|0,0:0|0:0,0:0:0:0:
413,202,198845,2,0,P|423:254|421:303,1,90,8|0,0:0|0:0,0:0:0:0:
342,378,199274,5,0,0:0:0:0:
506,215,199488,1,0,0:0:0:0:
506,215,199595,1,0,0:0:0:0:
506,215,199702,2,0,L|494:106,1,90,8|0,0:0|0:0,0:0:0:0:
474,85,200024,1,0,0:0:0:0:
441,53,200131,2,0,L|397:33,1,45,0|0,0:0|0:0,0:0:0:0:
303,94,200345,2,0,L|248:101,1,45,0|0,0:0|0:0,0:0:0:0:
170,189,200559,2,0,P|166:247|169:287,1,90,8|0,0:0|0:0,0:0:0:0:
254,368,200988,5,0,0:0:0:0:
86,253,201202,1,0,0:0:0:0:
254,368,201417,1,8,0:0:0:0:
254,368,201524,2,0,L|391:358,1,135,0|0,0:0|0:0,0:0:0:0:
512,340,202059,1,0,0:0:0:0:
444,176,202274,2,0,L|430:223,1,45,8|0,0:0|0:0,0:0:0:0:
366,108,202488,2,0,L|350:153,1,45,8|0,0:0|0:0,0:0:0:0:
305,243,202702,1,4,0:0:0:0:
256,192,202809,12,0,203559,0:0:0:0:
135,150,203774,5,0,0:0:0:0:
78,254,203988,1,0,0:0:0:0:
78,254,204095,2,0,P|134:266|216:261,1,135,0|0,0:0|0:0,0:0:0:0:
300,200,204631,5,0,0:0:0:0:
402,231,204845,1,0,0:0:0:0:
402,231,204952,1,0,0:0:0:0:
483,159,205167,1,0,0:0:0:0:
483,159,205274,2,0,P|491:96|485:60,2,90,0|0|0,0:0|0:0|0:0,0:0:0:0:
494,211,205809,2,0,P|485:265|495:349,1,135,0|0,0:0|0:0,0:0:0:0:
77,103,206988,5,0,0:0:0:0:
229,45,207417,1,0,0:0:0:0:
229,45,207524,2,0,L|238:186,1,135,0|0,0:0|0:0,0:0:0:0:
419,358,208274,6,0,P|433:313|434:180,1,180,0|0,0:0|0:0,0:0:0:0:
342,114,208917,1,0,0:0:0:0:
490,27,209131,1,0,0:0:0:0:
490,27,209238,2,0,L|505:126,1,90,0|0,0:0|0:0,0:0:0:0:
256,192,209559,12,0,210417,0:0:0:0:
343,279,210631,5,0,0:0:0:0:
225,351,210845,1,8,0:0:0:0:
196,315,210952,1,0,0:0:0:0:
181,272,211059,1,0,0:0:0:0:
179,226,211167,1,0,0:0:0:0:
193,183,211274,2,0,P|196:131|191:91,2,90,0|0|8,0:0|0:0|0:0,0:0:0:0:
320,173,211917,5,0,0:0:0:0:
320,173,212024,1,0,0:0:0:0:
320,173,212131,2,0,L|416:145,1,90,0|0,0:0|0:0,0:0:0:0:
199,63,212559,1,8,0:0:0:0:
199,63,212667,2,0,L|59:105,1,135,0|0,0:0|0:0,0:0:0:0:
21,286,213202,6,0,L|33:237,1,45,0|0,0:0|0:0,0:0:0:0:
83,354,213417,1,8,0:0:0:0:
83,354,213524,2,0,P|130:364|219:356,1,135,0|0,0:0|0:0,0:0:0:0:
250,273,214059,2,0,L|216:356,1,90,0|8,0:0|0:0,0:0:0:0:
383,314,214488,5,0,0:0:0:0:
383,314,214702,2,0,L|373:220,1,90,0|0,0:0|0:0,0:0:0:0:
489,63,215131,1,8,0:0:0:0:
489,63,215238,2,0,P|496:112|484:206,1,135,0|0,0:0|0:0,0:0:0:0:
313,158,215774,1,0,0:0:0:0:
274,134,215881,1,0,0:0:0:0:
254,92,215988,2,0,L|256:41,1,45,8|0,0:0|0:0,0:0:0:0:
143,94,216202,2,0,L|141:145,1,45,8|0,0:0|0:0,0:0:0:0:
136,253,216417,6,0,P|186:267|326:260,1,180,0|8,0:0|0:0,0:0:0:0:
422,346,217059,1,0,0:0:0:0:
422,346,217167,1,0,0:0:0:0:
422,346,217274,2,0,L|465:262,1,90,0|0,0:0|0:0,0:0:0:0:
492,220,217595,1,0,0:0:0:0:
492,220,217702,2,0,P|502:171|490:84,1,135,8|0,0:0|0:0,0:0:0:0:
256,192,218131,12,0,218988,0:0:0:0:
176,144,219095,6,0,L|167:238,1,90,0|0,0:0|0:0,0:0:0:0:
184,275,219417,1,8,0:0:0:0:
220,301,219524,1,0,0:0:0:0:
264,309,219631,1,0,0:0:0:0:
308,305,219738,1,0,0:0:0:0:
348,285,219845,6,0,L|439:284,1,90,0|0,0:0|0:0,0:0:0:0:
471,253,220167,1,0,0:0:0:0:
490,212,220274,1,8,0:0:0:0:
491,167,220381,1,0,0:0:0:0:
474,125,220488,1,0,0:0:0:0:
434,103,220595,1,0,0:0:0:0:
389,100,220702,6,0,L|339:109,1,45,0|0,0:0|0:0,0:0:0:0:
271,166,220917,2,0,L|216:158,1,45,0|0,0:0|0:0,0:0:0:0:
195,63,221131,2,0,L|151:69,1,45,8|0,0:0|0:0,0:0:0:0:
64,131,221345,2,0,L|46:180,1,45,0|0,0:0|0:0,0:0:0:0:
8,274,221559,5,0,0:0:0:0:
45,299,221667,1,0,0:0:0:0:
88,308,221774,1,0,0:0:0:0:
132,305,221881,1,0,0:0:0:0:
173,287,221988,2,0,L|225:289,1,45,8|0,0:0|0:0,0:0:0:0:
284,354,222202,2,0,L|335:351,1,45,0|0,0:0|0:0,0:0:0:0:
425,346,222417,6,0,P|437:293|437:241,1,90,0|0,0:0|0:0,0:0:0:0:
368,48,222845,2,0,P|356:101|356:153,1,90,8|0,0:0|0:0,0:0:0:0:
256,192,223274,12,0,224131,0:0:0:0:
209,65,224345,6,0,L|305:54,1,90,0|8,0:0|0:0,0:0:0:0:
299,173,224774,1,0,0:0:0:0:
299,173,224881,1,0,0:0:0:0:
299,173,224988,2,0,L|360:166,1,45,0|0,0:0|0:0,0:0:0:0:
425,156,225202,2,0,P|437:207|435:254,1,90,0|8,0:0|0:0,0:0:0:0:
367,351,225631,6,0,L|323:371,1,45,0|0,0:0|0:0,0:0:0:0:
246,330,225845,1,0,0:0:0:0:
201,323,225952,1,0,0:0:0:0:
156,323,226059,1,0,0:0:0:0:
111,331,226167,1,0,0:0:0:0:
73,356,226274,2,0,L|53:312,1,45,8|0,0:0|0:0,0:0:0:0:
19,234,226488,2,0,L|34:189,1,45,0|0,0:0|0:0,0:0:0:0:
73,100,226702,5,4,0:0:0:0:
73,100,226809,2,0,L|164:95,1,90,0|0,0:0|0:0,0:0:0:0:
211,118,227131,2,0,L|302:118,1,90,8|0,0:0|0:0,0:0:0:0:
345,109,227452,1,0,0:0:0:0:
381,82,227559,6,0,L|419:41,1,45,4|0,0:0|0:0,0:0:0:0:
489,143,227774,2,0,L|440:158,1,45,0|0,0:0|0:0,0:0:0:0:
344,240,227988,2,0,L|403:248,1,45,8|0,0:0|0:0,0:0:0:0:
496,332,228202,2,0,L|443:350,1,45,0|0,0:0|0:0,0:0:0:0:
373,368,228417,5,4,0:0:0:0:
373,368,228524,2,0,P|324:371|275:365,1,90,0|0,0:0|0:0,0:0:0:0:
239,335,228845,2,0,L|134:340,1,90,8|0,0:0|0:0,0:0:0:0:
20,346,229274,5,0,0:0:0:0:
20,346,229381,2,0,P|35:297|34:253,1,90,0|0,0:0|0:0,0:0:0:0:
70,217,229702,2,0,L|76:171,1,45,8|0,0:0|0:0,0:0:0:0:
168,150,229917,2,0,L|175:96,1,45,0|0,0:0|0:0,0:0:0:0:
257,53,230131,6,0,P|305:47|391:55,1,135,4|0,0:0|0:0,0:0:0:0:
436,88,230559,1,8,0:0:0:0:
499,230,230774,2,0,P|452:248|319:241,1,180,0|0,0:0|0:0,0:0:0:0:
228,346,231417,1,8,0:0:0:0:
228,346,231631,6,0,L|94:342,1,135,0|0,0:0|0:0,0:0:0:0:
93,341,232059,2,0,P|71:291|68:252,2,90,0|8|0,0:0|0:0|0:0,0:0:0:0:
191,233,232702,2,0,P|203:186|190:51,1,180,0|8,0:0|0:0,0:0:0:0:
76,115,233345,6,0,L|121:128,1,45,0|0,0:0|0:0,0:0:0:0:
307,180,233559,2,0,L|405:167,1,90,4|0,0:0|0:0,0:0:0:0:
506,48,233988,2,0,L|408:33,1,90,8|0,0:0|0:0,0:0:0:0:
232,255,234417,2,0,P|275:277|365:270,2,135,0|0|0,0:0|0:0|0:0,0:0:0:0:
195,211,235167,5,0,0:0:0:0:
195,211,235274,2,0,L|104:214,1,90,0|0,0:0|0:0,0:0:0:0:
47,351,235702,1,0,0:0:0:0:
47,351,235809,2,0,L|140:347,1,90,0|0,0:0|0:0,0:0:0:0:
188,364,236131,1,0,0:0:0:0:
336,253,236345,1,0,0:0:0:0:
234,84,236559,2,0,L|223:177,1,90,8|0,0:0|0:0,0:0:0:0:
307,355,236988,6,0,P|355:363|400:359,1,90,0|0,0:0|0:0,0:0:0:0:
473,324,237309,1,0,0:0:0:0:
473,324,237417,2,0,L|489:271,1,45,8|0,0:0|0:0,0:0:0:0:
440,199,237631,2,0,L|426:150,1,45,0|0,0:0|0:0,0:0:0:0:
496,82,237845,1,0,0:0:0:0:
308,189,238059,1,0,0:0:0:0:
377,38,238274,1,8,0:0:0:0:
512,161,238488,1,0,0:0:0:0:
346,269,238702,6,0,P|297:284|210:278,1,135,0|0,0:0|0:0,0:0:0:0:
169,251,239131,1,8,0:0:0:0:
221,64,239345,2,0,P|226:153|226:154,1,90,0|0,0:0|0:0,0:0:0:0:
71,328,239774,2,0,P|57:278|70:147,1,180,0|0,0:0|0:0,0:0:0:0:
144,29,240417,5,0,0:0:0:0:
304,97,240631,1,0,0:0:0:0:
304,97,240845,2,0,L|290:201,1,90,8|0,0:0|0:0,0:0:0:0:
282,230,241167,1,0,0:0:0:0:
272,274,241274,1,0,0:0:0:0:
397,357,241488,5,0,0:0:0:0:
410,353,241702,1,8,0:0:0:0:
423,347,241917,1,0,0:0:0:0:
433,340,242131,1,0,0:0:0:0:
138,249,242345,5,0,0:0:0:0:
123,246,242559,1,8,0:0:0:0:
107,247,242774,1,0,0:0:0:0:
94,253,242988,1,0,0:0:0:0:
85,262,243202,1,0,0:0:0:0:
255,354,243417,2,0,B|280:217|280:218,1,135,8|0,0:0|0:0,0:0:0:0:
292,165,243845,6,0,P|336:156|429:165,1,135,4|0,0:0|0:0,0:0:0:0:
468,198,244274,1,8,0:0:0:0:
342,19,244488,2,0,L|278:31,1,45,0|0,0:0|0:0,0:0:0:0:
213,45,244702,1,0,0:0:0:0:
34,171,244917,2,0,L|91:177,1,45,0|0,0:0|0:0,0:0:0:0:
168,182,245131,1,8,0:0:0:0:
256,324,245345,6,0,P|211:343|123:346,1,135,0|0,0:0|0:0,0:0:0:0:
76,318,245774,1,0,0:0:0:0:
263,110,245988,1,8,0:0:0:0:
240,241,246202,1,8,0:0:0:0:
263,110,246417,2,0,L|327:110,1,45,0|0,0:0|0:0,0:0:0:0:
388,106,246631,2,0,P|435:106|483:117,1,90,0|8,0:0|0:0,0:0:0:0:
499,153,246952,1,0,0:0:0:0:
499,197,247059,1,0,0:0:0:0:
476,236,247167,1,0,0:0:0:0:
437,259,247274,6,0,P|389:270|337:267,1,90,0|0,0:0|0:0,0:0:0:0:
422,25,247702,2,0,P|475:33|517:52,1,90,8|0,0:0|0:0,0:0:0:0:
310,153,248131,2,0,P|259:162|172:159,1,135,0|0,0:0|0:0,0:0:0:0:
124,138,248559,2,0,L|111:184,1,45,8|0,0:0|0:0,0:0:0:0:
50,253,248774,2,0,L|64:301,1,45,8|0,0:0|0:0,0:0:0:0:
113,367,248988,5,0,0:0:0:0:
237,266,249202,1,0,0:0:0:0:
368,365,249417,1,8,0:0:0:0:
368,365,249524,2,0,P|385:313|385:269,1,90,0|0,0:0|0:0,0:0:0:0:
371,224,249845,2,0,P|418:216|475:223,1,90,0|0,0:0|0:0,0:0:0:0:
502,64,250274,2,0,L|459:48,1,45,8|0,0:0|0:0,0:0:0:0:
372,100,250488,2,0,L|323:90,1,45,8|0,0:0|0:0,0:0:0:0:
252,153,250702,6,0,P|199:151|119:170,1,135,4|0,0:0|0:0,0:0:0:0:
83,213,251131,2,0,P|68:257|65:313,1,90,8|0,0:0|0:0,0:0:0:0:
81,341,251452,1,0,0:0:0:0:
119,364,251559,2,0,L|171:371,1,45,0|0,0:0|0:0,0:0:0:0:
237,329,251774,2,0,P|285:333|334:323,2,90,0|8|0,0:0|0:0|0:0,0:0:0:0:
388,257,252417,6,0,P|398:201|391:117,2,135,0|0|0,0:0|0:0|0:0,0:0:0:0:
289,211,253274,1,0,0:0:0:0:
489,143,253488,1,0,0:0:0:0:
431,35,253702,5,8,0:0:0:0:
387,24,253809,1,0,0:0:0:0:
341,25,253917,1,0,0:0:0:0:
298,38,254024,1,0,0:0:0:0:
258,58,254131,2,0,P|209:63|126:41,2,135,0|0|0,0:0|0:0|0:0,0:0:0:0:
366,152,254988,2,0,L|369:201,1,45,0|0,0:0|0:0,0:0:0:0:
377,291,255202,2,0,P|426:296|471:292,2,90,0|8|0,0:0|0:0|0:0,0:0:0:0:
268,358,255845,6,0,L|176:358,1,90,0|0,0:0|0:0,0:0:0:0:
72,237,256274,1,8,0:0:0:0:
72,237,256381,2,0,L|171:236,1,90,0|0,0:0|0:0,0:0:0:0:
211,214,256702,2,0,P|224:167|223:123,1,90,0|0,0:0|0:0,0:0:0:0:
342,17,257131,5,8,0:0:0:0:
365,55,257238,1,0,0:0:0:0:
373,99,257345,1,8,0:0:0:0:
367,143,257452,1,8,0:0:0:0:
344,182,257559,6,0,P|392:198|480:199,1,135,4|0,0:0|0:0,0:0:0:0:
512,165,257988,1,8,0:0:0:0:
383,309,258202,2,0,L|331:322,1,45,0|0,0:0|0:0,0:0:0:0:
258,368,258417,1,0,0:0:0:0:
231,231,258631,2,0,L|176:224,1,45,0|0,0:0|0:0,0:0:0:0:
94,251,258845,1,8,0:0:0:0:
14,88,259059,6,0,P|59:104|153:102,1,135,0|0,0:0|0:0,0:0:0:0:
190,74,259488,1,0,0:0:0:0:
336,146,259702,1,8,0:0:0:0:
300,17,259917,1,0,0:0:0:0:
421,173,260131,2,0,L|466:168,1,45,0|0,0:0|0:0,0:0:0:0:
474,287,260345,2,0,P|426:299|373:293,1,90,0|8,0:0|0:0,0:0:0:0:
343,280,260667,5,0,0:0:0:0:
298,281,260774,1,0,0:0:0:0:
259,303,260881,1,0,0:0:0:0:
239,343,260988,2,0,P|195:358|145:359,1,90,0|0,0:0|0:0,0:0:0:0:
30,214,261417,1,8,0:0:0:0:
178,234,261631,1,0,0:0:0:0:
30,214,261845,6,0,P|18:148|22:72,2,135,0|0|0,0:0|0:0|0:0,0:0:0:0:
108,167,262595,1,0,0:0:0:0:
108,167,262702,2,0,L|204:170,1,90,0|0,0:0|0:0,0:0:0:0:
322,171,263131,1,8,0:0:0:0:
322,171,263238,2,0,P|336:115|329:33,1,135,0|0,0:0|0:0,0:0:0:0:
471,89,263774,1,0,0:0:0:0:
443,232,263988,2,0,L|449:281,1,45,8|0,0:0|0:0,0:0:0:0:
357,299,264202,2,0,L|354:351,1,45,8|0,0:0|0:0,0:0:0:0:
258,352,264417,6,0,P|208:356|158:345,1,90,0|0,0:0|0:0,0:0:0:0:
134,320,264738,1,0,0:0:0:0:
112,280,264845,2,0,L|101:232,1,45,8|0,0:0|0:0,0:0:0:0:
202,162,265059,2,0,L|198:212,1,45,0|0,0:0|0:0,0:0:0:0:
143,97,265274,1,0,0:0:0:0:
305,140,265488,1,0,0:0:0:0:
143,97,265702,2,0,P|92:106|51:123,1,90,8|0,0:0|0:0,0:0:0:0:
30,157,266024,1,0,0:0:0:0:
18,200,266131,6,0,P|13:252|25:343,1,135,0|0,0:0|0:0,0:0:0:0:
57,369,266559,1,8,0:0:0:0:
229,285,266774,1,8,0:0:0:0:
117,209,266988,1,8,0:0:0:0:
173,352,267202,1,0,0:0:0:0:
173,352,267309,2,0,P|219:366|320:361,1,135,0|0,0:0|0:0,0:0:0:0:
404,223,267845,5,4,0:0:0:0:
282,108,268059,1,0,0:0:0:0:
490,164,268274,2,0,L|496:262,1,90,8|0,0:0|0:0,0:0:0:0:
472,292,268595,1,0,0:0:0:0:
430,315,268702,2,0,P|382:315|338:299,1,90,0|0,0:0|0:0,0:0:0:0:
312,261,269024,1,0,0:0:0:0:
312,261,269131,2,0,L|219:264,1,90,8|0,0:0|0:0,0:0:0:0:
94,217,269559,5,0,0:0:0:0:
269,155,269774,1,0,0:0:0:0:
170,344,269988,1,8,0:0:0:0:
169,124,270202,2,0,L|132:158,1,45,0|0,0:0|0:0,0:0:0:0:
14,257,270417,1,0,0:0:0:0:
115,48,270631,2,0,P|162:34|218:41,1,90,0|8,0:0|0:0,0:0:0:0:
242,56,270952,5,0,0:0:0:0:
286,64,271059,1,0,0:0:0:0:
331,62,271167,1,0,0:0:0:0:
371,42,271274,2,0,L|404:182,1,135,4|0,0:0|0:0,0:0:0:0:
416,223,271702,1,8,0:0:0:0:
512,167,271917,2,0,L|500:108,1,45,0|0,0:0|0:0,0:0:0:0:
478,41,272131,1,0,0:0:0:0:
293,293,272345,2,0,L|333:314,1,45,0|0,0:0|0:0,0:0:0:0:
419,361,272559,1,8,0:0:0:0:
191,185,272774,6,0,P|173:233|172:319,1,135,0|0,0:0|0:0,0:0:0:0:
198,361,273202,1,0,0:0:0:0:
73,241,273417,1,8,0:0:0:0:
278,192,273631,1,0,0:0:0:0:
73,241,273845,2,0,L|71:143,1,90,0|0,0:0|0:0,0:0:0:0:
95,112,274167,1,0,0:0:0:0:
131,85,274274,2,0,L|180:78,1,45,8|0,0:0|0:0,0:0:0:0:
280,79,274488,2,0,L|328:84,1,45,8|0,0:0|0:0,0:0:0:0:
425,113,274702,5,0,0:0:0:0:
200,232,274917,1,0,0:0:0:0:
371,210,275131,1,8,0:0:0:0:
343,20,275345,1,0,0:0:0:0:
511,98,275559,2,0,P|518:149|507:245,1,135,0|0,0:0|0:0,0:0:0:0:
474,272,275988,2,0,L|376:302,1,90,8|0,0:0|0:0,0:0:0:0:
252,349,276417,5,0,0:0:0:0:
325,126,276631,1,0,0:0:0:0:
301,264,276845,1,8,0:0:0:0:
301,264,276952,2,0,P|246:270|162:263,1,135,0|0,0:0|0:0,0:0:0:0:
57,184,277488,1,0,0:0:0:0:
209,26,277702,2,0,L|214:75,1,45,8|0,0:0|0:0,0:0:0:0:
127,63,277917,2,0,L|131:112,1,45,0|0,0:0|0:0,0:0:0:0:
202,171,278131,6,0,P|254:173|336:137,2,135,4|0|0,0:0|0:0|0:0,0:0:0:0:
161,266,278881,1,0,0:0:0:0:
161,266,278988,2,0,L|168:315,1,45,0|0,0:0|0:0,0:0:0:0:
277,308,279202,2,0,L|299:352,1,45,0|0,0:0|0:0,0:0:0:0:
396,322,279417,1,8,0:0:0:0:
439,312,279524,1,0,0:0:0:0:
474,284,279631,1,0,0:0:0:0:
496,244,279738,1,0,0:0:0:0:
503,199,279845,6,0,P|505:150|486:66,2,135,0|0|0,0:0|0:0|0:0,0:0:0:0:
413,173,280595,1,0,0:0:0:0:
413,173,280702,2,0,L|354:172,1,45,0|0,0:0|0:0,0:0:0:0:
280,222,280917,2,0,L|229:222,1,45,0|0,0:0|0:0,0:0:0:0:
152,265,281131,1,8,0:0:0:0:
133,224,281238,1,0,0:0:0:0:
125,179,281345,1,0,0:0:0:0:
128,134,281452,1,0,0:0:0:0:
140,90,281559,6,0,P|92:83|6:103,2,135,0|0|0,0:0|0:0|0:0,0:0:0:0:
232,104,282309,1,0,0:0:0:0:
232,104,282417,2,0,P|279:110|329:108,1,90,0|0,0:0|0:0,0:0:0:0:
430,36,282845,1,8,0:0:0:0:
512,132,283059,6,0,L|502:180,1,45,0|0,0:0|0:0,0:0:0:0:
458,292,283274,2,0,P|407:305|268:297,1,180,4|8,0:0|0:0,0:0:0:0:
186,197,283917,5,0,0:0:0:0:
186,197,284024,1,0,0:0:0:0:
186,197,284131,1,0,0:0:0:0:
334,215,284345,1,0,0:0:0:0:
195,344,284559,2,0,L|147:358,1,45,8|0,0:0|0:0,0:0:0:0:
129,274,284774,2,0,L|85:271,1,45,8|0,0:0|0:0,0:0:0:0:
10,195,284988,5,0,0:0:0:0:
67,35,285202,1,0,0:0:0:0:
67,35,285417,2,0,L|164:47,1,90,8|0,0:0|0:0,0:0:0:0:
274,61,285845,2,0,P|318:60|373:41,2,90,0|0|8,0:0|0:0|0:0,0:0:0:0:
256,192,286702,12,0,287559,0:0:0:0:
378,69,287774,5,0,0:0:0:0:
269,44,287988,1,0,0:0:0:0:
269,44,288095,2,0,L|177:50,1,90,0|0,0:0|0:0,0:0:0:0:
138,85,288417,6,0,P|126:132|132:276,1,180,0|8,0:0|0:0,0:0:0:0:
205,361,289059,1,0,0:0:0:0:
205,361,289274,2,0,L|297:361,1,90,0|0,0:0|0:0,0:0:0:0:
372,220,289702,2,0,L|278:220,1,90,0|0,0:0|0:0,0:0:0:0:
443,127,290131,5,0,0:0:0:0:
504,241,290345,1,0,0:0:0:0:
390,320,290559,1,8,0:0:0:0:
390,320,290667,2,0,P|370:276|368:228,1,90,0|0,0:0|0:0,0:0:0:0:
330,195,290988,2,0,L|332:93,2,90,0|0|0,0:0|0:0|0:0,0:0:0:0:
256,192,291845,12,0,292702,0:0:0:0:
127,263,292917,5,0,0:0:0:0:
146,156,293131,2,0,L|157:65,1,90,0|0,0:0|0:0,0:0:0:0:
266,118,293559,6,0,P|313:124|452:115,1,180,0|8,0:0|0:0,0:0:0:0:
511,202,294202,1,0,0:0:0:0:
447,289,294417,1,0,0:0:0:0:
343,258,294631,1,0,0:0:0:0:
295,354,294845,1,8,0:0:0:0:
295,354,294952,2,0,P|245:365|149:350,1,135,0|4,0:0|0:0,0:0:0:0:
74,291,295488,6,0,L|41:202,2,90,0|8|0,0:0|0:0|0:0,0:0:0:0:
214,232,296131,1,4,0:0:0:0:
131,144,296345,1,0,0:0:0:0:
241,48,296559,2,0,L|253:146,1,90,8|0,0:0|0:0,0:0:0:0:
266,294,296988,6,0,P|314:308|448:307,1,180,4|8,0:0|0:0,0:0:0:0:
512,208,297631,1,0,0:0:0:0:
377,120,297845,1,0,0:0:0:0:
490,97,298059,1,0,0:0:0:0:
300,64,298274,1,8,0:0:0:0:
300,64,298381,2,0,P|287:118|291:217,1,135,0|0,0:0|0:0,0:0:0:0:
256,192,299131,12,0,299988,0:0:0:0:
256,194,300417,5,8,0:0:0:0:
