osu file format v12

[General]
AudioFilename: cg320.mp3
AudioLeadIn: 0
PreviewTime: -1
Countdown: 1
SampleSet: None
StackLeniency: 0.7
Mode: 0
LetterboxInBreaks: 1
WidescreenStoryboard: 0

[Editor]
DistanceSpacing: 0.2
BeatDivisor: 4
GridSize: 4

[Metadata]
Title:Koi ha Dou? Moro Hadou OK * Houteishiki!!
TitleUnicode:恋はどう?モロ◎波動OK☆方程式!! (In-Game Ver_)
Artist:ave;new feat Sakura Saori
ArtistUnicode:ave;new feat Sakura Saori
Creator:xSiRix
Version:Overmap
Source:
Tags:
BeatmapID:343597
BeatmapSetID:137472

[Difficulty]
HPDrainRate:7
CircleSize:4
OverallDifficulty:6
ApproachRate:9
SliderMultiplier:1.5
SliderTickRate:1

[Events]
//Background and Video events
0,0,"BG.jpg",0,0
//Break Periods
2,55192,62127
//Storyboard Layer 0 (Background)
//Storyboard Layer 1 (Fail)
//Storyboard Layer 2 (Pass)
//Storyboard Layer 3 (Foreground)
//Storyboard Sound Samples
//Background Colour Transformations
3,100,163,162,255

[TimingPoints]
852,234.375,4,1,0,100,1,0
8340,-100,4,1,0,100,0,0
16660,-200,4,1,0,100,0,0
17129,-100,4,1,0,100,0,0
25215,-100,4,1,0,100,0,0
32715,-133.333333333333,4,1,0,100,0,0
47715,-100,4,1,0,100,0,0
55227,234.375,4,1,0,100,1,0
55227,234.375,4,1,0,100,1,0
55227,-100,4,1,0,100,0,0
62727,-100,4,1,0,100,0,0
73977,-100,4,1,0,100,0,1
88977,-58.8235294117647,4,1,0,100,0,1
91320,-133.333333333333,4,1,0,100,0,1
91437,-58.8235294117647,4,1,0,100,0,1
92727,-100,4,1,0,100,0,1

[HitObjects]
192,192,852,2,0,B|160:264|160:264|76:308,1,150
72,132,1320,1,0,0:0:0:0:
72,132,1437,1,0,0:0:0:0:
304,200,1672,6,0,B|279:269|279:269|312:364,1,150
464,244,2023,2,0,L|424:272,1,37.5
104,240,2258,6,0,B|128:264|128:264|192:284,1,75
468,120,2492,6,0,L|420:152,1,37.5
128,140,2727,1,0,0:0:0:0:
192,88,2844,1,0,0:0:0:0:
264,120,2961,2,0,B|292:96|292:96|336:84,1,75
224,276,3195,6,0,B|200:304|200:304|160:324,1,75
173,158,3430,2,0,B|157:125|157:125|157:79,1,75
314,237,3664,6,0,B|335:267|335:267|343:311,1,75
420,324,3898,1,0,0:0:0:0:
500,348,4016,1,0,0:0:0:0:
400,236,4133,6,0,B|436:232|436:232|480:188,1,75
460,120,4367,1,0,0:0:0:0:
404,60,4484,1,0,0:0:0:0:
312,72,4602,6,0,B|292:104|292:104|248:136,1,75
80,76,4836,2,0,B|64:108|64:108|68:160,1,75
260,268,5070,6,0,B|244:304|244:304|200:328,1,75
312,192,5305,1,0,0:0:0:0:
388,160,5422,2,0,L|432:144,10,37.5
320,100,6125,5,0,0:0:0:0:
232,24,6242,1,0,0:0:0:0:
392,48,6359,1,0,0:0:0:0:
220,120,6477,6,0,B|152:148|152:148|92:232,1,150
340,344,6828,6,0,B|407:316|407:316|467:232,1,150
216,112,7180,6,0,B|148:140|148:140|88:224,1,150
348,352,7531,6,0,B|415:324|415:324|475:240,1,150
408,192,7883,5,0,0:0:0:0:
440,108,8000,1,0,0:0:0:0:
392,32,8117,1,0,0:0:0:0:
304,16,8234,1,0,0:0:0:0:
236,68,8352,6,0,B|176:120|176:120|80:116|36:184,1,225
224,228,8820,2,0,B|268:180|268:180|320:172|352:208,1,150
432,168,9172,1,0,0:0:0:0:
324,120,9289,6,0,L|416:96,1,75
248,244,9523,2,0,L|324:268,1,75
240,104,9758,6,0,L|332:80,1,75,0|0,0:0|0:0,0:0:0:0:
164,228,9992,2,0,L|240:252,1,75
316,192,10227,5,0,0:0:0:0:
404,124,10344,1,0,0:0:0:0:
420,244,10461,1,0,0:0:0:0:
328,304,10578,2,0,B|296:328|296:328|244:340,2,75
280,192,10930,5,0,0:0:0:0:
352,84,11047,2,0,B|388:104|388:104|416:164,1,75
344,360,11282,2,0,B|368:332|368:332|368:294,1,75
184,92,11516,6,0,B|224:92|224:92|253:111,1,75
316,160,11750,1,0,0:0:0:0:
396,176,11867,1,0,0:0:0:0:
472,140,11984,1,0,0:0:0:0:
424,72,12102,6,0,B|344:72|344:72|264:28,1,150
228,120,12453,1,0,0:0:0:0:
96,84,12570,2,0,B|80:120|80:120|84:168,1,75
172,216,12805,1,0,0:0:0:0:
88,280,12922,6,0,B|72:312|72:312|80:368,1,75
324,312,13156,2,0,B|348:280|348:280|352:232,1,75
100,208,13391,2,0,B|84:240|84:240|92:296,1,75
192,248,13625,5,0,0:0:0:0:
272,188,13742,1,0,0:0:0:0:
320,96,13859,1,0,0:0:0:0:
408,40,13977,6,0,B|448:72|448:72|476:196,1,150
464,304,14445,5,0,0:0:0:0:
376,340,14562,1,0,0:0:0:0:
412,224,14680,1,0,0:0:0:0:
320,268,14797,6,0,B|284:288|284:288|244:292,1,75,0|0,0:0|0:0,0:0:0:0:
88,216,15031,2,0,B|113:248|113:248|148:267,1,75
256,208,15266,6,0,B|215:203|215:203|180:182,1,75
99,30,15500,2,0,B|100:71|100:71|117:107,1,75
224,124,15734,1,0,0:0:0:0:
332,172,15852,6,0,B|380:216|380:216|364:304|364:304|432:368,1,225
456,260,16320,2,0,L|472:168,1,75
288,256,16555,1,0,0:0:0:0:
416,132,16672,6,0,B|376:88|376:88|360:32,1,112.5,0|0,0:0|0:0,0:0:0:0:
280,44,17141,6,0,L|304:132,1,75
256,228,17375,1,0,0:0:0:0:
380,244,17492,2,0,B|396:204|396:204|396:164,1,75
316,308,17727,6,0,B|244:336|244:336|148:328,1,150
104,268,18078,1,0,0:0:0:0:
200,240,18195,1,0,0:0:0:0:
208,152,18312,1,0,0:0:0:0:
120,176,18430,1,0,0:0:0:0:
48,120,18547,6,0,B|80:64|80:64|144:48|184:16,1,150
240,96,18898,1,0,0:0:0:0:
288,256,19016,1,0,0:0:0:0:
320,160,19133,5,0,0:0:0:0:
432,136,19250,1,0,0:0:0:0:
408,256,19367,6,0,B|392:288|392:288|344:336,1,75
288,256,19602,6,0,B|224:224|224:224|128:264,1,150
304,176,20070,2,0,B|368:144|368:144|464:184,1,150
372,240,20422,1,0,0:0:0:0:
200,284,20656,5,0,0:0:0:0:
240,208,20773,1,0,0:0:0:0:
236,116,20891,2,0,B|272:64|272:64|316:96|364:88,1,150
400,156,21242,1,0,0:0:0:0:
484,124,21359,1,0,0:0:0:0:
432,256,21477,6,0,B|392:304|392:304|348:312|348:312|288:284,1,150
128,120,21945,1,0,0:0:0:0:
52,264,22062,1,0,0:0:0:0:
40,88,22180,1,0,0:0:0:0:
128,232,22297,6,0,B|168:256|168:256|216:220|216:220|260:244,1,150
372,332,22648,1,0,0:0:0:0:
332,192,22766,6,0,B|272:160|272:160|280:104|256:52,1,150
266,78,23117,1,0,0:0:0:0:
444,288,23352,6,0,B|444:248|444:248|428:212,2,75
372,52,23703,1,0,0:0:0:0:
60,120,24055,5,0,0:0:0:0:
20,268,24172,1,0,0:0:0:0:
168,300,24289,1,0,0:0:0:0:
200,148,24406,1,0,0:0:0:0:
384,84,24641,5,0,0:0:0:0:
300,132,24758,1,0,0:0:0:0:
344,212,24875,1,0,0:0:0:0:
276,320,24992,1,0,0:0:0:0:
388,344,25109,1,0,0:0:0:0:
476,240,25227,6,0,B|424:184|424:184|412:100,1,150
340,48,25578,1,0,0:0:0:0:
328,148,25695,6,0,B|338:220|338:220|390:276,1,150
256,256,26047,1,0,0:0:0:0:
48,148,26281,5,0,0:0:0:0:
116,72,26398,2,0,B|144:104|144:104|156:160,1,75
212,216,26633,2,0,B|248:136|248:136|228:56,1,150
232,75,26984,1,0,0:0:0:0:
340,48,27102,6,0,B|368:72|368:72|412:76,1,75
476,24,27336,2,0,B|500:64|500:64|472:184,1,150
388,196,27687,1,0,0:0:0:0:
344,112,27805,2,0,B|276:148|276:148|256:224,2,150
268,60,28391,5,0,0:0:0:0:
124,88,28508,1,0,0:0:0:0:
212,144,28625,1,0,0:0:0:0:
292,224,28742,6,0,B|264:292|264:292|184:336,1,150
160,204,29094,1,0,0:0:0:0:
388,196,29211,6,0,B|440:248|440:248|456:344,1,150
360,288,29562,1,0,0:0:0:0:
320,124,29680,6,0,B|388:108|388:108|472:132,1,150
256,64,30031,1,0,0:0:0:0:
192,124,30148,6,0,B|124:108|124:108|40:132,1,150
152,288,30500,5,0,0:0:0:0:
124,196,30617,2,0,B|72:248|72:248|59:323,1,150
184,364,30969,5,0,0:0:0:0:
256,264,31086,1,0,0:0:0:0:
208,152,31203,1,0,0:0:0:0:
340,340,31320,2,0,B|364:308|364:308|368:248,2,75
440,360,31672,1,0,0:0:0:0:
412,244,31789,5,0,0:0:0:0:
460,120,31906,2,0,L|488:88,4,37.5
360,200,32258,1,0,0:0:0:0:
216,192,32375,1,0,0:0:0:0:
100,144,32492,5,0,0:0:0:0:
112,120,32551,1,0,0:0:0:0:
128,100,32609,1,0,0:0:0:0:
148,84,32668,1,0,0:0:0:0:
164,76,32727,6,0,P|224:52|280:56,1,112.500004291535
296,140,33078,1,0,0:0:0:0:
216,192,33195,2,0,P|240:256|296:284,1,112.500004291535
360,264,33547,1,0,0:0:0:0:
156,268,33781,5,0,0:0:0:0:
136,348,33898,2,0,P|84:312|76:244,1,112.500004291535
132,200,34250,1,0,0:0:0:0:
88,132,34367,1,0,0:0:0:0:
120,56,34484,1,0,0:0:0:0:
200,36,34602,6,0,P|268:68|316:56,1,112.500004291535
388,232,35070,1,0,0:0:0:0:
304,304,35187,1,0,0:0:0:0:
36,292,35422,6,0,B|60:224|108:296|136:216,1,112.500004291535
192,164,35773,2,0,P|176:116|152:108,2,56.2500021457673
316,192,36125,1,0,0:0:0:0:
316,192,36242,1,0,0:0:0:0:
144,248,36477,5,0,0:0:0:0:
392,320,36711,1,0,0:0:0:0:
340,56,36945,2,0,L|384:16,2,56.2500021457673
256,128,37297,6,0,B|200:184|200:184|188:184|188:184|200:196|200:196|188:196|188:196|136:248,1,168.750006437302
64,200,37766,2,0,P|32:168|12:156,1,56.2500021457673
47,282,38000,2,0,P|65:303|80:328,1,56.2500021457673
84,192,38234,1,0,0:0:0:0:
136,80,38352,6,0,L|76:60,1,56.2500021457673
312,32,38586,2,0,L|252:68,1,56.2500021457673
404,72,38820,1,0,0:0:0:0:
404,72,38937,1,0,0:0:0:0:
324,308,39172,6,0,P|252:340|200:324,1,112.500004291535
256,216,39523,1,0,0:0:0:0:
168,192,39641,1,0,0:0:0:0:
396,160,39758,2,0,P|404:200|384:232,1,56.2500021457673
304,152,39992,1,0,0:0:0:0:
272,76,40109,1,0,0:0:0:0:
200,44,40227,6,0,L|160:96,1,56.2500021457673
132,40,40461,2,0,L|132:104,1,56.2500021457673
76,72,40695,2,0,L|112:124,1,56.2500021457673
84,216,40930,1,0,0:0:0:0:
104,304,41047,6,0,P|168:332|232:324,1,112.500004291535
352,304,41398,2,0,P|316:324|288:328,1,56.2500021457673
184,248,41633,1,0,0:0:0:0:
360,160,41867,5,0,0:0:0:0:
360,160,41984,2,0,P|296:128|272:76,1,112.500004291535
224,36,42336,1,0,0:0:0:0:
136,0,42453,1,0,0:0:0:0:
136,0,42570,2,0,P|100:64|104:104,1,112.500004291535
152,172,42922,1,0,0:0:0:0:
236,208,43039,1,0,0:0:0:0:
196,296,43156,1,0,0:0:0:0:
456,264,43391,6,0,L|488:272,2,28.1250010728836
400,192,43625,1,0,0:0:0:0:
456,120,43742,1,0,0:0:0:0:
332,56,43859,6,0,B|276:64|276:64|232:112,1,112.500004291535,0|0,0:0|0:0,2:0:0:0:
192,192,44211,1,0,0:0:0:0:
352,312,44445,1,0,0:0:0:0:
272,296,44562,1,0,0:0:0:0:
196,296,44680,1,0,0:0:0:0:
120,312,44797,1,0,0:0:0:0:
192,192,45031,5,0,0:0:0:0:
124,148,45148,2,0,P|80:132|60:112,1,56.2500021457673
112,236,45383,2,0,P|64:228|40:216,1,56.2500021457673
192,92,45617,2,0,P|232:100|256:112,2,56.2500021457673
72,48,45969,5,0,0:0:0:0:
52,168,46086,2,0,L|32:240,1,56.2500021457673
232,164,46320,2,0,L|208:100,1,56.2500021457673
160,280,46555,2,0,L|192:336,1,56.2500021457673
280,264,46789,5,0,0:0:0:0:
376,316,46906,1,0,0:0:0:0:
464,156,47141,5,0,0:0:0:0:
464,156,47199,1,0,0:0:0:0:
464,156,47258,1,0,0:0:0:0:
368,92,47375,1,0,0:0:0:0:
368,216,47492,5,0,0:0:0:0:
280,64,47609,1,0,0:0:0:0:
280,264,47727,6,0,P|248:328|216:340,1,75
100,268,47961,2,0,P|132:204|164:192,1,75
352,160,48195,2,0,P|336:216|304:244,2,75
464,248,48547,5,0,0:0:0:0:
224,152,48781,1,0,0:0:0:0:
136,96,48898,1,0,0:0:0:0:
280,64,49016,2,0,B|328:96|328:96|344:152|396:180,1,150
464,116,49367,1,0,0:0:0:0:
512,208,49484,1,0,0:0:0:0:
424,268,49602,6,0,P|356:268|332:288,1,75
220,204,49836,2,0,P|288:204|312:224,1,75
320,336,50070,1,0,0:0:0:0:
212,292,50187,2,0,P|160:284|120:248,2,75
384,188,50656,5,0,0:0:0:0:
384,188,50773,2,0,P|428:236|436:256,2,75
328,124,51125,1,0,0:0:0:0:
284,40,51242,1,0,0:0:0:0:
244,124,51359,1,0,0:0:0:0:
164,168,51477,6,0,L|92:232,1,75
44,280,51711,1,0,0:0:0:0:
272,288,51945,2,0,P|316:324|328:360,2,75
320,212,52297,2,0,P|272:184|264:64,1,150
328,124,52648,2,0,P|416:152|472:120,1,150
396,64,53000,1,0,0:0:0:0:
500,212,53117,1,0,0:0:0:0:
432,264,53234,1,0,0:0:0:0:
301,190,53352,6,0,P|305:153|328:124,1,75
452,152,53586,1,0,0:0:0:0:
240,256,53703,2,0,P|256:312|288:340,1,75
48,136,53937,2,0,P|80:84|120:56,1,75
256,160,54172,5,0,0:0:0:0:
256,160,54406,1,0,0:0:0:0:
188,348,54523,1,0,0:0:0:0:
324,348,54641,1,0,0:0:0:0:
96,228,54758,1,0,0:0:0:0:
416,228,54992,1,0,0:0:0:0:
52,72,62727,5,0,0:0:0:0:
148,88,62844,1,0,0:0:0:0:
120,176,62961,1,0,0:0:0:0:
176,256,63078,1,0,0:0:0:0:
272,268,63195,6,0,L|320:348,2,75
316,192,63547,1,0,0:0:0:0:
272,116,63664,6,0,B|332:84|332:84|284:44|288:4,2,150
184,304,64367,1,0,0:0:0:0:
272,344,64484,1,0,0:0:0:0:
352,288,64602,6,0,B|400:244|400:244|448:248|476:312,2,150
256,132,65305,1,0,0:0:0:0:
160,288,65539,2,0,B|112:244|112:244|64:248|36:312,2,150
256,132,66242,1,0,0:0:0:0:
80,136,66477,6,0,P|72:196|104:164,1,150
103,164,66828,1,0,0:0:0:0:
103,164,66945,2,0,P|200:176|204:220,1,150
205,211,67297,1,0,0:0:0:0:
205,209,67414,6,0,P|196:276|208:316,1,75
296,344,67648,2,0,P|312:296|308:252,1,75
292,184,67883,1,0,0:0:0:0:
168,48,68117,1,0,0:0:0:0:
104,112,68234,1,0,0:0:0:0:
96,200,68352,6,0,P|92:288|40:348,1,150
248,184,68820,1,0,0:0:0:0:
340,256,68937,1,0,0:0:0:0:
416,164,69055,1,0,0:0:0:0:
172,292,69289,6,0,B|156:216|156:216|56:212|40:128,1,225
42,139,69699,1,0,0:0:0:0:
42,139,69758,1,0,0:0:0:0:
140,72,69875,1,0,0:0:0:0:
424,168,70227,6,0,B|408:244|408:244|336:296,1,150
328,184,70578,1,0,0:0:0:0:
229,206,70695,2,0,B|245:130|245:130|304:88,1,150
120,248,71164,6,0,B|92:176|92:176|16:148,1,150
176,84,71633,1,0,0:0:0:0:
336,296,71867,1,0,0:0:0:0:
432,132,72102,2,0,B|468:92|468:92|476:32,2,100
256,192,72570,6,0,B|248:240|248:240|212:280|212:280|200:336,1,150
172,204,72922,1,0,0:0:0:0:
282,319,73039,2,0,B|318:286|318:286|332:234|332:234|372:194,1,150,0|0,0:0|0:0,2:0:0:0:
44,76,73508,2,0,B|112:44|112:44|216:60,1,150
48,240,73977,6,0,B|140:232|140:232|184:320|264:324,1,225
224,204,74445,2,0,P|192:144|196:64,1,150
344,84,74797,6,0,B|268:144|268:144|304:208|376:204,1,225
432,136,75266,1,0,0:0:0:0:
512,264,75383,2,0,B|432:288|432:288|368:352,1,150
148,284,75852,6,0,B|168:252|168:252|176:188,1,75
136,72,76086,2,0,B|116:104|116:104|108:168,1,75
284,205,76320,2,0,B|268:172|268:172|236:152,1,75
324,92,76555,1,0,0:0:0:0:
392,232,76672,6,0,B|352:304|352:304|264:336,1,150
208,248,77023,2,0,B|168:236|168:236|140:184,1,75
60,248,77258,2,0,L|16:320,1,75
56,160,77492,2,0,L|104:84,1,75
200,96,77727,6,0,B|256:144|256:144|336:80,1,150
368,164,78078,1,0,0:0:0:0:
412,232,78195,2,0,L|456:304,1,75
336,268,78430,1,0,0:0:0:0:
256,144,78547,1,0,0:0:0:0:
144,336,78781,5,0,0:0:0:0:
144,336,78898,2,0,B|92:284|92:284|96:232|64:188,2,150
256,296,79484,1,0,0:0:0:0:
368,336,79602,6,0,B|420:284|420:284|416:232|448:188,1,150
160,176,80070,2,0,P|164:224|184:260,2,75
72,104,80422,2,0,P|120:72|168:64,1,75
256,204,80656,2,0,L|256:124,1,75
440,104,80891,2,0,P|392:72|344:64,1,75
124,288,81125,2,0,P|140:344|168:368,1,75
332,256,81359,5,0,0:0:0:0:
360,272,81418,1,0,0:0:0:0:
388,288,81477,2,0,B|416:300|416:300|444:328|444:328|464:268|464:268|440:228|440:228|432:168,1,225
344,124,81945,1,0,0:0:0:0:
452,36,82062,1,0,0:0:0:0:
368,44,82180,1,0,0:0:0:0:
344,124,82297,2,0,B|288:104|288:104|256:208|136:184,1,225
156,88,82766,2,0,P|200:72|176:32,1,75
292,268,83000,2,0,P|232:292|188:292,1,75
96,288,83234,1,0,0:0:0:0:
216,172,83352,6,0,L|216:248,1,75
128,196,83586,1,0,0:0:0:0:
300,136,83703,1,0,0:0:0:0:
96,112,83820,2,0,B|60:104|60:104|8:64,1,75
332,232,84055,2,0,B|368:240|368:240|420:280,2,75
224,204,84406,1,0,0:0:0:0:
256,96,84523,1,0,0:0:0:0:
364,124,84641,1,0,0:0:0:0:
304,288,84758,2,0,B|268:304|268:304|204:300,1,75
236,48,84992,2,0,B|268:32|268:32|328:28,1,75
320,160,85227,6,0,B|280:192|280:192|232:192|232:192|176:236,1,150
368,256,85695,1,0,0:0:0:0:
320,160,85812,1,0,0:0:0:0:
256,96,85930,2,0,B|216:104|216:108|176:156,1,75
256,304,86281,1,0,0:0:0:0:
144,256,86398,1,0,0:0:0:0:
256,192,86516,2,0,B|240:156|240:156|272:136|272:136|248:104|252:44,1,150
368,256,86867,1,0,0:0:0:0:
292,184,86984,1,0,0:0:0:0:
176,208,87102,6,0,B|144:184|144:184|136:152|136:152|108:140|80:92,1,150
192,88,87453,1,0,0:0:0:0:
224,92,87512,1,0,0:0:0:0:
256,100,87570,1,0,0:0:0:0:
384,120,87687,1,0,0:0:0:0:
352,284,87805,1,0,0:0:0:0:
196,312,87922,2,0,B|212:272|212:272|168:216|200:156,1,150
296,200,88273,1,0,0:0:0:0:
88,148,88391,2,0,P|72:208|104:300,1,150
296,200,88742,1,0,0:0:0:0:
472,240,88977,6,0,B|484:180|484:180|456:100,2,127.50000243187
208,224,89328,1,0,0:0:0:0:
40,144,89680,2,0,B|28:204|28:204|56:284,2,127.50000243187
304,160,90031,1,0,0:0:0:0:
208,224,90266,1,0,0:0:0:0:
304,160,90384,1,0,0:0:0:0:
208,224,90500,1,0,0:0:0:0:
304,160,90618,1,0,0:0:0:0:
208,224,90734,1,0,0:0:0:0:
204,120,90852,6,0,B|140:108|140:108|40:128,1,127.50000243187
308,264,91086,2,0,B|372:276|372:276|472:256,1,127.50000243187
304,160,91320,2,0,B|320:136|320:136|320:104,1,56.2500021457673
204,120,91555,6,0,B|140:108|140:108|40:128,1,127.50000243187
308,264,91789,2,0,B|372:276|372:276|472:256,1,127.50000243187
256,88,92141,1,0,0:0:0:0:
236,120,92258,1,0,0:0:0:0:
280,200,92375,1,0,0:0:0:0:
104,252,92492,1,0,0:0:0:0:
404,316,92609,1,0,0:0:0:0:
64,348,92727,6,0,B|44:316|44:316|40:272,1,75
256,264,92961,1,0,0:0:0:0:
448,348,93078,2,0,B|468:316|468:316|472:272,1,75
144,256,93312,2,0,B|160:292|160:292|160:352,1,75
256,356,93547,1,0,0:0:0:0:
100,192,93781,1,0,0:0:0:0:
256,264,93898,1,0,0:0:0:0:
412,192,94016,1,0,0:0:0:0:
256,264,94133,6,0,L|256:320,1,37.5
256,96,94367,2,0,L|256:56,1,37.5
104,120,94602,5,0,0:0:0:0:
92,108,94660,1,0,0:0:0:0:
80,96,94719,1,0,0:0:0:0:
224,160,94836,1,0,0:0:0:0:
344,136,94953,1,0,0:0:0:0:
396,264,95070,1,0,0:0:0:0:
388,276,95129,1,0,0:0:0:0:
380,288,95187,1,0,0:0:0:0:
256,264,95305,5,0,0:0:0:0:
256,248,95363,1,0,0:0:0:0:
256,232,95422,2,0,B|248:196|248:196|264:196|264:196|256:204|256:204|256:188|256:188|256:88,1,150
176,68,95773,1,0,0:0:0:0:
256,118,95891,1,0,0:0:0:0:
336,68,96008,1,0,0:0:0:0:
256,118,96125,1,0,0:0:0:0:
176,68,96242,1,0,0:0:0:0:
88,280,96477,6,0,B|112:308|112:308|164:328,1,75
256,264,96711,1,0,0:0:0:0:
364,321,96828,1,0,0:0:0:0:
256,248,96945,2,0,B|256:220|256:220|252:216|252:216|256:212|256:212|260:216|260:216|256:216|256:216|256:160,2,75
84,136,97297,2,0,B|84:164|84:164|80:168|80:168|84:172|84:172|88:168|88:168|84:168|84:168|84:224,2,75
428,136,97648,2,0,B|428:164|428:164|432:168|432:168|428:172|428:172|424:168|424:168|428:168|428:168|428:224,2,75
260,144,98000,2,0,B|252:96|252:96|252:40,1,75
116,256,98352,5,0,0:0:0:0:
128,264,98410,1,0,0:0:0:0:
140,272,98469,1,0,0:0:0:0:
264,200,98586,1,0,0:0:0:0:
240,120,98703,1,0,0:0:0:0:
368,164,98820,1,0,0:0:0:0:
384,164,98879,1,0,0:0:0:0:
400,164,98937,1,0,0:0:0:0:
144,164,99055,1,0,0:0:0:0:
128,164,99114,1,0,0:0:0:0:
112,164,99172,2,0,B|80:192|80:192|24:152|36:100,1,150
36,88,99465,1,0,0:0:0:0:
44,76,99523,1,0,0:0:0:0:
256,168,99641,5,0,0:0:0:0:
256,176,99699,1,0,0:0:0:0:
256,184,99758,1,0,0:0:0:0:
256,192,99816,1,0,0:0:0:0:
256,200,99875,1,0,0:0:0:0:
256,208,99934,1,0,0:0:0:0:
256,216,99992,1,0,0:0:0:0:
256,224,100051,1,0,0:0:0:0:
256,232,100109,1,0,0:0:0:0:
256,240,100168,1,0,0:0:0:0:
256,248,100227,6,0,L|272:316,1,37.5
176,272,100344,2,0,L|136:256,1,37.5
344,248,100461,1,0,0:0:0:0:
448,124,100695,6,0,L|472:164,1,37.5
324,60,100812,2,0,L|288:52,1,37.5
392,80,100930,1,0,0:0:0:0:
156,200,101164,6,0,L|136:236,1,37.5
316,192,101281,2,0,L|336:160,1,37.5
236,160,101398,1,0,0:0:0:0:
372,308,101516,1,0,0:0:0:0:
224,304,101633,2,0,L|220:352,1,37.5
236,160,101750,2,0,L|240:88,1,37.5
228,232,101867,1,0,0:0:0:0:
376,224,101984,1,0,0:0:0:0:
228,232,102102,6,0,B|192:220|192:220|168:192,1,75
360,136,102336,2,0,B|404:120|404:120|440:88,1,75
312,300,102570,2,0,B|280:324|280:324|212:344,2,75
360,136,102922,1,0,0:0:0:0:
120,192,103156,1,0,0:0:0:0:
216,168,103273,1,0,0:0:0:0:
280,88,103391,1,0,0:0:0:0:
132,44,103508,2,0,B|148:68|148:68|148:72|148:72|152:68|152:68|152:72|152:72|180:108,2,75
448,264,103977,5,0,0:0:0:0:
380,332,104094,1,0,0:0:0:0:
280,272,104211,1,0,0:0:0:0:
348,180,104328,1,0,0:0:0:0:
444,300,104445,1,0,0:0:0:0:
280,364,104562,1,0,0:0:0:0:
208,208,104680,1,0,0:0:0:0:
380,124,104797,1,0,0:0:0:0:
52,152,105031,6,0,B|36:188|36:188|32:240,1,75
460,232,105266,2,0,B|476:196|476:196|480:144,1,75
200,192,105500,1,0,0:0:0:0:
312,192,105617,1,0,0:0:0:0:
48,44,105852,6,0,B|60:80|60:80|88:124,1,75
464,44,106086,2,0,B|452:80|452:80|424:124,1,75
79,272,106320,6,0,B|60:304|60:304|48:340,1,75
432,272,106554,2,0,B|452:304|452:304|464:340,1,75
256,160,106906,1,0,0:0:0:0:
224,192,107024,1,0,0:0:0:0:
256,224,107141,1,0,0:0:0:0:
288,192,107258,1,0,0:0:0:0:
128,192,107375,1,0,0:0:0:0:
384,192,107492,1,0,0:0:0:0:
0,192,107727,5,0,0:0:0:0:
164,296,107961,2,0,B|196:320|196:320|256:328,1,75
348,88,108195,2,0,B|316:64|316:64|256:56,1,75
256,192,108430,1,0,0:0:0:0:
416,356,108664,2,0,B|440:328|440:328|456:288,1,75
96,28,108898,2,0,B|72:56|72:56|56:96,1,75
256,192,109133,2,0,B|252:224|252:224|260:236|260:236|252:288|264:360,2,150
256,192,109660,12,0,110539,0:0:0:0:
