osu file format v9

[General]
AudioFilename: play.mp3
AudioLeadIn: 2615
PreviewTime: 47552
Countdown: 0
SampleSet: Soft
StackLeniency: 0.7
Mode: 0
LetterboxInBreaks: 0

[Editor]
DistanceSpacing: 1.2
BeatDivisor: 4
GridSize: 4

[Metadata]
Title:Lovely Angel!!
Artist:ave;new
Creator:Neverend Story
Version:Insane
Source:Kaitou Tenshi Twin Angel
Tags:

[Difficulty]
HPDrainRate:7
CircleSize:4
OverallDifficulty:6
ApproachRate:9
SliderMultiplier:2
SliderTickRate:1

[Events]
//Background and Video events
0,0,"background.png"
//Break Periods
//Storyboard Layer 0 (Background)
//Storyboard Layer 1 (Fail)
//Storyboard Layer 2 (Pass)
//Storyboard Layer 3 (Foreground)
//Storyboard Sound Samples
//Background Colour Transformations
3,100,163,162,255

[TimingPoints]
3189,346.820809248555,4,2,0,70,1,0
36483,-133.333333333333,4,2,0,70,0,0
41512,-100,4,2,0,70,0,0
47582,-100,4,2,0,70,0,1
72553,-100,4,2,0,70,0,0

[Colours]
Combo1 : 251,230,201
Combo2 : 252,207,227
Combo3 : 234,219,250

[HitObjects]
88,100,3188,2,0,B|128:204,1,100
252,264,3535,2,0,B|216:170,1,100,8|0
140,264,3882,1,0
216,170,4056,1,0
100,152,4229,1,8
172,56,4402,1,0
320,80,4576,5,0
320,80,4749,1,0
424,160,4923,1,8
424,160,5096,1,0
320,80,5269,1,0
320,80,5443,1,0
328,228,5616,1,8
328,228,5790,1,0
212,324,5963,6,0,B|100:344,1,100
176,240,6310,2,0,B|274:222,1,100,8|0
348,328,6657,1,0
436,280,6830,1,0
480,192,7004,1,8
468,92,7177,1,0
348,184,7350,5,2
348,184,7524,2,0,B|344:148|296:100|220:80|176:100,1,200,2|2
128,176,8044,2,0,B|60:264,2,100,0|0|8
396,312,8738,5,0
396,312,8911,1,0
276,296,9084,1,8
276,296,9258,1,0
396,312,9431,1,0
396,312,9605,1,0
312,188,9778,1,8
312,188,9952,1,0
396,312,10125,6,0,B|444:292|468:232|472:164|440:108,1,200,0|8
252,160,10819,2,0,B|288:200|340:220|388:232|456:216,1,200,0|8
344,40,11512,6,0,B|380:140,1,100
312,240,11859,2,0,B|278:145,1,100,8|0
180,60,12206,1,0
100,120,12379,1,0
80,220,12553,1,8
116,312,12726,1,0
232,216,12899,5,2
232,216,13073,2,0,B|264:256|312:280|368:296|432:280,1,200,2|2
400,184,13593,2,0,B|384:76,2,100,0|0|8
124,304,14287,5,0
124,304,14460,2,0,B|60:284|60:284|40:240,2,100,0|8|0
128,204,14980,2,0,B|192:224|192:224|212:268,2,100,0|0|8
256,124,15501,6,0,B|288:88|288:88|352:80,1,100
427,137,15847,2,0,B|395:173|395:173|344:180,2,100,0|8|0
339,81,16368,2,0,B|308:52|308:52|224:40,2,100,0|0|8
240,192,16888,5,0
240,192,17061,2,0,B|240:248|212:300|172:336|124:340,1,200,0|8
128,339,17582,1,0
136,224,17755,2,0,B|144:164|144:164|116:124,1,100
40,188,18102,2,0,B|32:248|32:248|60:288,1,100,8|0
192,220,18449,5,4
336,180,18622,1,0
192,220,18795,1,8
292,288,18969,1,0
164,84,19316,2,0,B|104:108|104:108|84:144,2,100,8|0|0
348,84,19836,5,0
348,84,20009,2,0,B|408:108|408:108|428:144,2,100,0|8|0
320,180,20530,2,0,B|296:240|296:240|260:260,2,100,0|0|8
196,96,21050,6,0,B|148:76|148:76|100:84,1,100
40,164,21397,2,0,B|88:184|88:184|136:176,2,100,0|8|0
40,164,21917,1,0
72,68,22090,1,0
40,164,22264,1,8
188,140,22437,1,0
128,276,22610,6,0,B|236:332,1,100
304,268,22957,2,0,B|196:212,1,100,8|0
220,112,23304,2,0,B|328:168,1,100
408,88,23651,2,0,B|300:32,1,100,8|0
180,96,23998,5,0
100,188,24171,1,0
180,96,24345,1,8
216,240,24518,1,0
440,148,24865,2,0,B|468:192|468:192|472:244,2,100,8|0|0
