osu file format v14

[General]
AudioFilename: Dead_Run!!_osu-ver131257M.mp3
AudioLeadIn: 0
PreviewTime: 11970
Countdown: 0
SampleSet: None
StackLeniency: 0.6
Mode: 0
LetterboxInBreaks: 0
WidescreenStoryboard: 1

[Editor]
Bookmarks: 1304,3970,6637,9304,10637,11970,14637,17304,19970,22637,25304,27970,30637,31970,33303,35969,38636,41302,43969,46636,49302,51969,54636
DistanceSpacing: 0.8
BeatDivisor: 4
GridSize: 4
TimelineZoom: 2.100006

[Metadata]
Title:Dead Run!!
TitleUnicode:Dead Run!!
Artist:atya
ArtistUnicode:atya
Creator:atya-
Version:STD-Basic
Source:
Tags:original chiptune
BeatmapID:746833
BeatmapSetID:332221

[Difficulty]
HPDrainRate:3
CircleSize:2
OverallDifficulty:3
ApproachRate:3
SliderMultiplier:1.4
SliderTickRate:1

[Events]
//Background and Video events
0,0,"l_093_1366x768.png",0,0
//Break Periods
2,33503,35862
//Storyboard Layer 0 (Background)
//Storyboard Layer 1 (Fail)
//Storyboard Layer 2 (Pass)
//Storyboard Layer 3 (Foreground)
//Storyboard Sound Samples

[TimingPoints]
-29,333.333333333333,4,2,0,32,1,0
32970,266.666666666667,4,2,0,32,1,0
32970,-125,4,2,0,32,0,0
33303,333.333333333333,4,2,0,32,1,0
33303,-100,4,2,0,32,0,0

[Colours]
Combo1 : 255,128,128
Combo2 : 231,120,222
Combo3 : 128,128,255
Combo4 : 78,164,241
Combo5 : 14,220,184
Combo6 : 156,223,74
Combo7 : 230,233,103
Combo8 : 238,181,85

[HitObjects]
64,120,1304,22,8,P|56:192|64:264,1,140,8|8,2:2|2:2,2:2:0:0:
240,120,2304,5,8,2:2:0:0:
240,232,2637,2,8,P|304:264|368:232,1,140,8|8,2:2|2:2,2:2:0:0:
40,152,3970,6,8,B|104:192|192:144,1,140,8|8,2:2|2:2,2:2:0:0:
392,88,4970,5,8,2:2:0:0:
392,200,5304,2,8,P|400:272|392:344,1,140,8|8,2:2|2:2,2:2:0:0:
256,32,6637,6,8,P|248:104|256:176,1,140,8|8,2:2|2:2,2:2:0:0:
480,192,7637,5,8,2:2:0:0:
384,240,7970,2,8,B|320:288|256:232,1,140,8|8,2:2|2:2,2:2:0:0:
80,96,8970,5,8,2:2:0:0:
32,200,9304,2,8,P|88:240|168:240,1,140,8|8,2:2|2:2,2:2:0:0:
380,224,10304,5,8,2:2:0:0:
380,112,10637,1,8,2:2:0:0:
296,40,10970,2,8,B|232:120|232:120|296:200|296:200|216:296,1,315,8|8,2:2|2:2,2:2:0:0:
140,288,11970,21,8,2:2:0:0:
140,176,12304,1,8,2:2:0:0:
360,176,12970,5,8,2:2:0:0:
360,288,13304,2,8,B|440:288|440:288,2,70,8|8|8,2:2|2:2|2:2,2:2:0:0:
40,192,14637,21,8,2:2:0:0:
40,80,14970,1,8,2:2:0:0:
264,80,15637,5,8,2:2:0:0:
376,80,15970,2,8,B|464:80|464:80|456:72,2,70,8|8|8,2:2|2:2|2:2,2:2:0:0:
40,72,17304,21,8,2:2:0:0:
120,152,17637,1,8,2:2:0:0:
304,280,18304,5,8,2:2:0:0:
192,280,18637,2,8,L|112:280|112:280,2,70,8|8|8,2:2|2:2|2:2,2:2:0:0:
352,32,19970,21,8,2:2:0:0:
432,112,20304,1,8,2:2:0:0:
272,272,20970,21,8,2:2:0:0:
272,160,21304,2,8,L|272:88|272:88,2,70,8|8|8,2:2|2:2|2:2,2:2:0:0:
56,88,22304,22,8,L|104:56|104:56,4,35,8|8|8|8|8,2:2|2:2|2:2|2:2|2:2,2:2:0:0:
60,200,22970,1,8,2:2:0:0:
240,64,23637,21,8,2:2:0:0:
352,64,23970,2,8,B|492:64|492:64|492:172|492:172|292:172|292:172,1,420,8|8,2:2|2:2,2:2:0:0:
364,276,25304,21,8,2:2:0:0:
252,276,25637,1,8,2:2:0:0:
44,192,26304,5,8,2:2:0:0:
44,80,26637,1,8,2:2:0:0:
156,80,26970,1,8,2:2:0:0:
320,120,27470,54,8,L|320:216,1,70,8|8,2:2|2:2,2:2:0:0:
320,304,27970,85,8,2:2:0:0:
416,240,28304,1,8,2:2:0:0:
256,80,28970,101,8,2:2:0:0:
256,192,29304,2,8,L|340:192|340:192,2,70,8|8|8,2:2|2:2|2:2,2:2:0:0:
40,256,30304,5,8,2:2:0:0:
152,256,30637,1,8,2:2:0:0:
264,256,30970,1,8,2:2:0:0:
92,112,31637,5,8,2:2:0:0:
204,112,31970,2,8,B|204:40|204:40|204:44,2,70,8|8|8,2:2|2:2|2:2,2:2:0:0:
316,112,32637,6,8,L|316:152,1,35,8|8,2:2|2:2,2:2:0:0:
316,232,32970,1,8,2:2:0:0:
316,344,33303,1,8,2:2:0:0:
256,192,37302,12,8,38302,2:2:0:0:
24,32,38636,69,8,2:2:0:0:
112,176,39136,37,8,2:2:0:0:
232,64,39636,37,8,2:2:0:0:
320,208,40136,37,8,2:2:0:0:
480,168,40636,37,8,2:2:0:0:
304,32,41302,37,8,2:2:0:0:
208,168,41802,37,8,2:2:0:0:
72,64,42302,37,8,2:2:0:0:
168,208,42802,37,8,2:2:0:0:
332,168,43302,37,8,2:2:0:0:
160,32,43969,6,8,B|376:32|376:32,1,210,8|8,2:2|2:2,2:2:0:0:
372,108,44636,2,8,B|232:108|232:108,1,140,8|8,2:2|2:2,2:2:0:0:
232,184,45136,2,8,L|64:184|64:184,1,140,8|8,2:2|2:2,2:2:0:0:
88,300,45802,2,8,L|320:300,1,210,8|8,2:2|2:2,2:2:0:0:
396,356,46636,21,8,2:2:0:0:
492,292,46969,1,8,2:2:0:0:
396,228,47302,1,8,2:2:0:0:
492,164,47636,1,8,2:2:0:0:
396,104,47969,2,8,L|396:16|396:16,2,70,8|8|8,2:2|2:2|2:2,2:2:0:0:
172,124,48969,1,8,2:2:0:0:
92,44,49302,70,8,B|308:44|308:44,1,210,8|8,2:2|2:2,2:2:0:0:
304,100,49969,2,8,L|304:252|304:236,1,140,8|8,2:2|2:2,2:2:0:0:
304,296,50469,2,8,L|448:296,1,140,8|8,2:2|2:2,2:2:0:0:
500,296,50969,1,8,2:2:0:0:
500,240,51136,2,8,L|500:28,1,210,8|8,2:2|2:2,2:2:0:0:
372,32,51969,5,8,2:2:0:0:
304,192,52469,5,8,2:2:0:0:
176,80,52969,5,8,2:2:0:0:
96,224,53469,5,8,2:2:0:0:
304,192,53969,5,8,2:2:0:0:
256,92,54302,2,8,L|256:44|256:44,2,35,8|8|8,2:2|2:2|2:2,2:2:0:0:
