osu file format v14

[General]
AudioFilename: Dead_Run!!_osu-ver131257M.mp3
AudioLeadIn: 0
PreviewTime: 11970
Countdown: 0
SampleSet: Normal
StackLeniency: 0.7
Mode: 3
LetterboxInBreaks: 0
SpecialStyle: 0
WidescreenStoryboard: 1

[Editor]
DistanceSpacing: 0.8
BeatDivisor: 4
GridSize: 32
TimelineZoom: 2.100006

[Metadata]
Title:Dead Run!!
TitleUnicode:Dead Run!!
Artist:atya
ArtistUnicode:atya
Creator:atya-
Version:7k Easy
Source:
Tags:original chiptune
BeatmapID:743070
BeatmapSetID:332221

[Difficulty]
HPDrainRate:7
CircleSize:7
OverallDifficulty:8
ApproachRate:5
SliderMultiplier:1.4
SliderTickRate:1

[Events]
//Background and Video events
0,0,"l_093_1366x768.png",0,0
//Break Periods
//Storyboard Layer 0 (Background)
//Storyboard Layer 1 (Fail)
//Storyboard Layer 2 (Pass)
//Storyboard Layer 3 (Foreground)
//Storyboard Sound Samples

[TimingPoints]
-29,333.333333333333,4,1,0,30,1,0
32970,266.666666666667,4,1,0,30,1,0
32970,-125,4,1,0,30,0,0
33303,333.333333333333,4,1,0,30,1,0
33303,-100,4,1,0,30,0,0

[HitObjects]
329,192,1304,5,8,0:0:0:0:
329,192,1637,1,8,0:0:0:0:
475,192,2304,1,8,0:0:0:0:
329,192,2637,1,8,0:0:0:0:
329,192,2970,1,8,0:0:0:0:
36,192,3970,1,8,0:0:0:0:
36,192,4304,1,8,0:0:0:0:
182,192,4970,1,8,0:0:0:0:
36,192,5304,1,8,0:0:0:0:
36,192,5637,1,8,0:0:0:0:
329,192,6637,1,8,0:0:0:0:
329,192,6970,1,8,0:0:0:0:
475,192,7637,1,8,0:0:0:0:
329,192,7970,1,8,0:0:0:0:
402,192,8137,1,8,0:0:0:0:
329,192,8304,1,8,0:0:0:0:
182,192,8970,1,8,0:0:0:0:
36,192,9304,1,8,0:0:0:0:
109,192,9470,1,8,0:0:0:0:
36,192,9637,1,8,0:0:0:0:
36,192,10304,1,8,0:0:0:0:
402,192,10637,1,8,0:0:0:0:
475,192,10637,1,8,0:0:0:0:
329,192,10970,1,8,0:0:0:0:
182,192,10970,1,8,0:0:0:0:
109,192,11470,1,8,0:0:0:0:
36,192,11470,1,8,0:0:0:0:
256,192,11970,1,8,0:0:0:0:
475,192,12304,1,8,0:0:0:0:
475,192,12970,1,8,0:0:0:0:
329,192,13304,1,8,0:0:0:0:
402,192,13470,1,8,0:0:0:0:
329,192,13637,1,8,0:0:0:0:
36,192,14637,1,8,0:0:0:0:
182,192,14970,1,8,0:0:0:0:
182,192,15637,1,8,0:0:0:0:
36,192,15970,1,8,0:0:0:0:
109,192,16137,1,8,0:0:0:0:
36,192,16304,1,8,0:0:0:0:
182,192,17304,1,8,0:0:0:0:
402,192,17637,1,8,0:0:0:0:
402,192,18304,1,8,0:0:0:0:
329,192,18470,1,8,0:0:0:0:
182,192,18637,1,8,0:0:0:0:
182,192,18804,1,8,0:0:0:0:
402,192,18970,1,8,0:0:0:0:
109,192,19970,1,8,0:0:0:0:
329,192,20304,1,8,0:0:0:0:
329,192,20970,1,8,0:0:0:0:
182,192,21137,1,8,0:0:0:0:
109,192,21304,1,8,0:0:0:0:
109,192,21470,1,8,0:0:0:0:
329,192,21637,1,8,0:0:0:0:
182,192,22137,1,8,0:0:0:0:
256,192,22637,1,0,0:0:0:0:
475,192,22970,1,8,0:0:0:0:
475,192,23637,1,8,0:0:0:0:
402,192,23804,1,8,0:0:0:0:
329,192,23970,1,8,0:0:0:0:
329,192,24137,1,8,0:0:0:0:
475,192,24304,1,8,0:0:0:0:
329,192,24970,1,8,0:0:0:0:
36,192,25304,1,8,0:0:0:0:
182,192,25637,1,8,0:0:0:0:
182,192,26304,1,8,0:0:0:0:
109,192,26470,1,8,0:0:0:0:
36,192,26637,1,8,0:0:0:0:
36,192,26804,1,8,0:0:0:0:
182,192,26970,1,8,0:0:0:0:
256,192,27470,1,0,0:0:0:0:
182,192,27637,1,8,0:0:0:0:
109,192,27970,1,8,0:0:0:0:
329,192,28304,1,8,0:0:0:0:
329,192,28970,1,8,0:0:0:0:
182,192,29137,1,8,0:0:0:0:
109,192,29304,1,8,0:0:0:0:
109,192,29470,1,8,0:0:0:0:
329,192,29637,1,8,0:0:0:0:
402,192,30304,1,8,0:0:0:0:
329,192,30470,1,8,0:0:0:0:
182,192,30637,1,8,0:0:0:0:
182,192,30804,1,8,0:0:0:0:
402,192,30970,1,8,0:0:0:0:
402,192,31637,1,8,0:0:0:0:
329,192,31804,1,8,0:0:0:0:
182,192,31970,1,8,0:0:0:0:
256,192,32137,1,0,0:0:0:0:
329,192,32637,1,8,0:0:0:0:
402,192,32637,1,8,0:0:0:0:
182,192,32970,1,8,0:0:0:0:
256,192,33303,1,0,0:0:0:0:
402,192,33636,1,8,0:0:0:0:
402,192,34303,1,8,0:0:0:0:
402,192,34969,1,8,0:0:0:0:
402,192,35636,1,8,0:0:0:0:
109,192,36303,1,8,0:0:0:0:
109,192,36969,1,8,0:0:0:0:
109,192,37636,1,8,0:0:0:0:
109,192,38302,1,8,0:0:0:0:
475,192,38636,1,8,0:0:0:0:
329,192,39136,1,8,0:0:0:0:
402,192,39636,1,8,0:0:0:0:
182,192,40136,1,8,0:0:0:0:
329,192,40636,1,8,0:0:0:0:
475,192,41302,1,8,0:0:0:0:
329,192,41802,1,8,0:0:0:0:
402,192,42302,1,8,0:0:0:0:
182,192,42802,1,8,0:0:0:0:
329,192,43302,1,8,0:0:0:0:
475,192,43969,1,8,0:0:0:0:
402,192,44469,1,8,0:0:0:0:
329,192,44636,1,8,0:0:0:0:
109,192,44969,1,8,0:0:0:0:
182,192,45136,1,8,0:0:0:0:
329,192,45469,1,8,0:0:0:0:
36,192,45802,1,8,0:0:0:0:
329,192,46302,1,8,0:0:0:0:
109,192,46636,1,8,0:0:0:0:
329,192,46969,1,8,0:0:0:0:
329,192,47636,1,8,0:0:0:0:
109,192,47969,1,8,0:0:0:0:
329,192,48302,1,8,0:0:0:0:
109,192,48469,1,8,0:0:0:0:
109,192,48802,1,8,0:0:0:0:
329,192,48969,1,8,0:0:0:0:
402,192,49302,1,8,0:0:0:0:
329,192,49802,1,8,0:0:0:0:
182,192,49969,1,8,0:0:0:0:
36,192,50302,1,8,0:0:0:0:
109,192,50469,1,8,0:0:0:0:
182,192,50802,1,8,0:0:0:0:
329,192,50969,1,8,0:0:0:0:
475,192,51136,128,8,51969:0:0:0:0:
109,192,51969,1,8,0:0:0:0:
402,192,52302,1,8,0:0:0:0:
402,192,52969,1,8,0:0:0:0:
109,192,53302,1,8,0:0:0:0:
402,192,53636,1,8,0:0:0:0:
109,192,53802,1,8,0:0:0:0:
109,192,54136,1,8,0:0:0:0:
256,192,54302,128,0,54636:0:0:0:0:
