osu file format v12

[General]
AudioFilename: arrarrararagisan.mp3
AudioLeadIn: 0
PreviewTime: -1
Countdown: 1
SampleSet: None
StackLeniency: 0.2
Mode: 0
LetterboxInBreaks: 1
WidescreenStoryboard: 0

[Editor]
DistanceSpacing: 1
BeatDivisor: 4
GridSize: 8

[Metadata]
Title:arrarrararagisan
TitleUnicode:arrarrararagisan
Artist:
ArtistUnicode:
Creator:vidya
Version:
Source:
Tags:
BeatmapID:371015
BeatmapSetID:150342

[Difficulty]
HPDrainRate:7
CircleSize:5
OverallDifficulty:8
ApproachRate:9
SliderMultiplier:1.79999990463257
SliderTickRate:1

[Events]
//Background and Video events
0,0,"Untitled.jpg",0,0
//Break Periods
//Storyboard Layer 0 (Background)
//Storyboard Layer 1 (Fail)
//Storyboard Layer 2 (Pass)
//Storyboard Layer 3 (Foreground)
//Storyboard Sound Samples
//Background Colour Transformations
3,100,163,162,255

[TimingPoints]
1138,300,4,1,0,100,1,0

[HitObjects]
256,192,3538,12,0,6838,0:0:0:0:
384,64,7138,5,0,0:0:0:0:
160,288,7438,2,0,P|192:312|272:296,2,89.9999952316284
40,160,8038,1,0,0:0:0:0:
256,32,8338,1,0,0:0:0:0:
416,304,8638,2,0,B|356:343|320:296,2,89.9999952316284
400,120,9238,1,0,0:0:0:0:
184,352,9538,1,0,0:0:0:0:
120,40,9838,2,0,P|152:64|208:56,2,89.9999952316284
373,268,10438,1,0,0:0:0:0:
364,270,10588,1,0,0:0:0:0:
383,267,10738,1,0,0:0:0:0:
374,251,10888,1,0,0:0:0:0:
395,274,11038,2,0,P|452:261|434:205,2,89.9999952316284
117,115,11638,5,0,0:0:0:0:
175,59,11788,1,0,0:0:0:0:
231,115,11938,1,0,0:0:0:0:
290,61,12088,1,0,0:0:0:0:
347,116,12238,1,0,0:0:0:0:
347,116,12388,2,0,L|346:199,2,44.9999976158142
403,59,12688,1,0,0:0:0:0:
403,58,12838,2,0,L|405:160,1,89.9999952316284
405,218,13138,1,0,0:0:0:0:
405,297,13288,1,0,0:0:0:0:
335,257,13438,2,0,P|260:229|151:268,1,179.999990463257
51,352,13888,5,0,0:0:0:0:
101,233,14038,1,0,0:0:0:0:
74,75,14188,1,0,0:0:0:0:
246,47,14338,1,0,0:0:0:0:
268,200,14488,1,0,0:0:0:0:
215,350,14638,1,0,0:0:0:0:
457,141,14938,6,0,L|396:80,1,44.9999976158142
403,56,15088,1,0,0:0:0:0:
349,62,15163,2,0,L|250:66,1,89.9999952316284
138,129,15538,1,0,0:0:0:0:
102,128,15613,1,0,0:0:0:0:
84,169,15688,1,0,0:0:0:0:
127,195,15763,2,0,L|145:248,1,44.9999976158142
192,322,15988,1,0,0:0:0:0:
289,336,16138,1,0,0:0:0:0:
256,40,16438,6,0,L|257:227,1,179.999990463257
257,319,16888,1,0,0:0:0:0:
327,277,17038,6,0,L|326:90,1,179.999990463257
406,39,17638,2,0,L|461:33,8,44.9999976158142
422,137,18388,1,0,0:0:0:0:
398,237,18538,1,0,0:0:0:0:
309,280,18688,1,0,0:0:0:0:
212,259,18838,5,0,0:0:0:0:
138,193,18988,1,0,0:0:0:0:
84,109,19138,2,0,B|108:101|108:101|160:49,1,89.9999952316284
252,49,19438,1,0,0:0:0:0:
354,218,19738,2,0,L|318:181,1,44.9999976158142
309,137,19888,1,0,0:0:0:0:
259,140,19963,1,0,0:0:0:0:
224,182,20038,1,0,0:0:0:0:
104,337,20338,1,0,0:0:0:0:
152,345,20413,1,0,0:0:0:0:
180,304,20488,1,0,0:0:0:0:
225,323,20563,1,0,0:0:0:0:
272,337,20638,2,0,P|327:370|370:353,1,89.9999952316284
309,275,20938,1,0,0:0:0:0:
68,136,21238,6,0,P|111:54|212:51,1,179.999990463257
266,120,21688,1,0,0:0:0:0:
344,45,21838,2,0,P|426:88|429:189,1,179.999990463257
397,268,22438,2,0,P|292:341|219:318,1,179.999990463257
150,288,22888,1,0,0:0:0:0:
87,223,23038,1,0,0:0:0:0:
167,183,23188,1,0,0:0:0:0:
98,125,23338,1,0,0:0:0:0:
181,90,23488,1,0,0:0:0:0:
260,48,23638,5,0,0:0:0:0:
348,66,23788,2,0,P|350:100|308:127,1,44.9999976158142
392,100,23938,2,0,P|390:132|365:158,1,44.9999976158142
428,146,24088,1,0,0:0:0:0:
461,229,24238,1,0,0:0:0:0:
293,295,24538,2,0,L|259:267,1,44.9999976158142
230,302,24688,1,0,0:0:0:0:
237,257,24763,1,0,0:0:0:0:
241,212,24838,2,0,L|253:155,1,44.9999976158142
262,124,24988,1,0,0:0:0:0:
184,78,25138,5,0,0:0:0:0:
138,155,25288,2,0,L|114:217,1,44.9999976158142
90,230,25438,1,0,0:0:0:0:
132,244,25513,2,0,L|117:302,2,44.9999976158142
170,220,25738,1,0,0:0:0:0:
67,71,26038,6,0,L|35:175,1,89.9999952316284
129,144,26338,2,0,L|255:149,1,89.9999952316284
281,81,26638,2,0,P|390:65|436:130,2,179.999990463257
351,137,27388,1,0,0:0:0:0:
352,226,27538,1,0,0:0:0:0:
185,293,27838,1,0,0:0:0:0:
95,294,27988,1,0,0:0:0:0:
95,204,28138,1,0,0:0:0:0:
95,114,28288,1,0,0:0:0:0:
166,58,28438,6,0,L|187:123,1,44.9999976158142
269,104,28588,2,0,L|246:151,1,44.9999976158142
251,284,28738,2,0,L|211:246,1,44.9999976158142
297,207,28888,2,0,L|230:199,1,44.9999976158142
308,203,29038,2,0,P|229:165|274:104,1,179.999990463257
336,81,29413,1,0,0:0:0:0:
405,99,29488,1,0,0:0:0:0:
438,162,29563,1,0,0:0:0:0:
401,224,29638,2,0,P|369:302|293:273,1,179.999990463257
261,244,30013,1,0,0:0:0:0:
238,282,30088,1,0,0:0:0:0:
260,320,30163,1,0,0:0:0:0:
235,282,30238,1,0,0:0:0:0:
261,244,30388,1,0,0:0:0:0:
175,215,30538,2,0,P|97:267|157:317,1,179.999990463257
114,136,31138,5,0,0:0:0:0:
261,32,31288,1,0,0:0:0:0:
406,137,31438,1,0,0:0:0:0:
239,205,31588,2,0,L|261:109,1,89.9999952316285
381,249,31888,2,0,L|358:338,1,89.9999952316285
177,329,32188,1,0,0:0:0:0:
35,217,32338,1,0,0:0:0:0:
213,241,32488,1,0,0:0:0:0:
65,137,32638,1,0,0:0:0:0:
65,137,32788,1,0,0:0:0:0:
65,137,32938,2,0,P|132:93|168:94,1,89.9999952316285
319,68,33238,5,0,0:0:0:0:
372,172,33463,1,0,0:0:0:0:
354,199,33538,1,0,0:0:0:0:
190,310,33763,1,0,0:0:0:0:
210,288,33838,1,0,0:0:0:0:
279,293,33988,2,0,P|326:305|359:295,2,44.9999976158143
396,266,34288,1,0,0:0:0:0:
457,179,34438,1,0,0:0:0:0:
437,140,34513,1,0,0:0:0:0:
411,102,34588,1,0,0:0:0:0:
326,71,34738,1,0,0:0:0:0:
238,74,34888,2,0,L|232:184,1,89.9999952316285
241,254,35188,1,0,0:0:0:0:
149,47,35488,1,0,0:0:0:0:
73,278,35788,6,0,L|96:177,1,89.9999952316285
194,165,36088,1,0,0:0:0:0:
307,171,36238,2,0,P|345:241|421:188,2,179.999990463257
35,298,37138,2,0,L|34:199,1,89.9999952316285
132,125,37438,1,0,0:0:0:0:
294,163,37588,1,0,0:0:0:0:
468,119,37738,2,0,P|459:58|405:127,1,179.999990463257
304,266,38188,5,0,0:0:0:0:
135,201,38338,1,0,0:0:0:0:
39,48,38488,1,0,0:0:0:0:
131,375,38638,1,0,0:0:0:0:
256,257,38788,1,0,0:0:0:0:
235,95,38938,1,0,0:0:0:0:
79,54,39088,1,0,0:0:0:0:
217,168,39238,1,0,0:0:0:0:
261,161,39313,1,0,0:0:0:0:
300,138,39388,1,0,0:0:0:0:
341,121,39463,1,0,0:0:0:0:
384,131,39538,1,0,0:0:0:0:
440,201,39688,2,0,P|448:266|403:288,1,89.9999952316285
313,338,40063,1,0,0:0:0:0:
178,331,40288,1,0,0:0:0:0:
98,281,40438,5,0,0:0:0:0:
145,107,40588,1,0,0:0:0:0:
150,286,40738,1,0,0:0:0:0:
101,112,40888,1,0,0:0:0:0:
280,108,41038,1,0,0:0:0:0:
177,256,41188,1,0,0:0:0:0:
341,183,41338,1,0,0:0:0:0:
182,97,41488,1,0,0:0:0:0:
238,267,41638,1,0,0:0:0:0:
80,180,41788,2,0,L|192:166,1,89.9999952316285
303,49,42088,1,0,0:0:0:0:
431,184,42238,2,0,P|381:246|346:238,2,89.9999952316285
379,246,42688,1,0,0:0:0:0:
226,341,42838,5,0,0:0:0:0:
63,264,42988,1,0,0:0:0:0:
242,248,43138,1,0,0:0:0:0:
104,363,43288,1,0,0:0:0:0:
143,187,43438,1,0,0:0:0:0:
308,298,43588,2,0,L|313:378,1,44.9999976158143
373,345,43738,2,0,L|389:301,2,44.9999976158143
433,175,44038,1,0,0:0:0:0:
100,37,44338,1,0,0:0:0:0:
201,382,44638,1,0,0:0:0:0:
323,43,44938,6,0,P|283:116|167:144,1,179.999990463257
14,154,45388,1,0,0:0:0:0:
94,302,45538,1,0,0:0:0:0:
273,286,45688,1,0,0:0:0:0:
354,247,45838,1,0,0:0:0:0:
352,216,45988,1,0,0:0:0:0:
350,171,46138,1,0,0:0:0:0:
348,126,46288,2,0,B|359:99|304:74|346:20,1,89.9999952316285
199,255,46738,1,0,0:0:0:0:
73,125,47038,1,0,0:0:0:0:
73,125,47113,1,0,0:0:0:0:
73,125,47188,1,0,0:0:0:0:
163,125,47338,2,0,P|245:184|279:133,1,179.999990463257
401,40,47788,5,0,0:0:0:0:
222,361,47938,1,0,0:0:0:0:
53,86,48088,1,0,0:0:0:0:
465,237,48238,1,0,0:0:0:0:
286,332,48388,1,0,0:0:0:0:
52,330,48538,1,0,0:0:0:0:
190,18,48688,1,0,0:0:0:0:
21,177,48838,1,0,0:0:0:0:
342,53,48988,1,0,0:0:0:0:
322,371,49138,1,0,0:0:0:0:
86,29,49288,1,0,0:0:0:0:
512,42,49438,1,0,0:0:0:0:
12,124,49588,1,0,0:0:0:0:
512,244,49738,1,0,0:0:0:0:
8,309,49888,1,0,0:0:0:0:
512,147,50038,1,0,0:0:0:0:
256,160,50638,5,0,0:0:0:0:
297,182,50788,1,0,0:0:0:0:
290,223,50938,1,0,0:0:0:0:
246,228,51088,1,0,0:0:0:0:
221,191,51238,1,0,0:0:0:0:
