osu file format v5

[General]
AudioFilename: Super Minamimoto World.mp3
AudioLeadIn: 0
PreviewTime: -1
Countdown: 3
SampleSet: Normal
StackLeniency: 0.7
Mode: 0
LetterboxInBreaks: 1

[Metadata]
Title:Super Minamimoto World
Artist:arghivebeenshot
Creator:4649Hachiko
Version:ummmm... dunno? more like wtf
Source:4649Hachiko
Tags:super mario world, the world ends with you, sho minamimoto world,

[Difficulty]
HPDrainRate:10
CircleSize:7
OverallDifficulty:10
SliderMultiplier:1.4
SliderTickRate:2

[Events]
//Background and Video events
//Break Periods
2,15002,16181
2,29371,29463
2,31895,32560
2,35566,35772
//Storyboard Layer 0 (Background)
//Storyboard Layer 1 (Failing)
//Storyboard Layer 2 (Passing)
//Storyboard Layer 3 (Foreground)
//Storyboard Sound Samples
//Background Colour Transformations
3,100,163,162,255

[TimingPoints]
1843.70057538247,288.184438040346,4,1,0,100,1

[HitObjects]
256,192,1843,12,0,3284
256,192,3572,12,0,4725
256,192,5013,12,0,6454
256,192,7319,5,0
224,160,7895,1,0
288,160,9624,1,0
288,224,11065,1,0
224,224,11353,1,0
256,192,12794,1,0
224,192,13947,1,0
288,192,14235,1,0
224,192,16829,5,0
288,192,17405,1,0
288,128,17693,1,0
224,128,18270,1,0
224,256,19711,1,0
288,256,19999,1,0
0,192,21152,5,0
192,192,21440,1,0
320,192,21728,1,0
512,192,22016,1,0
256,192,23457,12,0,26339
64,192,27492,5,0
96,192,27780,1,0
128,192,28068,1,0
160,192,28356,1,0
192,192,28645,1,0
224,192,30374,5,0
256,192,30662,1,0
288,192,30950,1,0
320,192,31238,1,0
352,192,31527,1,0
32,192,32967,6,0,L|480:192,4,420
480,32,37290,6,0,L,4,420
224,192,41613,1,0
288,192,43054,1,0
256,128,44783,1,0
224,256,45647,1,0
256,256,45936,1,0
288,256,46224,1,0
224,192,47953,1,0
288,192,49394,1,0
256,256,51123,1,0
288,128,51699,1,0
256,128,51987,1,0
224,128,52564,1,0
256,192,55446,5,0
224,192,55734,1,0
288,192,57175,1,0
288,224,57463,1,0
256,224,59192,1,0
256,192,59768,1,0
256,160,60056,1,0
224,160,60633,1,0
224,192,60921,1,0
224,224,61497,1,0
256,224,61786,1,0
288,224,62362,1,0
288,192,62650,1,0
288,160,63226,1,0
256,160,63515,1,0
256,192,63803,1,0
224,192,64379,1,0
224,160,64667,1,0
256,160,64956,1,0
288,160,65532,1,0
224,128,67261,5,0
288,128,67837,1,0
256,224,69567,1,0
256,224,69855,1,0
256,224,70143,1,0
128,192,70431,6,0,L,19,140
