osu file format v5

[General]
AudioFilename: Super Minamimoto World.mp3
AudioLeadIn: 0
PreviewTime: -1
Countdown: 3
SampleSet: Normal
StackLeniency: 0.7
Mode: 0
LetterboxInBreaks: 1

[Metadata]
Title:Super Minamimoto World
Artist:arghivebeenshot
Creator:4649Hachiko
Version:Hard (Zetta Morons!)
Source:4649Hachiko
Tags:super mario world, the world ends with you, sho minamimoto world,

[Difficulty]
HPDrainRate:10
CircleSize:5
OverallDifficulty:7
SliderMultiplier:1.4
SliderTickRate:1

[Events]
//Background and Video events
//Break Periods
2,29371,29463
2,31895,32560
2,35566,35772
//Storyboard Layer 0 (Background)
//Storyboard Layer 1 (Failing)
//Storyboard Layer 2 (Passing)
//Storyboard Layer 3 (Foreground)
//Storyboard Sound Samples
//Background Colour Transformations
3,100,163,162,255

[TimingPoints]
2097.24448961448,114.72275334608,4,1,0,100,1

[HitObjects]
256,192,261,12,2,1753
224,160,3244,5,2
288,160,4735,1,2
288,224,6227,1,2
224,224,7603,1,8
256,192,9439,5,2
192,192,11045,1,2
320,192,12766,1,2
256,0,14602,1,2
256,96,14946,1,2
256,192,15290,1,2
256,192,15405,1,2
256,192,16093,1,2
256,320,16896,5,8
256,320,17240,5,8
32,192,17814,5,2
96,192,18158,1,2
160,192,18387,1,2
160,192,18502,1,2
160,192,18617,1,2
192,192,18846,1,2
256,192,19764,1,2
288,192,19993,1,2
288,192,20223,1,2
32,192,21026,5,2
96,192,21370,1,2
416,192,21714,1,2
416,192,21829,1,2
480,192,22058,1,2
256,192,23435,5,10
256,192,23550,5,10
256,192,23664,5,10
480,352,24238,5,0
416,352,24582,1,2
352,352,24927,1,2
352,352,25041,1,2
352,352,25156,1,2
256,352,25615,1,2
256,352,25730,1,2
192,352,25959,1,2
256,192,26303,5,4
32,32,27450,5,2
96,32,27680,1,2
160,32,28024,1,2
160,32,28139,1,2
224,32,28483,1,2
256,384,30663,5,8
256,288,30892,1,8
256,256,31007,1,8
256,192,31351,1,8
256,192,31466,1,8
256,192,31581,1,8
256,192,31695,1,8
256,128,33760,5,0
256,64,34219,5,2
256,128,34449,1,2
256,192,34564,1,2
256,192,34679,1,2
256,192,34793,1,2
32,32,36972,5,2
96,32,37202,1,2
96,32,37317,1,2
160,32,37546,1,2
224,32,37776,1,2
224,96,38234,1,2
224,96,38349,1,2
224,96,38464,1,2
224,160,38693,1,2
256,192,39267,12,2,40070
256,192,40529,12,8,45806
256,192,46724,12,8,52345
256,32,52919,5,2
256,96,53378,1,2
256,192,53722,1,2
256,192,53837,1,2
256,192,54066,1,2
160,192,55328,5,2
352,192,55672,1,2
256,0,56246,1,2
256,64,56590,1,2
256,128,56819,1,2
256,160,56934,1,2
256,192,57049,1,2
256,224,57164,1,2
256,192,57508,1,2
256,192,57623,5,2
256,192,57737,1,2
160,192,58197,1,2
352,192,58311,1,2
256,224,58540,1,2
32,352,59343,1,2
96,352,59802,1,2
160,352,60146,1,2
160,352,60261,1,2
160,352,60491,1,2
128,192,60835,5,2
160,192,60950,1,2
192,192,61065,1,2
256,128,61753,1,2
256,128,61982,1,2
256,128,62097,1,2
224,64,62556,5,2
288,64,62900,1,2
256,192,63932,5,0
256,192,64047,5,0
256,192,64162,5,0
256,192,64276,5,0
320,160,65769,5,8
256,192,66113,1,8
256,192,66227,1,8
192,160,66572,1,8
256,128,67374,1,8
256,256,67718,1,8
32,192,68980,1,8
256,192,69324,1,8
256,192,69439,1,8
256,192,69554,1,8
256,192,69668,1,8
480,192,70013,1,8
256,192,72192,12,4,76552
