osu file format v5

[General]
AudioFilename: Super Minamimoto World.mp3
AudioLeadIn: 0
PreviewTime: -1
Countdown: 3
SampleSet: Normal
StackLeniency: 0.7
Mode: 0
LetterboxInBreaks: 1

[Metadata]
Title:Super Minamimoto World
Artist:arghivebeenshot
Creator:4649Hachiko
Version:Easy (This was nothing)
Source:4649Hachiko
Tags:super mario world, the world ends with you, sho minamimoto world,

[Difficulty]
HPDrainRate:7
CircleSize:6
OverallDifficulty:7
SliderMultiplier:1.4
SliderTickRate:1

[Events]
//Background and Video events
//Break Periods
2,15002,16181
2,29371,29463
2,31895,32560
2,35566,35772
//Storyboard Layer 0 (Background)
//Storyboard Layer 1 (Failing)
//Storyboard Layer 2 (Passing)
//Storyboard Layer 3 (Foreground)
//Storyboard Sound Samples
//Background Colour Transformations
3,100,163,162,255

[TimingPoints]
1132.28323729015,379.746835443038,4,1,0,100,1

[HitObjects]
256,192,1512,1,0
224,160,3031,1,0
288,160,4929,1,0
256,224,6448,1,0
32,192,7587,5,0
480,192,9486,1,0
256,192,11005,1,0
256,192,11385,12,0,14803
256,192,17081,5,0
256,192,17461,1,0
224,160,19739,1,0
288,160,20119,1,0
256,256,20879,1,0
256,224,21638,1,0
256,160,22398,1,0
256,128,22777,1,0
256,64,23157,1,0
192,192,24296,5,0
320,192,24676,1,0
256,192,25815,1,0
256,192,26195,1,0
256,352,27714,1,0
256,288,28094,1,0
256,0,28853,1,0
256,192,30752,5,0
256,192,31132,5,0
32,32,33031,6,0,B|480:32|480:352|32:352|448:64|448:320|128:320|416:128|416:288|224:288|384:192|384:256|320:256|352:224,1,700
32,192,36828,5,0
128,192,37587,1,0
256,192,38347,1,0
480,192,40246,1,0
256,32,41765,1,0
256,96,43284,1,0
256,160,44803,5,0
256,224,45942,1,0
256,288,47841,5,0
256,352,49360,1,0
32,192,50879,5,0
96,192,53157,5,0
128,192,53537,1,0
256,192,55436,1,0
288,192,55815,1,0
512,192,58094,1,0
448,192,58474,1,0
384,192,59993,1,0
288,192,60372,1,0
224,192,61891,1,0
160,192,62271,1,0
256,192,63790,12,0,69106
256,192,71385,5,0
224,160,71765,1,0
288,160,72144,1,0
288,224,72524,1,0
224,224,72904,1,0
256,128,74043,1,0
256,192,74423,1,0
256,192,75182,12,0,77461
