osu file format v14

[General]
AudioFilename: TEM NID MONEY FOR COLLEG.mp3
AudioLeadIn: 0
PreviewTime: 12100
Countdown: 1
SampleSet: None
StackLeniency: 0.7
Mode: 0
LetterboxInBreaks: 1
WidescreenStoryboard: 0

[Editor]
DistanceSpacing: 0.8
BeatDivisor: 4
GridSize: 4
TimelineZoom: 1

[Metadata]
Title:undertale temmie get money for colege
TitleUnicode:undertale temmie get money for colege
Artist:archdiggle
ArtistUnicode:archdiggle
Creator:aaronzzz
Version:hOI!!
Source:Undertale
Tags:Undertale Temmie College Skolarship MONEY DETERMINATION tem TEMMIE
BeatmapID:812521
BeatmapSetID:370800

[Difficulty]
HPDrainRate:3
CircleSize:3
OverallDifficulty:4
ApproachRate:5
SliderMultiplier:1.4
SliderTickRate:2

[Events]
//Background and Video events
0,0,"teeem.jpg",0,0
//Break Periods
//Storyboard Layer 0 (Background)
//Storyboard Layer 1 (Fail)
//Storyboard Layer 2 (Pass)
//Storyboard Layer 3 (Foreground)
//Storyboard Sound Samples

[TimingPoints]
2600,600,4,3,0,100,1,0
12220,600,4,3,0,100,1,0
50570,-100,4,3,0,100,0,1
60170,-100,4,3,0,100,0,0
108220,-100,4,3,0,100,0,1
117170,-100,4,3,0,100,0,0

[HitObjects]
64,52,2600,2,0,B|44:212|76:368|176:348|208:248|256:100|256:100|324:340|440:376|468:208|444:24,2,1050,0|0|4,0:0|0:0|0:2,0:0:0:0:
96,164,12194,6,0,B|128:112|128:112|152:132|224:120,2,140,4|2|0,0:0|0:0|0:0,0:0:0:0:
152,232,13720,1,4,0:0:0:0:
220,296,14020,2,0,P|264:248|352:284,1,140,2|4,0:0|0:0,0:0:0:0:
332,259,14920,1,0,0:0:0:0:
332,259,15220,2,2,P|320:219|336:179,1,70,0|2,0:2|0:2,0:2:0:0:
388,136,15820,1,2,0:2:0:0:
472,120,16120,2,0,P|456:72|416:52,1,70,4|2,0:0|0:0,0:0:0:0:
360,32,16720,1,0,0:0:0:0:
280,72,17020,1,4,0:0:0:0:
108,232,17620,5,2,0:0:0:0:
108,232,17920,2,0,P|172:268|236:224,1,140,0|4,0:0|0:0,0:0:0:0:
280,160,18820,2,0,P|320:216|304:292,1,140,2|4,0:0|0:0,0:0:0:0:
384,332,19720,1,0,0:0:0:0:
424,256,20020,6,0,P|392:194|407:128,1,140,2|0,0:0|0:0,0:0:0:0:
472,72,20920,1,4,0:0:0:0:
484,160,21220,2,0,P|420:140|336:172,2,140,2|4|2,0:0|0:0|0:0,0:0:0:0:
144,172,23020,6,0,P|168:208|212:228,1,70,0|4,0:0|0:0,0:0:0:0:
160,304,23620,2,0,P|216:312|276:244,1,140,2|4,0:0|0:0,0:0:0:0:
264,164,24520,1,0,0:0:0:0:
192,112,24820,1,2,0:0:0:0:
104,132,25120,1,0,0:0:0:0:
64,216,25420,2,0,P|84:284|104:296,2,70,0|4|2,0:0|0:0|0:0,0:0:0:0:
160,204,26320,5,0,0:0:0:0:
96,128,26620,1,4,0:0:0:0:
184,108,26920,1,0,0:0:0:0:
272,140,27220,2,0,P|299:160|312:192,1,70,2|0,0:0|0:0,0:0:0:0:
388,136,27820,2,0,B|412:196|404:240|360:272,2,140,0|4|4,0:0|0:0|0:0,0:0:0:0:
396,100,29170,2,0,L|376:52,1,35
232,44,29620,2,0,L|248:88,1,35
236,116,29920,2,0,L|260:200,1,70
192,232,30520,2,0,P|215:257|249:265,2,70
148,140,31420,6,4,P|108:172|112:276,1,140,4|2,0:0|0:0,0:0:0:0:
188,308,32320,1,0,0:0:0:0:
280,272,32620,2,0,B|320:240|320:240|360:268|436:248,1,140,0|4,0:0|0:0,0:0:0:0:
376,168,33520,2,0,P|344:132|308:124,1,70,0|4,0:0|0:0,0:0:0:0:
224,320,34420,6,0,P|240:260|324:208,1,140,2|0,0:0|0:0,0:0:0:0:
236,144,35320,1,4,0:0:0:0:
176,72,35620,2,0,B|228:72|228:72|260:52|260:52|336:52,1,140,2|4,0:0|0:0,0:0:0:0:
372,112,36520,1,0,0:0:0:0:
436,172,36820,1,2,0:0:0:0:
352,188,37120,2,0,L|388:332,1,140,0|4,0:0|0:0,0:0:0:0:
296,332,38020,2,0,L|260:188,2,140,2|4|2,0:0|0:0|0:0,0:0:0:0:
204,312,39520,6,2,P|160:300|124:312,1,70,2|2,0:2|0:2,0:2:0:0:
128,220,40120,2,0,P|172:208|208:220,1,70,4|2,0:0|0:0,0:0:0:0:
276,248,40720,1,0,0:0:0:0:
352,296,41020,2,0,P|400:312|432:220,1,140,4|2,0:0|0:0,0:0:0:0:
380,180,41920,1,0,0:0:0:0:
380,180,42220,1,0,0:0:0:0:
380,180,42520,6,0,P|324:220|300:216,1,70,4|2,0:0|0:0,0:0:0:0:
292,136,43120,2,0,P|236:152|208:128,1,70,0|4,0:2|0:3,0:2:0:0:
156,88,43720,1,0,0:0:0:0:
92,144,44020,2,0,B|116:176|116:176|108:248|164:272,1,140,2|0,0:0|0:0,0:0:0:0:
240,272,44920,1,4,0:0:0:0:
196,192,45220,2,0,P|232:176|276:188,1,70,2|0,0:0|0:0,0:0:0:0:
336,228,45820,1,4,0:0:0:0:
80,212,46420,6,0,P|40:184|32:140,2,70,2|2|2,0:0|0:2|0:2,0:0:0:0:
132,108,47320,2,0,P|168:136|176:164,2,70,4|2|0,0:0|0:0|0:0,0:0:0:0:
208,48,48220,6,0,P|256:36|336:96,1,140,4|2,0:0|0:0,0:0:0:0:
344,172,49120,1,2,0:2:0:0:
296,252,49420,1,2,0:2:0:0:
208,264,49720,1,4,0:0:0:0:
144,200,50020,1,2,0:0:0:0:
148,108,50320,1,0,0:0:0:0:
148,108,50620,6,0,P|180:68|260:92,1,140,4|2,0:0|0:0,0:0:0:0:
260,176,51520,1,2,2:0:0:0:
192,232,51820,2,0,B|168:200|168:200|164:84,1,140,2|4,2:0|0:0,0:0:0:0:
80,108,52720,1,0,0:0:0:0:
84,188,53020,6,0,B|88:240|88:240|148:316,1,140,4|2,0:0|0:0,0:0:0:0:
228,280,53920,1,2,0:2:0:0:
308,320,54220,2,0,B|362:251|362:251|366:199,1,140,2|4,0:2|0:3,0:2:0:0:
276,188,55120,2,0,P|292:136|312:120,1,70,0|4,0:0|0:0,0:0:0:0:
232,40,55720,6,0,P|209:66|196:100,1,70,0|2,0:0|0:0,0:0:0:0:
180,180,56320,1,2,0:2:0:0:
168,264,56620,2,0,P|220:236|296:256,1,140,2|4,0:2|0:0,0:0:0:0:
320,344,57520,1,0,0:0:0:0:
396,300,57820,6,0,L|396:232,1,35,4|0,0:0|0:0,0:0:0:0:
396,224,58120,1,0,0:0:0:0:
472,152,58420,2,0,L|472:220,1,35
472,224,58720,2,0,P|432:252|384:252,1,70
388,168,59320,2,0,P|352:152|328:120,1,70
260,64,59920,2,0,L|256:120,1,35
256,132,60220,2,0,B|248:192|248:192|192:192|160:248,1,140,4|0,0:0|0:0,0:0:0:0:
180,312,61120,1,0,0:0:0:0:
272,340,61420,6,0,L|252:268,1,70
320,200,62020,2,0,B|340:280|340:280|424:288,2,140,4|4|2,0:0|0:0|0:0,0:0:0:0:
300,108,63520,1,0,0:0:0:0:
228,160,63820,2,0,L|156:212,2,70
288,84,64720,2,0,B|252:32,2,35,0|4|0,0:0|0:0|0:0,0:0:0:0:
392,100,65320,1,0,0:0:0:0:
328,176,65620,6,0,P|316:212|328:264,1,70
248,292,66220,2,0,P|204:244|116:280,2,140,2|4|0,0:0|0:0|0:0,0:0:0:0:
260,312,67570,2,0,P|284:344|292:344,1,35
384,296,68020,2,0,P|392:256|380:248,1,35
400,236,68320,2,0,P|384:188|344:168,1,70,0|2,0:0|0:0,0:0:0:0:
284,136,68920,1,0,0:0:0:0:
232,60,69220,1,4,0:0:0:0:
108,232,69820,5,4,0:0:0:0:
108,232,70120,2,0,P|172:268|236:224,1,140,0|4,0:0|0:0,0:0:0:0:
280,160,71020,2,0,P|320:216|304:292,2,140,2|4|4,0:0|0:0|0:0,0:0:0:0:
212,96,72520,5,0,0:0:0:0:
296,60,72820,1,0,0:0:0:0:
384,100,73120,1,4,0:0:0:0:
408,196,73420,2,0,P|332:208|288:264,2,140,2|4|4,0:0|0:0|0:0,0:0:0:0:
376,284,74920,5,0,0:0:0:0:
341,197,75220,2,0,L|308:136,1,70,2|2,0:0|0:2,0:0:0:0:
208,124,75820,2,0,B|200:180|248:196|248:196|268:240,1,140,2|4,0:2|0:0,0:0:0:0:
272,168,76720,5,0,0:0:0:0:
340,116,77020,1,4,0:0:0:0:
424,120,77320,1,0,0:0:0:0:
476,184,77620,2,0,P|456:252|436:264,1,70,2|2,0:0|0:2,0:0:0:0:
352,252,78220,2,0,P|334:282|335:316,1,70,2|0,0:2|0:0,0:0:0:0:
236,324,78820,1,0,0:0:0:0:
168,240,79120,1,0,0:0:0:0:
232,152,79420,2,0,P|259:172|272:204,1,70,4|0,0:0|0:0,0:0:0:0:
360,164,80020,2,0,B|360:224|360:224|352:268|308:300,2,140,0|0|4,0:0|0:0|0:0,0:0:0:0:
356,68,81520,6,0,P|304:92|292:128,1,70,0|4,0:0|0:0,0:0:0:0:
189,175,82120,2,0,P|222:185|256:176,1,70
343,246,82720,2,0,P|353:213|344:180,2,70
264,280,83620,6,0,P|288:324|392:320,1,140,0|4,0:0|0:0,0:0:0:0:
343,246,84520,1,0,0:0:0:0:
320,152,84820,6,0,P|387:152|427:207,1,140,2|0,0:0|0:0,0:0:0:0:
434,214,85720,1,0,0:0:0:0:
434,214,86020,2,4,P|398:166|406:82,1,140
324,40,86920,6,0,P|300:104|304:132,1,70
304,128,87370,2,0,P|328:180|324:224,1,70
324,228,87820,2,0,P|288:240|268:272,1,70
256,288,88270,1,0,0:0:0:0:
144,240,88570,5,0,0:0:0:0:
144,192,88720,2,0,P|160:148|200:144,1,70,0|4,0:0|0:0,0:0:0:0:
264,160,89320,1,0,0:0:0:0:
244,252,89620,2,0,P|300:272|368:216,1,140
404,148,90520,6,0,P|436:184|448:216,1,70,0|4,0:0|0:0,0:0:0:0:
336,208,91120,2,0,P|304:172|292:140,1,70,0|4,0:0|0:0,0:0:0:0:
260,60,91720,1,0,0:0:0:0:
216,152,92020,2,0,P|200:183|176:208,1,70,2|0,0:0|0:0,0:0:0:0:
88,212,92620,6,0,P|111:275|175:295,2,140,0|0|4,0:0|0:0|0:0,0:0:0:0:
108,120,94120,1,0,0:0:0:0:
184,72,94420,1,2,0:0:0:0:
268,104,94720,1,0,0:0:0:0:
312,192,95020,2,0,L|340:268,1,70
412,192,95620,2,0,L|387:126,2,70,4|0|4,0:0|0:0|0:0,0:0:0:0:
424,220,96370,6,0,L|440:260,1,35
344,308,96820,2,0,L|328:264,1,35
320,248,97120,2,0,P|304:208|256:184,1,70
200,252,97720,2,0,P|174:228|163:195,1,70
258,173,98320,2,0,L|320:140,1,70,0|4,0:0|0:0,0:0:0:0:
288,320,99220,6,0,P|272:260|188:208,1,140,2|0,0:0|0:0,0:0:0:0:
144,264,100120,1,4,0:0:0:0:
136,176,100420,2,0,B|136:124|136:124|156:92|156:92|156:16,1,140,2|4,0:0|0:0,0:0:0:0:
244,108,101320,5,0,0:0:0:0:
176,168,101620,1,2,0:0:0:0:
252,209,101920,2,0,B|252:260|252:260|272:292|272:292|272:344,1,140,2|4,0:0|0:0,0:0:0:0:
368,344,102820,2,0,P|376:272|320:232,2,140,2|4|2,0:0|0:0|0:0,0:0:0:0:
228,312,104320,6,0,P|272:300|308:312,1,70,0|0,0:2|0:2,0:2:0:0:
218,229,104920,2,0,P|184:224|152:236,1,70,0|0,0:0|0:0,0:0:0:0:
224,144,105520,1,0,0:0:0:0:
320,120,105820,2,0,L|368:112,1,35
384,132,106120,2,0,P|404:188|392:216,1,70
384,240,106570,2,0,L|404:280,1,35
340,344,107020,6,0,L|296:260,1,70
264,200,107620,1,0,0:0:0:0:
264,200,107920,1,0,0:0:0:0:
264,200,108220,6,0,P|216:112|184:120,1,140,4|0,0:0|0:0,0:0:0:0:
124,180,109120,1,0,0:0:0:0:
196,254,109420,2,0,L|196:106,2,140,0|4|4,0:0|0:0|0:0,0:0:0:0:
184,336,110920,2,0,P|232:332|260:296,1,70
276,304,111370,2,0,P|304:280|392:304,1,105
468,336,112120,5,0,0:0:0:0:
440,304,112270,2,0,P|416:252|420:208,1,70
436,216,112720,2,0,L|436:176,1,35
468,152,113020,2,0,L|468:56,1,70,4|0,0:0|0:0,0:0:0:0:
392,36,113620,5,0,0:0:0:0:
320,92,113920,1,0,0:0:0:0:
296,176,114220,1,0,0:0:0:0:
348,252,114520,2,0,P|360:296|352:328,1,70,0|4,0:0|0:0,0:0:0:0:
252,332,115120,2,0,P|240:288|248:256,1,70,0|4,0:0|0:0,0:0:0:0:
256,176,115720,2,0,P|222:184|189:174,1,70
320,184,116320,2,0,P|344:208|352:241,1,70
292,120,116920,2,0,P|308:89|339:73,1,70,0|4,0:0|0:1,0:0:0:0:
