osu file format v14

[General]
AudioFilename: Old is Gold.mp3
AudioLeadIn: 0
PreviewTime: -1
Countdown: 1
SampleSet: None
StackLeniency: 0.4
Mode: 0
LetterboxInBreaks: 1
WidescreenStoryboard: 1

[Editor]
DistanceSpacing: 1.1
BeatDivisor: 4
GridSize: 16
TimelineZoom: 1.9

[Metadata]
Title:Old is Gold
TitleUnicode:Old is Gold
Artist:aran
ArtistUnicode:aran
Creator:jaaakb
Version:silly slider streams
Source:
Tags:hola bueno senor
BeatmapID:741777
BeatmapSetID:243771

[Difficulty]
HPDrainRate:4.4
CircleSize:4.8
OverallDifficulty:8.8
ApproachRate:8.4
SliderMultiplier:1.2
SliderTickRate:4

[Events]
//Background and Video events
0,0,"-moon-a.jpg",0,0
//Break Periods
//Storyboard Layer 0 (Background)
//Storyboard Layer 1 (Fail)
//Storyboard Layer 2 (Pass)
//Storyboard Layer 3 (Foreground)
//Storyboard Sound Samples

[TimingPoints]
0,352.941176470588,4,1,0,100,1,0
33882,3529.41176470588,4,1,0,100,1,0
39176,352.941176470588,4,1,0,100,1,0
43676,176.470588235294,4,1,0,100,1,0
44823,352.941176470588,4,1,0,100,1,0
44911,-50,4,1,0,100,0,0
45264,-100,4,1,0,100,0,0
53911,-83.3333333333333,4,1,0,100,0,0
54264,-71.4285714285714,4,1,0,100,0,0
54617,-62.5,4,1,0,100,0,0
54970,-55.5555555555556,4,1,0,100,0,0
56470,-100,4,1,0,100,0,0
67675,-74.0740740740741,4,1,0,100,0,0
72705,-60.6060606060606,4,1,0,100,0,0
95293,-55.5555555555556,4,1,0,100,0,0
100145,-200,4,1,0,100,0,0
100234,705.882352941176,4,1,0,100,1,0
101513,-55.5555555555556,4,1,0,100,0,0
101646,352.941176470588,4,1,0,100,1,0
101646,-55.5555555555556,4,1,0,100,0,0
111528,705.882352941176,4,1,0,100,1,0
111528,-200,4,1,0,100,0,0
132704,176.470588235294,4,1,0,100,1,0
134116,705.882352941176,4,1,0,100,1,0
134821,-166.666666666667,4,2,0,40,0,0
157939,352.941176470588,4,1,0,80,1,0
167997,705.882352941176,4,2,0,60,1,0
167997,-166.666666666667,4,2,0,60,0,0
169233,352.941176470588,4,1,0,80,1,0
177880,176.470588235294,4,1,0,80,1,0
179291,352.941176470588,4,1,0,80,1,0
179291,-200,4,1,0,80,0,0

[HitObjects]
224,256,0,5,0,0:0:0:0:
192,160,352,1,0,0:0:0:0:
288,128,705,1,0,0:0:0:0:
320,224,1058,1,0,0:0:0:0:
192,224,1411,5,0,0:0:0:0:
288,256,1764,1,0,0:0:0:0:
320,160,2117,1,0,0:0:0:0:
224,128,2470,1,0,0:0:0:0:
160,192,2823,5,0,0:0:0:0:
256,96,3176,1,0,0:0:0:0:
352,192,3529,1,0,0:0:0:0:
256,288,3882,1,0,0:0:0:0:
192,128,4235,5,0,0:0:0:0:
192,256,4588,1,0,0:0:0:0:
320,256,4941,1,0,0:0:0:0:
320,128,5294,1,0,0:0:0:0:
128,192,5647,5,0,0:0:0:0:
32,224,5999,1,0,0:0:0:0:
64,320,6352,1,0,0:0:0:0:
160,288,6705,1,0,0:0:0:0:
352,96,7058,5,0,0:0:0:0:
448,64,7411,1,0,0:0:0:0:
480,160,7764,1,0,0:0:0:0:
384,192,8117,1,0,0:0:0:0:
288,128,8470,5,0,0:0:0:0:
192,160,8823,1,0,0:0:0:0:
160,64,9176,1,0,0:0:0:0:
256,32,9529,1,0,0:0:0:0:
288,224,9882,5,0,0:0:0:0:
256,320,10235,1,0,0:0:0:0:
352,352,10588,1,0,0:0:0:0:
384,256,10941,1,0,0:0:0:0:
32,96,11294,5,0,0:0:0:0:
64,288,11647,2,0,L|136:304,1,60
224,320,11999,1,0,0:0:0:0:
336,168,12352,2,0,L|384:112,1,60
464,16,12705,5,0,0:0:0:0:
432,208,13058,2,0,L|360:224,1,60
272,240,13410,1,0,0:0:0:0:
160,88,13764,2,0,L|120:40,1,60
215,166,14117,5,0,0:0:0:0:
87,230,14470,2,0,L|23:262,1,60
151,358,14823,1,0,0:0:0:0:
279,294,15176,2,0,L|343:262,1,60
408,230,15529,5,0,0:0:0:0:
280,294,15882,2,0,L|216:326,1,60
216,166,16235,1,0,0:0:0:0:
344,102,16588,1,0,0:0:0:0:
409,64,16764,1,0,0:0:0:0:
473,28,16941,1,0,0:0:0:0:
448,288,17294,6,0,L|437:363,1,60
256,256,17647,1,0,0:0:0:0:
270,174,17823,1,0,0:0:0:0:
278,119,17911,1,0,0:0:0:0:
288,64,17999,2,0,L|299:1,1,60
437,205,18352,5,0,0:0:0:0:
396,272,18529,1,0,0:0:0:0:
369,318,18617,1,0,0:0:0:0:
341,365,18705,2,0,L|281:329,1,60
181,269,19058,1,0,0:0:0:0:
242,170,19235,1,0,0:0:0:0:
270,123,19323,1,0,0:0:0:0:
224,96,19411,2,0,L|162:58,1,60
333,287,19764,5,0,0:0:0:0:
182,327,19941,1,0,0:0:0:0:
122,309,20029,1,0,0:0:0:0:
64,288,20117,2,0,L|7:267,1,60
155,85,20470,1,0,0:0:0:0:
334,52,20647,1,0,0:0:0:0:
391,74,20735,1,0,0:0:0:0:
448,96,20823,2,0,L|505:117,1,60
288,128,21176,5,0,0:0:0:0:
192,160,21529,1,0,0:0:0:0:
224,256,21882,1,0,0:0:0:0:
320,224,22058,1,0,0:0:0:0:
320,224,22147,1,0,0:0:0:0:
320,224,22235,1,0,0:0:0:0:
411,182,22411,2,0,L|445:167,1,30
512,128,22588,6,0,L|480:64,1,60
448,64,22941,2,0,L|384:96,1,60
384,128,23294,2,0,L|416:192,1,60
448,192,23647,2,0,L|512:160,1,60
256,128,23999,6,0,L|192:160,1,60
160,224,24352,2,0,L|192:288,1,60
256,320,24705,2,0,L|320:288,1,60
352,224,25058,2,0,L|320:160,1,60
224,128,25411,6,0,L|192:64,1,60
128,32,25764,2,0,L|64:64,1,60
32,128,26117,2,0,L|64:192,1,60
128,224,26470,2,0,L|192:192,1,60,0|0,0:0|0:0,0:0:0:0:
416,32,26823,6,0,L|480:64,1,60
512,288,27176,2,0,L|480:352,1,60
256,384,27529,2,0,L|192:352,1,60
160,128,27882,1,0,0:0:0:0:
241,159,28058,6,0,L|272:171,1,30
352,192,28235,6,0,L|384:128,1,60
512,192,28588,2,0,L|480:256,1,60
370,262,28941,2,0,L|437:291,1,60
496,125,29294,2,0,L|430:95,1,60
128,128,29647,6,0,L|160:64,1,60
352,160,29999,2,0,L|320:224,1,60
151,243,30352,2,0,L|215:275,1,60
316,61,30705,2,0,L|252:29,1,60
128,64,31058,5,0,0:0:0:0:
69,196,31235,1,0,0:0:0:0:
114,227,31323,1,0,0:0:0:0:
160,256,31411,2,0,L|215:293,1,60
384,64,31764,1,0,0:0:0:0:
442,195,31941,1,0,0:0:0:0:
398,228,32029,1,0,0:0:0:0:
352,256,32117,2,0,L|297:293,1,60
64,96,32470,5,0,0:0:0:0:
228,134,32647,1,0,0:0:0:0:
275,147,32735,1,0,0:0:0:0:
320,160,32823,2,0,L|384:176,1,60
331,288,33176,5,0,0:0:0:0:
192,336,33353,1,0,0:0:0:0:
192,336,33441,1,0,0:0:0:0:
192,336,33529,1,0,0:0:0:0:
168,247,33705,6,0,L|133:257,1,30
70,276,33882,6,0,B|42:251|38:228|35:208|35:188|36:165|40:145|45:125|53:103,1,180
208,64,39352,5,0,0:0:0:0:
208,64,39440,5,0,0:0:0:0:
208,64,39528,5,0,0:0:0:0:
256,80,39705,1,0,0:0:0:0:
320,48,39881,1,0,0:0:0:0:
356,65,40058,1,0,0:0:0:0:
416,32,40234,1,0,0:0:0:0:
454,51,40411,1,0,0:0:0:0:
448,112,40587,1,0,0:0:0:0:
487,132,40764,1,0,0:0:0:0:
352,128,40940,1,0,0:0:0:0:
395,151,41117,1,0,0:0:0:0:
432,224,41293,1,0,0:0:0:0:
482,248,41470,1,0,0:0:0:0:
282,231,41646,1,0,0:0:0:0:
336,262,41823,1,0,0:0:0:0:
421,348,41999,1,0,0:0:0:0:
479,379,42176,1,0,0:0:0:0:
210,292,42352,5,0,0:0:0:0:
163,245,42440,1,0,0:0:0:0:
137,186,42528,1,0,0:0:0:0:
134,123,42617,1,0,0:0:0:0:
164,67,42705,1,0,0:0:0:0:
213,37,42793,1,0,0:0:0:0:
267,33,42881,1,0,0:0:0:0:
311,59,42970,1,0,0:0:0:0:
339,105,43058,1,0,0:0:0:0:
337,156,43146,1,0,0:0:0:0:
313,205,43234,1,0,0:0:0:0:
263,226,43323,1,0,0:0:0:0:
212,207,43411,1,0,0:0:0:0:
198,153,43499,1,0,0:0:0:0:
234,106,43587,1,0,0:0:0:0:
285,114,43676,1,0,0:0:0:0:
289,159,43764,2,0,B|289:175|273:159|288:151|295:159|294:165|286:164|281:155|294:156|282:160|293:151|300:158|287:159,22,30
267,212,44823,1,0,0:0:0:0:
178,297,44999,6,0,B|145:307|92:305|57:258,1,120
97,258,45264,1,0,0:0:0:0:
125,230,45352,1,0,0:0:0:0:
142,197,45440,1,0,0:0:0:0:
155,158,45528,1,0,0:0:0:0:
175,114,45617,1,0,0:0:0:0:
212,70,45705,1,0,0:0:0:0:
260,46,45793,1,0,0:0:0:0:
310,44,45881,5,0,0:0:0:0:
474,23,46234,1,0,0:0:0:0:
512,170,46587,1,0,0:0:0:0:
341,203,46940,1,0,0:0:0:0:
310,44,47293,1,0,0:0:0:0:
119,85,47646,1,0,0:0:0:0:
270,123,47999,1,0,0:0:0:0:
218,294,48352,1,0,0:0:0:0:
52,242,48705,1,0,0:0:0:0:
190,166,49058,1,0,0:0:0:0:
265,307,49411,1,0,0:0:0:0:
427,235,49764,1,0,0:0:0:0:
295,133,50117,1,0,0:0:0:0:
265,307,50470,1,0,0:0:0:0:
80,80,50823,6,0,P|128:97|159:79,1,90
135,125,51175,2,0,P|186:133|219:102,1,90
184,145,51528,2,0,P|224:133|246:83,1,90
241,133,51881,2,0,P|249:106|206:52,1,90
189,101,52234,2,0,P|150:111|142:161,1,90
209,151,52587,2,0,P|217:183|286:191,1,90
275,148,52940,2,0,P|323:147|357:107,1,90
326,112,53293,2,0,P|366:98|410:73,1,90
332,152,53646,2,0,P|381:162|425:166,1,90
352,198,53999,2,0,P|399:219|452:259,1,107.999996704102
356,271,54352,2,0,P|390:302|366:381,1,125.999996154785
314,334,54705,2,0,P|263:347|176:323,1,144
185,252,55058,2,0,P|128:202|81:124,1,161.999995056153
398,120,55411,2,0,P|456:195|498:281,1,161.999995056153
188,122,55764,2,0,P|252:58|343:27,1,161.999995056153
379,242,56117,2,0,P|310:307|215:330,1,161.999995056153
256,192,56470,12,0,61764,0:0:0:0:
480,272,62117,5,0,0:0:0:0:
447,329,62293,1,0,0:0:0:0:
360,294,62470,1,0,0:0:0:0:
325,306,62646,1,0,0:0:0:0:
258,379,62823,1,0,0:0:0:0:
193,364,62999,1,0,0:0:0:0:
181,274,63175,1,0,0:0:0:0:
143,248,63352,1,0,0:0:0:0:
32,128,63528,1,0,0:0:0:0:
64,64,63704,1,0,0:0:0:0:
179,58,63881,1,0,0:0:0:0:
141,141,64057,1,0,0:0:0:0:
285,163,64234,1,0,0:0:0:0:
325,42,64410,1,0,0:0:0:0:
483,26,64586,1,0,0:0:0:0:
438,186,64763,1,0,0:0:0:0:
480,240,64941,5,0,0:0:0:0:
447,297,65028,1,0,0:0:0:0:
388,328,65117,1,0,0:0:0:0:
325,347,65205,1,0,0:0:0:0:
258,347,65293,1,0,0:0:0:0:
193,332,65381,1,0,0:0:0:0:
136,298,65470,1,0,0:0:0:0:
98,243,65558,1,0,0:0:0:0:
76,172,65646,1,0,0:0:0:0:
67,99,65734,1,0,0:0:0:0:
108,39,65823,1,0,0:0:0:0:
178,29,65911,1,0,0:0:0:0:
241,68,65999,1,0,0:0:0:0:
246,137,66087,1,0,0:0:0:0:
210,197,66175,1,0,0:0:0:0:
140,206,66264,1,0,0:0:0:0:
16,208,66352,6,0,L|32:288,1,60
236,73,66705,6,0,L|268:-7,1,60
336,256,67058,6,0,L|352:320,1,60
448,288,67411,6,0,L|464:352,1,60
384,192,67764,5,0,0:0:0:0:
294,159,67940,2,0,L|278:207,1,40.5000001544952
384,192,68117,1,0,0:0:0:0:
294,159,68293,2,0,L|278:207,1,40.5000001544952
160,368,68470,1,0,0:0:0:0:
128,304,68646,2,0,L|80:320,1,40.5000001544952
160,368,68823,1,0,0:0:0:0:
128,304,68999,2,0,L|80:320,1,40.5000001544952
301,374,69175,1,0,0:0:0:0:
336,272,69352,2,0,L|384:288,1,40.5000001544952
301,374,69528,1,0,0:0:0:0:
336,272,69705,2,0,L|384:288,1,40.5000001544952
301,374,69881,1,0,0:0:0:0:
336,272,70058,2,0,L|384:288,1,40.5000001544952
296,371,70234,1,0,0:0:0:0:
336,272,70411,2,0,L|384:288,1,40.5000001544952
80,64,70587,5,0,0:0:0:0:
161,111,70764,2,0,L|182:74,1,40.5000001544952
80,64,70940,1,0,0:0:0:0:
161,111,71117,2,0,L|186:66,1,40.5000001544952
416,80,71293,1,0,0:0:0:0:
388,179,71470,2,0,L|429:191,1,40.5000001544952
416,80,71646,1,0,0:0:0:0:
388,179,71823,2,0,L|430:191,1,40.5000001544952
229,253,71999,1,0,0:0:0:0:
120,336,72175,2,0,L|152:368,1,40.5000001544952
273,299,72352,1,0,0:0:0:0:
414,329,72528,2,0,L|430:265,1,40.5000001544952
336,272,72705,6,0,P|288:208|214:178,1,148.500001416206
288,192,73058,2,0,P|208:144|128:128,1,148.500001416206
96,176,73411,2,0,P|160:128|240:112,1,148.500001416206
144,112,73764,2,0,P|224:80|288:80,1,148.500001416206
384,224,74117,2,0,P|339:161|276:117,1,148.500001416206
318,290,74470,2,0,P|305:214|246:147,1,148.500001416206
226,358,74823,2,0,P|258:278|258:198,1,148.500001416206
83,326,75175,2,0,P|174:329|232:293,1,148.500001416206
28,194,75528,2,0,P|57:258|167:309,1,148.500001416206
87,71,75881,2,0,P|71:119|72:236,1,148.500001416206
211,33,76234,2,0,P|161:46|93:144,1,148.500001416206
288,112,76587,2,0,P|212:74|105:70,1,148.500001416206
224,192,76940,2,0,P|240:96|208:48,1,148.500001416206
153,192,77293,2,0,P|217:160|265:96,1,148.500001416206
138,250,77646,2,0,P|216:224|281:169,1,148.500001416206
352,320,77999,2,0,P|289:323|213:390,1,148.500001416206
64,192,78352,2,0,P|107:228|127:327,1,148.500001416206
160,176,78705,2,0,P|219:167|311:102,1,148.500001416206
288,112,79058,6,0,P|368:96|432:48,1,148.500001416206
112,144,79411,2,0,P|208:112|256:64,1,148.500001416206
96,304,79764,2,0,P|144:224|160:160,1,148.500001416206
272,368,80117,2,0,P|208:304|128:288,1,148.500001416206
384,224,80470,2,0,P|320:256|256:320,1,148.500001416206
240,128,80823,2,0,P|272:192|352:240,1,148.500001416206
144,176,81175,2,0,P|192:192|288:176,1,148.500001416206
112,240,81528,2,0,P|176:240|240:176,1,148.500001416206
128,304,81881,5,0,0:0:0:0:
224,384,82058,2,0,L|257:341,1,49.5000004720688
128,304,82234,1,0,0:0:0:0:
223,382,82411,2,0,L|254:344,1,49.5000004720688
224,188,82587,1,0,0:0:0:0:
304,80,82764,2,0,L|348:113,1,49.5000004720688
336,224,82940,1,0,0:0:0:0:
258,319,83117,2,0,L|299:355,1,49.5000004720688
336,224,83293,1,0,0:0:0:0:
256,320,83470,2,0,L|296:351,1,49.5000004720688
165,280,83646,1,0,0:0:0:0:
85,223,83823,2,0,L|46:268,1,49.5000004720688
80,151,83999,6,0,P|143:118|219:97,1,148.500001416206
219,154,84352,2,0,P|282:121|358:100,1,148.500001416206
80,208,84705,2,0,P|143:175|219:154,1,148.500001416206
219,211,85058,2,0,P|282:178|358:157,1,148.500001416206
80,151,85411,2,0,P|143:118|219:97,1,148.500001416206
219,154,85764,2,0,P|282:121|358:100,1,148.500001416206
80,176,86117,2,0,P|143:143|219:122,1,148.500001416206
219,179,86470,2,0,P|282:146|358:125,1,148.500001416206
416,256,86823,5,0,0:0:0:0:
454,332,86999,2,0,L|396:368,1,49.5000004720688
416,256,87175,1,0,0:0:0:0:
453,330,87352,2,0,L|406:362,1,49.5000004720688
188,129,87528,1,0,0:0:0:0:
121,236,87705,2,0,L|60:192,1,49.5000004720688
188,129,87881,1,0,0:0:0:0:
121,236,88058,2,0,L|77:204,1,49.5000004720688
374,154,88234,1,0,0:0:0:0:
359,278,88411,2,0,L|409:285,1,49.5000004720688
374,154,88587,1,0,0:0:0:0:
359,278,88764,2,0,L|410:287,1,49.5000004720688
256,336,88940,6,0,L|162:370,1,99.0000009441376
155,53,89293,6,0,L|251:16,1,99.0000009441376
391,45,89646,6,0,B|442:159,1,99.0000009441376
358,212,89999,6,0,L|395:350,1,99.0000009441376
117,188,90352,5,0,0:0:0:0:
158,312,90528,2,0,L|103:330,1,49.5000004720688
167,186,90705,1,0,0:0:0:0:
107,312,90881,2,0,L|46:288,1,49.5000004720688
416,176,91058,5,0,0:0:0:0:
378,303,91234,2,0,L|441:322,1,49.5000004720688
367,183,91411,1,0,0:0:0:0:
423,298,91587,2,0,L|476:270,1,49.5000004720688
165,292,91764,5,0,0:0:0:0:
328,79,91940,2,0,L|369:109,1,49.5000004720688
223,321,92117,1,0,0:0:0:0:
271,50,92293,2,0,L|346:56,1,49.5000004720688
288,319,92470,1,0,0:0:0:0:
206,47,92646,2,0,L|272:21,1,49.5000004720688
339,279,92823,1,0,0:0:0:0:
148,75,92999,2,0,L|185:34,1,49.5000004720688
323,153,93175,5,0,0:0:0:0:
388,35,93352,2,0,L|432:68,1,49.5000004720688
323,153,93528,1,0,0:0:0:0:
437,75,93705,2,0,L|471:116,1,49.5000004720688
293,237,93881,5,0,0:0:0:0:
357,306,94058,2,0,L|308:354,1,49.5000004720688
203,236,94234,5,0,0:0:0:0:
115,341,94411,2,0,L|156:373,1,49.5000004720688
203,236,94587,1,0,0:0:0:0:
71,293,94764,2,0,L|99:350,1,49.5000004720688
282,342,94940,5,0,0:0:0:0:
458,344,95117,2,0,L|460:290,1,49.5000004720688
464,192,95293,6,0,B|416:112|384:112|320:192,1,161.999995056153
320,80,95646,2,0,B|224:48|208:64|192:160,1,161.999995056153
80,192,95999,2,0,B|80:304|96:320|192:288,1,161.999995056153
288,288,96352,2,0,B|368:304|384:288|384:192,1,161.999995056153
64,240,96705,2,0,B|80:336|96:336|176:304,1,161.999995056153
192,48,97058,2,0,B|112:64|96:80|112:176,1,161.999995056153
432,160,97411,2,0,B|416:64|416:48|304:64,1,161.999995056153
288,352,97764,2,0,B|384:352|400:336|416:240,1,161.999995056153
197,171,98117,2,0,B|192:261|197:271|313:275,1,161.999995056153
416,112,98470,2,0,B|320:96|304:112|301:196,1,161.999995056153
83,101,98823,5,0,0:0:0:0:
104,304,98999,2,0,L|157:298,1,53.9999983520508
141,109,99175,1,0,0:0:0:0:
44,290,99352,2,0,L|90:318,1,53.9999983520508
324,274,99528,1,0,0:0:0:0:
219,240,99705,2,0,L|196:294,1,53.9999983520508
324,235,99881,1,0,0:0:0:0:
218,282,100058,2,0,L|244:338,1,53.9999983520508
256,80,100234,6,0,L|259:31,1,45
32,256,100587,2,0,L|54:298,1,45
450,312,100940,2,0,L|485:278,1,45
256,16,101293,2,0,L|256:63,1,45
387,40,101646,5,0,0:0:0:0:
317,174,101822,2,0,L|358:211,1,53.9999983520508
428,88,101998,1,0,0:0:0:0:
276,127,102175,2,0,L|278:186,1,53.9999983520508
191,184,102351,1,0,0:0:0:0:
121,316,102528,2,0,L|170:344,1,53.9999983520508
231,231,102704,1,0,0:0:0:0:
80,276,102881,2,0,L|97:339,1,53.9999983520508
105,170,103057,5,0,0:0:0:0:
423,217,103234,2,0,L|417:276,1,53.9999983520508
121,104,103410,1,0,0:0:0:0:
391,271,103587,2,0,L|365:325,1,53.9999983520508
166,50,103763,1,0,0:0:0:0:
346,315,103940,2,0,L|294:354,1,53.9999983520508
225,20,104116,1,0,0:0:0:0:
290,348,104293,2,0,L|233:360,1,53.9999983520508
304,128,104469,5,0,0:0:0:0:
448,48,104646,2,0,L|480:96,1,53.9999983520508
350,168,104822,1,0,0:0:0:0:
392,16,104998,2,0,L|459:26,1,53.9999983520508
335,232,105175,1,0,0:0:0:0:
430,328,105351,2,0,L|392:365,1,53.9999983520508
311,293,105528,1,0,0:0:0:0:
449,268,105704,2,0,L|464:331,1,53.9999983520508
252,291,105881,1,0,0:0:0:0:
147,355,106057,2,0,L|128:304,1,53.9999983520508
226,274,106234,1,0,0:0:0:0:
187,379,106410,2,0,L|117:349,1,53.9999983520508
177,246,106587,6,0,B|145:185|163:129|106:66,1,161.999995056153
262,276,106940,2,0,B|283:214|261:146|323:75,1,161.999995056153
220,193,107293,2,0,B|242:139|182:79|220:1,1,161.999995056153
329,254,107646,2,0,B|326:191|369:151|363:107|333:49,1,161.999995056153
176,240,107998,5,0,0:0:0:0:
331,153,108175,2,0,L|301:102,1,53.9999983520508
123,273,108351,1,0,0:0:0:0:
382,115,108528,2,0,L|350:67,1,53.9999983520508
186,141,108704,1,0,0:0:0:0:
325,250,108881,2,0,L|288:290,1,53.9999983520508
155,115,109057,1,0,0:0:0:0:
355,271,109234,2,0,L|314:321,1,53.9999983520508
127,92,109410,1,0,0:0:0:0:
381,291,109587,2,0,L|346:338,1,53.9999983520508
101,70,109763,1,0,0:0:0:0:
407,310,109940,2,0,L|373:351,1,53.9999983520508
243,111,110116,5,0,0:0:0:0:
164,208,110293,2,0,L|123:171,1,53.9999983520508
283,64,110469,1,0,0:0:0:0:
125,256,110646,2,0,L|69:206,1,53.9999983520508
236,335,110822,1,0,0:0:0:0:
390,120,110998,2,0,L|437:153,1,53.9999983520508
274,287,111175,1,0,0:0:0:0:
354,168,111351,2,0,L|408:205,1,53.9999983520508
201,266,111528,6,0,L|186:284,1,22.5
306,122,111880,2,0,L|324:101,1,22.5
186,140,112233,2,0,L|167:126,1,22.5
332,242,112586,2,0,L|351:256,1,22.5
256,192,112939,5,0,0:0:0:0:
261,214,113028,1,0,0:0:0:0:
237,234,113116,1,0,0:0:0:0:
200,231,113204,1,0,0:0:0:0:
172,195,113292,1,0,0:0:0:0:
184,154,113380,1,0,0:0:0:0:
221,124,113469,1,0,0:0:0:0:
245,107,113557,1,0,0:0:0:0:
247,88,113645,6,0,L|249:69,1,15
368,36,113998,2,0,L|383:39,1,15
428,154,114351,2,0,L|423:168,1,15
303,212,114704,2,0,L|286:203,1,15
245,89,115057,2,0,L|230:84,1,15
55,169,115410,2,0,L|49:184,1,15
55,169,115763,2,0,L|47:186,1,15
119,306,116116,2,0,L|136:309,1,15
266,239,116469,2,0,L|269:221,1,15
201,95,116822,2,0,L|208:78,1,15
343,26,117175,2,0,L|361:30,1,15
425,162,117528,2,0,L|421:179,1,15
266,238,117880,2,0,L|249:234,1,15
160,41,118233,2,0,L|145:40,1,15
160,41,118586,2,0,L|139:38,1,15
72,158,118939,2,0,L|65:178,1,15
150,307,119292,2,0,L|168:313,1,15
311,317,119645,2,0,L|322:305,1,15
414,191,119998,2,0,L|418:173,1,15
374,73,120351,2,0,L|366:57,1,15
273,29,120704,2,0,L|258:24,1,15
288,128,121057,2,0,L|300:144,1,15
288,128,121410,2,0,L|299:141,1,15
314,208,121763,2,0,L|301:225,1,15
232,245,122116,2,0,L|214:238,1,15
197,169,122469,2,0,L|206:156,1,15
237,172,122822,6,0,L|222:155,1,22.5
262,199,123175,2,0,L|275:217,1,22.5
233,199,123528,2,0,L|212:216,1,22.5
265,175,123880,2,0,L|284:163,1,22.5
326,222,124233,5,0,0:0:0:0:
285,262,124410,1,0,0:0:0:0:
241,305,124586,1,0,0:0:0:0:
237,225,124763,1,0,0:0:0:0:
243,144,124939,1,0,0:0:0:0:
196,180,125116,1,0,0:0:0:0:
152,222,125292,1,0,0:0:0:0:
155,137,125469,1,0,0:0:0:0:
403,90,125645,1,0,0:0:0:0:
436,140,125822,1,0,0:0:0:0:
470,191,125998,1,0,0:0:0:0:
378,166,126175,1,0,0:0:0:0:
295,144,126351,1,0,0:0:0:0:
326,194,126528,1,0,0:0:0:0:
360,244,126704,1,0,0:0:0:0:
271,226,126880,1,0,0:0:0:0:
112,244,127057,5,0,0:0:0:0:
140,295,127233,1,0,0:0:0:0:
193,327,127410,1,0,0:0:0:0:
256,192,127586,1,0,0:0:0:0:
320,340,127763,1,0,0:0:0:0:
368,304,127939,1,0,0:0:0:0:
404,236,128116,1,0,0:0:0:0:
256,192,128292,1,0,0:0:0:0:
418,153,128469,1,0,0:0:0:0:
383,75,128645,1,0,0:0:0:0:
312,26,128821,1,0,0:0:0:0:
256,192,128998,1,0,0:0:0:0:
192,15,129174,1,0,0:0:0:0:
101,43,129351,1,0,0:0:0:0:
30,135,129527,1,0,0:0:0:0:
256,192,129704,1,0,0:0:0:0:
128,336,129880,5,0,0:0:0:0:
187,353,129969,1,0,0:0:0:0:
249,362,130057,1,0,0:0:0:0:
310,358,130145,1,0,0:0:0:0:
366,337,130233,1,0,0:0:0:0:
414,302,130322,1,0,0:0:0:0:
455,256,130410,1,0,0:0:0:0:
467,198,130498,1,0,0:0:0:0:
425,112,130586,1,0,0:0:0:0:
379,150,130675,1,0,0:0:0:0:
325,177,130763,1,0,0:0:0:0:
265,181,130851,1,0,0:0:0:0:
210,159,130939,1,0,0:0:0:0:
170,115,131028,1,0,0:0:0:0:
170,58,131116,1,0,0:0:0:0:
210,16,131204,1,0,0:0:0:0:
256,93,131292,1,0,0:0:0:0:
203,118,131380,1,0,0:0:0:0:
159,158,131469,1,0,0:0:0:0:
137,211,131557,1,0,0:0:0:0:
148,269,131645,1,0,0:0:0:0:
188,312,131733,1,0,0:0:0:0:
244,334,131822,1,0,0:0:0:0:
304,335,131910,1,0,0:0:0:0:
290,249,131998,1,0,0:0:0:0:
245,209,132086,1,0,0:0:0:0:
231,153,132174,1,0,0:0:0:0:
246,96,132262,1,0,0:0:0:0:
283,49,132351,1,0,0:0:0:0:
342,36,132439,1,0,0:0:0:0:
398,59,132528,1,0,0:0:0:0:
435,107,132616,1,0,0:0:0:0:
433,168,132704,2,0,L|403:168,1,30
410,226,132792,2,0,L|377:227,1,30
387,283,132880,2,0,L|356:281,1,30
363,338,132968,2,0,L|333:337,1,30
332,284,133056,2,0,L|301:284,1,30
315,229,133145,2,0,L|277:228,1,30
296,174,133233,2,0,L|262:174,1,30
278,118,133321,2,0,L|248:118,1,30
200,118,133409,2,0,L|167:117,1,30
150,173,133498,2,0,L|118:173,1,30
106,231,133586,2,0,L|74:229,1,30
67,288,133674,2,0,L|31:287,1,30
132,309,133762,2,0,L|97:310,1,30
196,330,133851,2,0,L|165:331,1,30
260,353,133939,2,0,L|229:355,1,30
326,375,134027,2,0,L|295:374,1,30
425,353,134115,5,0,0:0:0:0:
256,192,134292,12,0,135174,0:0:0:0:
160,272,135527,6,0,L|224:304,1,71.9999978027344
304,288,136410,2,0,L|345:309,1,35.9999989013672
256,176,136939,2,0,L|330:208,1,71.9999978027344
416,176,137821,2,0,L|432:144,1,35.9999989013672
368,80,138351,2,0,L|288:112,1,71.9999978027344
224,160,139233,2,0,L|192:144,1,35.9999989013672
160,64,139763,2,0,L|96:80,1,53.9999983520508
80,160,140468,2,0,L|115:217,1,53.9999983520508
144,336,141174,2,0,L|224:320,1,71.9999978027344
336,320,142057,2,0,L|368:352,1,35.9999989013672
464,192,142586,2,0,L|400:224,1,71.9999978027344
320,112,143468,2,0,L|304:64,1,35.9999989013672
80,160,143998,2,0,L|160:144,1,71.9999978027344
320,112,144880,2,0,L|311:77,1,35.9999989013672
150,145,145410,2,0,L|83:159,1,53.9999983520508
368,146,146103,2,0,L|420:159,1,53.9999983520508
267,143,146821,5,0,0:0:0:0:
205,208,147174,5,0,0:0:0:0:
305,226,147527,5,0,0:0:0:0:
416,224,147704,2,0,L|448:192,1,35.9999989013672
384,112,148233,2,0,L|304:128,1,71.9999978027344
112,240,149116,2,0,L|96:208,1,35.9999989013672
416,192,149645,2,0,L|352:144,1,71.9999978027344
176,128,150527,2,0,L|126:121,1,35.9999989013672
192,272,151057,2,0,L|254:298,1,53.9999983520508
416,208,151763,2,0,L|448:256,1,53.9999983520508
144,256,152468,2,0,L|208:288,1,71.9999978027344
288,240,153351,2,0,L|324:249,1,35.9999989013672
96,192,153880,2,0,L|167:213,1,71.9999978027344
416,176,154763,2,0,L|400:128,1,35.9999989013672
70,208,155292,2,0,L|141:168,1,71.9999978027344
320,352,156174,2,0,L|288:320,1,35.9999989013672
64,224,156704,2,0,L|105:177,1,53.9999983520508
447,233,157410,2,0,L|417:184,1,53.9999983520508
224,336,158115,5,0,0:0:0:0:
258,300,158203,1,0,0:0:0:0:
273,250,158291,1,0,0:0:0:0:
268,205,158380,1,0,0:0:0:0:
232,170,158468,1,0,0:0:0:0:
218,125,158556,1,0,0:0:0:0:
225,82,158644,1,0,0:0:0:0:
252,44,158733,1,0,0:0:0:0:
282,20,158821,5,0,0:0:0:0:
302,48,159174,1,0,0:0:0:0:
273,68,159527,1,0,0:0:0:0:
316,85,159880,1,0,0:0:0:0:
257,106,160233,1,0,0:0:0:0:
336,116,160586,1,0,0:0:0:0:
233,135,160939,1,0,0:0:0:0:
362,143,161291,1,0,0:0:0:0:
216,167,161644,1,0,0:0:0:0:
378,179,161997,1,0,0:0:0:0:
213,203,162350,1,0,0:0:0:0:
374,215,162703,1,0,0:0:0:0:
222,235,163056,1,0,0:0:0:0:
364,251,163409,1,0,0:0:0:0:
235,269,163762,1,0,0:0:0:0:
347,283,164115,1,0,0:0:0:0:
261,296,164468,1,0,0:0:0:0:
321,315,164821,1,0,0:0:0:0:
265,326,165174,1,0,0:0:0:0:
293,348,165527,1,0,0:0:0:0:
248,353,165880,1,0,0:0:0:0:
215,359,166233,1,0,0:0:0:0:
175,329,166586,1,0,0:0:0:0:
144,266,166939,1,0,0:0:0:0:
144,184,167291,1,0,0:0:0:0:
191,106,167644,1,0,0:0:0:0:
270,52,167997,6,0,L|269:84,1,17.9999994506836
276,309,168349,2,0,L|277:280,1,17.9999994506836
98,185,168702,2,0,L|131:185,1,17.9999994506836
444,189,169055,2,0,L|412:190,1,17.9999994506836
64,272,169409,5,0,0:0:0:0:
90,308,169586,1,0,0:0:0:0:
230,308,169762,1,0,0:0:0:0:
199,271,169939,1,0,0:0:0:0:
144,128,170115,1,0,0:0:0:0:
175,162,170291,1,0,0:0:0:0:
372,275,170468,1,0,0:0:0:0:
338,240,170644,1,0,0:0:0:0:
286,85,170821,1,0,0:0:0:0:
319,118,170997,1,0,0:0:0:0:
467,118,171174,1,0,0:0:0:0:
437,77,171350,1,0,0:0:0:0:
416,200,171527,1,0,0:0:0:0:
428,246,171703,1,0,0:0:0:0:
304,112,171880,1,0,0:0:0:0:
263,89,172056,1,0,0:0:0:0:
315,266,172233,1,0,0:0:0:0:
296,326,172409,1,0,0:0:0:0:
195,176,172586,1,0,0:0:0:0:
139,197,172762,1,0,0:0:0:0:
363,224,172939,1,0,0:0:0:0:
362,313,173115,1,0,0:0:0:0:
243,132,173291,1,0,0:0:0:0:
145,135,173468,1,0,0:0:0:0:
397,174,173644,1,0,0:0:0:0:
448,310,173821,1,0,0:0:0:0:
288,93,173997,1,0,0:0:0:0:
124,65,174174,1,0,0:0:0:0:
426,117,174350,1,0,0:0:0:0:
512,275,174527,1,0,0:0:0:0:
338,58,174703,1,0,0:0:0:0:
121,0,174880,1,0,0:0:0:0:
40,209,175056,5,0,0:0:0:0:
60,258,175144,1,0,0:0:0:0:
95,301,175233,1,0,0:0:0:0:
144,327,175321,1,0,0:0:0:0:
192,343,175409,1,0,0:0:0:0:
244,348,175497,1,0,0:0:0:0:
294,331,175586,1,0,0:0:0:0:
342,305,175674,1,0,0:0:0:0:
386,270,175762,1,0,0:0:0:0:
416,221,175850,1,0,0:0:0:0:
433,169,175939,1,0,0:0:0:0:
443,114,176027,1,0,0:0:0:0:
426,64,176115,1,0,0:0:0:0:
380,32,176203,1,0,0:0:0:0:
329,15,176291,1,0,0:0:0:0:
274,20,176380,1,0,0:0:0:0:
236,111,176468,1,0,0:0:0:0:
291,102,176556,1,0,0:0:0:0:
347,101,176644,1,0,0:0:0:0:
401,107,176733,1,0,0:0:0:0:
449,130,176821,1,0,0:0:0:0:
488,168,176909,1,0,0:0:0:0:
494,220,176997,1,0,0:0:0:0:
483,275,177086,1,0,0:0:0:0:
461,327,177174,1,0,0:0:0:0:
413,353,177262,1,0,0:0:0:0:
358,357,177350,1,0,0:0:0:0:
307,343,177439,1,0,0:0:0:0:
278,299,177527,1,0,0:0:0:0:
276,248,177615,1,0,0:0:0:0:
304,205,177703,1,0,0:0:0:0:
359,201,177791,1,0,0:0:0:0:
321,281,177880,6,0,L|290:281,1,30
257,281,177968,2,0,L|225:280,1,30
193,278,178056,2,0,L|161:278,1,30
129,277,178144,2,0,L|96:276,1,30
75,277,178232,2,0,L|38:277,1,30
106,222,178321,2,0,L|68:221,1,30
136,168,178409,2,0,L|97:166,1,30
170,115,178497,2,0,L|132:114,1,30
203,62,178585,2,0,L|165:62,1,30
268,66,178674,2,0,L|238:65,1,30
329,69,178762,2,0,L|293:69,1,30
390,74,178850,2,0,L|352:74,1,30
450,76,178938,2,0,L|416:77,1,30
421,129,179027,2,0,L|389:129,1,30
392,181,179115,2,0,L|359:179,1,30
358,230,179203,2,0,L|319:230,1,30
286,342,179291,6,0,L|246:341,1,30
210,10,179643,2,0,L|245:10,1,30
510,77,179996,2,0,L|494:112,1,30
10,275,180349,2,0,L|29:244,1,30
