osu file format v14

[General]
AudioFilename: Old is Gold.mp3
AudioLeadIn: 0
PreviewTime: 21470
Countdown: 1
SampleSet: None
StackLeniency: 0.9
Mode: 0
LetterboxInBreaks: 1
WidescreenStoryboard: 1

[Editor]
DistanceSpacing: 0.9
BeatDivisor: 4
GridSize: 4
TimelineZoom: 1.9

[Metadata]
Title:Old is Gold
TitleUnicode:Old is Gold
Artist:aran
ArtistUnicode:aran
Creator:jaaakb
Version:extra1
Source:
Tags:hola bueno senor
BeatmapID:746729
BeatmapSetID:243771

[Difficulty]
HPDrainRate:7
CircleSize:4
OverallDifficulty:8
ApproachRate:9
SliderMultiplier:2.1
SliderTickRate:4

[Events]
//Background and Video events
0,0,"-moon-a.jpg",0,0
//Break Periods
//Storyboard Layer 0 (Background)
//Storyboard Layer 1 (Fail)
//Storyboard Layer 2 (Pass)
//Storyboard Layer 3 (Foreground)
//Storyboard Sound Samples

[TimingPoints]
0,352.941176470588,4,1,0,100,1,0
176,-200,4,1,0,80,0,0
11558,-100,4,1,0,80,0,0
12882,-200,4,1,0,80,0,0
12970,-100,4,1,0,80,0,0
14294,-200,4,1,0,80,0,0
14382,-100,4,1,0,80,0,0
15705,-200,4,1,0,80,0,0
15794,-100,4,1,0,80,0,0
16588,-200,4,1,0,80,0,0
17205,-100,4,1,0,80,0,0
18529,-200,4,1,0,80,0,0
18617,-100,4,1,0,80,0,0
19941,-200,4,1,0,80,0,0
20029,-100,4,1,0,80,0,0
21352,-200,4,1,0,80,0,0
22499,-100,4,1,0,80,0,0
27882,-200,4,1,0,80,0,0
28235,-100,4,1,0,80,0,0
33882,3529.41176470588,4,1,0,100,1,0
39176,352.941176470588,4,1,0,100,1,0
43676,176.470588235294,4,1,0,100,1,0
44823,352.941176470588,4,1,0,100,1,0
44911,-50,4,1,0,100,0,0
45264,-100,4,1,0,100,0,0
53911,-83.3333333333333,4,1,0,100,0,0
54264,-71.4285714285714,4,1,0,100,0,0
54617,-62.5,4,1,0,100,0,0
54970,-55.5555555555556,4,1,0,100,0,0
56470,-100,4,1,0,100,0,0
67675,-74.0740740740741,4,1,0,100,0,0
72705,-60.6060606060606,4,1,0,100,0,0
95293,-55.5555555555556,4,1,0,100,0,0
100145,-200,4,1,0,100,0,0
100234,705.882352941176,4,1,0,100,1,0
101513,-55.5555555555556,4,1,0,100,0,0
101646,352.941176470588,4,1,0,100,1,0
101646,-55.5555555555556,4,1,0,100,0,0
111528,705.882352941176,4,1,0,100,1,0
111528,-200,4,1,0,100,0,0
132704,176.470588235294,4,1,0,100,1,0
134116,705.882352941176,4,1,0,100,1,0
134821,-166.666666666667,4,2,0,40,0,0
157939,352.941176470588,4,1,0,80,1,0
158821,-200,4,1,0,80,0,0
163762,-66.6666666666667,4,1,0,80,0,0
167997,705.882352941176,4,2,0,60,1,0
167997,-166.666666666667,4,2,0,60,0,0
169233,352.941176470588,4,1,0,80,1,0
177880,176.470588235294,4,1,0,80,1,0
179291,352.941176470588,4,1,0,80,1,0
179291,-200,4,1,0,80,0,0

[Colours]
Combo1 : 88,178,82
Combo2 : 215,79,182
Combo3 : 3,59,98
Combo4 : 156,186,215
Combo5 : 213,71,237
Combo6 : 110,70,198
Combo7 : 6,55,197
Combo8 : 172,227,40

[HitObjects]
149,115,0,5,0,0:0:0:0:
190,92,88,1,0,0:0:0:0:
236,84,176,1,8,0:0:0:0:
213,77,264,1,0,0:0:0:0:
127,78,441,1,8,0:0:0:0:
145,62,529,5,0,0:0:0:0:
234,31,705,1,6,0:0:0:0:
256,24,794,2,0,B|282:21,1,26.25,0|4,0:0|0:0,0:0:0:0:
305,16,970,1,0,0:0:0:0:
389,8,1147,1,0,0:0:0:0:
389,31,1235,1,0,0:0:0:0:
410,41,1323,1,8,0:0:0:0:
418,63,1411,5,2,0:0:0:0:
396,73,1500,1,0,0:0:0:0:
395,96,1588,1,0,0:0:0:0:
382,184,1764,1,2,0:0:0:0:
360,193,1852,1,0,0:0:0:0:
352,170,1941,1,0,0:0:0:0:
367,151,2029,1,0,0:0:0:0:
385,136,2117,1,0,0:0:0:0:
334,61,2294,5,0,0:0:0:0:
253,22,2470,2,0,B|247:27|247:27|242:32|235:34|230:32,3,26.25,0|0|0|0,0:0|0:0|0:0|0:0,0:0:0:0:
219,53,2823,1,8,0:0:0:0:
234,70,2911,1,0,0:0:0:0:
171,103,3088,1,0,0:0:0:0:
102,135,3264,1,0,0:0:0:0:
118,151,3352,1,8,0:0:0:0:
128,172,3441,1,4,0:0:0:0:
116,192,3529,6,0,B|108:192|105:198|105:198|101:204|94:204,3,26.25,0|2|4|0,0:0|0:0|0:0|0:0,0:0:0:0:
14,218,3970,1,0,0:0:0:0:
20,240,4058,1,2,0:0:0:0:
33,259,4147,1,0,0:0:0:0:
54,269,4235,1,0,0:0:0:0:
78,335,4411,1,8,0:0:0:0:
85,312,4500,1,0,0:0:0:0:
102,296,4588,2,0,B|107:300|114:297|114:297|121:295|126:299,1,26.25,0|0,0:0|0:0,0:0:0:0:
148,306,4764,6,0,B|160:328,3,26.25,2|0|4|0,0:0|0:0|0:0|0:0,0:0:0:0:
145,309,5117,1,0,0:0:0:0:
122,302,5205,2,0,B|110:293|97:298,3,26.25,2|8|4|0,0:0|0:0|0:0|0:0,0:0:0:0:
76,309,5558,1,0,0:0:0:0:
74,332,5647,2,0,B|75:345|75:345|63:339,3,26.25,8|0|0|0,0:0|0:0|0:0|0:0,0:0:0:0:
67,362,6000,1,0,0:0:0:0:
44,370,6088,2,0,B|49:376|59:378|59:378|66:373,1,26.25,8|0,0:0|0:0,0:0:0:0:
77,352,6264,1,8,0:0:0:0:
100,347,6352,5,4,0:0:0:0:
118,332,6441,1,0,0:0:0:0:
109,309,6529,1,2,0:0:0:0:
125,292,6617,1,0,0:0:0:0:
141,198,6794,1,8,0:0:0:0:
169,132,6970,1,0,0:0:0:0:
243,143,7147,1,4,0:0:0:0:
266,137,7235,1,6,0:0:0:0:
285,150,7323,5,2,0:0:0:0:
288,173,7411,1,4,0:0:0:0:
244,245,7588,2,0,B|230:243|220:253,1,26.25,0|8,0:0|0:0,0:0:0:0:
232,272,7764,1,0,0:0:0:0:
255,274,7852,2,0,B|265:298,3,26.25,0|6|10|0,0:0|0:0|0:0|0:0,0:0:0:0:
256,192,8205,12,4,9970,0:0:0:0:
508,248,10852,6,0,B|509:262|498:271,3,26.25,0|0|8|8,0:0|0:0|0:0|0:0,0:0:0:0:
476,261,11205,1,0,0:0:0:0:
496,249,11294,1,8,0:0:0:0:
506,155,11470,5,2,0:0:0:0:
497,133,11558,1,0,0:0:0:0:
403,26,11734,1,0,0:0:0:0:
361,4,11823,1,0,0:0:0:0:
203,35,11999,1,0,0:0:0:0:
156,29,12087,1,2,0:0:0:0:
24,103,12264,1,0,0:0:0:0:
26,254,12440,1,2,0:0:0:0:
110,85,12617,5,0,0:0:0:0:
295,49,12793,1,0,0:0:0:0:
442,168,12970,1,0,0:0:0:0:
464,28,13146,2,0,B|511:5,1,52.5,4|0,0:0|0:0,0:0:0:0:
481,191,13411,1,2,0:0:0:0:
427,372,13588,5,2,0:0:0:0:
379,367,13676,1,0,0:0:0:0:
332,372,13764,1,2,0:0:0:0:
286,383,13852,2,0,B|233:382,1,52.5,8|0,0:0|0:0,0:0:0:0:
96,342,14117,5,8,0:0:0:0:
72,301,14205,1,2,0:0:0:0:
89,131,14382,1,0,0:0:0:0:
58,95,14470,1,0,0:0:0:0:
28,57,14558,2,0,B|29:4,3,52.5,0|12|0|4,0:0|0:0|0:0|0:0,0:0:0:0:
44,163,15000,1,0,0:0:0:0:
77,196,15088,1,0,0:0:0:0:
66,242,15176,1,0,0:0:0:0:
131,367,15353,6,0,B|162:364|162:364|174:366|178:375,1,52.5,4|10,0:0|0:0,0:0:0:0:
222,359,15529,2,0,B|234:351|234:351|247:344|253:330|252:320,3,52.5,0|2|0|2,0:0|0:0|0:0|0:0,0:0:0:0:
228,324,15882,1,2,0:0:0:0:
193,355,15970,1,0,0:0:0:0:
147,341,16059,1,0,0:0:0:0:
123,300,16147,1,0,0:0:0:0:
99,258,16235,1,0,0:0:0:0:
17,87,16412,1,0,0:0:0:0:
33,42,16500,5,0,0:0:0:0:
207,85,16676,1,4,0:0:0:0:
201,108,16764,1,2,0:0:0:0:
182,122,16853,1,0,0:0:0:0:
160,132,16941,1,0,0:0:0:0:
87,97,17117,1,10,0:0:0:0:
104,81,17205,5,8,0:0:0:0:
98,34,17293,1,0,0:0:0:0:
143,168,17470,1,0,0:0:0:0:
177,200,17558,1,8,0:0:0:0:
191,244,17646,1,8,0:0:0:0:
219,282,17734,1,2,0:0:0:0:
206,327,17823,2,0,B|210:340|224:344|224:344|237:348|242:362,3,52.5,0|2|0|0,0:0|0:0|0:0|0:0,0:0:0:0:
289,364,18176,1,0,0:0:0:0:
417,225,18352,5,10,0:0:0:0:
458,201,18440,1,0,0:0:0:0:
467,21,18617,1,0,0:0:0:0:
306,32,18793,5,8,0:0:0:0:
291,182,18970,1,8,0:0:0:0:
324,215,19058,1,8,0:0:0:0:
329,261,19146,1,2,0:0:0:0:
363,293,19235,1,0,0:0:0:0:
354,339,19323,1,0,0:0:0:0:
312,360,19411,1,0,0:0:0:0:
271,335,19499,1,0,0:0:0:0:
242,297,19588,5,8,0:0:0:0:
229,251,19676,1,0,0:0:0:0:
122,118,19852,1,0,0:0:0:0:
101,75,19941,5,0,0:0:0:0:
53,68,20029,1,0,0:0:0:0:
11,44,20117,1,2,0:0:0:0:
58,40,20205,1,2,0:0:0:0:
102,25,20294,1,12,0:0:0:0:
147,12,20382,1,2,0:0:0:0:
184,40,20470,1,0,0:0:0:0:
300,176,20647,1,0,0:0:0:0:
341,198,20735,6,0,B|355:189|362:169|362:169|354:154,1,52.5,12|2,0:0|0:0,0:0:0:0:
372,110,20911,1,2,0:0:0:0:
347,69,21000,1,0,0:0:0:0:
179,39,21176,5,0,0:0:0:0:
131,39,21264,1,8,0:0:0:0:
85,29,21352,1,0,0:0:0:0:
98,9,21440,1,0,0:0:0:0:
50,79,21617,1,0,0:0:0:0:
70,67,21705,1,4,0:0:0:0:
158,81,21881,1,0,0:0:0:0:
178,93,21970,1,0,0:0:0:0:
200,87,22058,5,0,0:0:0:0:
221,76,22146,2,0,B|234:73|240:60,3,26.25,0|0|0|0,0:0|0:0|0:0|0:0,0:0:0:0:
261,70,22499,1,0,0:0:0:0:
303,48,22587,1,0,0:0:0:0:
472,39,22764,1,2,0:0:0:0:
512,63,22852,5,0,0:0:0:0:
512,233,23028,1,0,0:0:0:0:
375,364,23205,2,0,B|364:354|350:358|350:358|336:361|325:352,3,52.5,6|2|0|0,0:0|0:0|0:0|0:0,0:0:0:0:
278,345,23558,1,2,0:0:0:0:
163,261,23734,2,0,B|140:283|140:283|129:289|120:284,3,52.5,0|0|0|0,0:0|0:0|0:0|0:0,0:0:0:0:
79,259,24087,1,4,0:0:0:0:
33,270,24175,1,0,0:0:0:0:
6,111,24352,1,0,0:0:0:0:
39,77,24440,5,0,0:0:0:0:
207,54,24617,1,0,0:0:0:0:
366,76,24793,1,0,0:0:0:0:
408,95,24881,1,2,0:0:0:0:
454,86,24970,1,10,0:0:0:0:
497,103,25058,1,4,0:0:0:0:
467,139,25146,1,0,0:0:0:0:
459,185,25234,1,8,0:0:0:0:
438,227,25323,5,0,0:0:0:0:
426,272,25411,1,0,0:0:0:0:
266,213,25587,1,0,0:0:0:0:
219,223,25675,6,0,B|202:243|202:243|194:218,1,52.5,0|4,0:0|0:0,0:0:0:0:
153,192,25852,2,0,B|133:171|105:173,1,52.5,0|0,0:0|0:0,0:0:0:0:
79,133,26028,1,0,0:0:0:0:
90,87,26117,1,0,0:0:0:0:
68,45,26205,2,0,B|71:71|71:71|47:59,3,52.5,2|0|8|8,0:0|0:0|0:0|0:0,0:0:0:0:
20,98,26558,2,0,B|35:106|42:125|42:125|35:140,1,52.5,2|8,0:0|0:0,0:0:0:0:
59,180,26734,1,0,0:0:0:0:
55,227,26823,1,8,0:0:0:0:
56,274,26911,5,0,0:0:0:0:
37,317,26999,2,0,B|48:342|35:367,1,52.5,0|2,0:0|0:0,0:0:0:0:
23,321,27175,1,0,0:0:0:0:
52,284,27264,1,2,0:0:0:0:
21,248,27352,1,0,0:0:0:0:
14,201,27440,1,4,0:0:0:0:
16,153,27528,1,0,0:0:0:0:
49,119,27617,5,0,0:0:0:0:
167,10,27793,1,0,0:0:0:0:
346,25,27970,1,0,0:0:0:0:
360,6,28058,2,0,B|353:3|347:7|347:7|341:11|335:9,3,26.25,0|0|8|0,0:0|0:0|0:0|0:0,0:0:0:0:
424,130,28500,1,0,0:0:0:0:
465,152,28588,1,0,0:0:0:0:
487,110,28676,1,0,0:0:0:0:
497,63,28764,1,0,0:0:0:0:
468,25,28853,5,2,0:0:0:0:
298,39,29029,2,0,B|273:53|271:81,1,52.5,4|4,0:0|0:0,0:0:0:0:
225,67,29206,2,0,B|227:38|250:23,1,52.5,0|0,0:0|0:0,0:0:0:0:
229,182,29470,1,0,0:0:0:0:
237,228,29559,1,2,0:0:0:0:
278,250,29647,1,2,0:0:0:0:
316,277,29735,1,0,0:0:0:0:
325,323,29823,1,0,0:0:0:0:
372,323,29911,5,0,0:0:0:0:
402,286,30000,1,0,0:0:0:0:
382,243,30088,2,0,B|379:214|399:195,3,52.5,0|0|8|0,0:0|0:0|0:0|0:0,0:0:0:0:
439,170,30441,1,0,0:0:0:0:
485,178,30529,1,0,0:0:0:0:
504,221,30617,1,0,0:0:0:0:
512,267,30706,1,0,0:0:0:0:
487,307,30794,5,2,0:0:0:0:
498,352,30882,1,8,0:0:0:0:
312,317,31059,1,4,0:0:0:0:
464,221,31235,1,0,0:0:0:0:
511,221,31323,1,2,0:0:0:0:
484,72,31500,1,2,0:0:0:0:
504,29,31588,2,0,B|476:24|462:0,3,52.5,8|0|0|8,0:0|0:0|0:0|0:0,0:0:0:0:
418,18,31941,1,2,0:0:0:0:
378,44,32029,5,2,0:0:0:0:
268,198,32206,2,0,B|289:216|286:244,1,52.5,0|0,0:0|0:0,0:0:0:0:
124,298,32470,1,8,0:0:0:0:
261,334,32647,5,0,0:0:0:0:
434,380,32823,2,0,B|459:391|484:377,3,52.5,12|0|2|10,0:0|0:0|0:0|0:0,0:0:0:0:
503,236,33264,1,2,0:0:0:0:
342,180,33441,1,0,0:0:0:0:
231,26,33617,1,0,0:0:0:0:
206,66,33706,6,0,B|211:82|202:101|202:101|187:107,1,52.5,0|2,0:0|0:0,0:0:0:0:
362,219,34764,1,0,0:0:0:0:
358,266,35647,1,2,0:0:0:0:
341,310,36529,1,0,0:0:0:0:
362,352,37411,2,0,B|376:351|384:340|384:340|392:328|406:328,3,52.5,2|0|0|0,0:0|0:0|0:0|0:0,0:0:0:0:
408,280,40147,1,0,0:0:0:0:
313,173,40323,1,0,0:0:0:0:
285,134,40411,1,2,0:0:0:0:
96,143,40588,5,0,0:0:0:0:
274,206,40764,1,0,0:0:0:0:
413,232,40941,1,0,0:0:0:0:
453,256,41029,1,0,0:0:0:0:
328,372,41205,1,8,0:0:0:0:
160,344,41382,1,0,0:0:0:0:
256,192,41470,12,0,43941,0:0:0:0:
478,186,44691,5,0,0:0:0:0:
484,365,44779,1,0,0:0:0:0:
489,318,44823,1,0,0:0:0:0:
509,275,44911,1,8,0:0:0:0:
285,71,45087,1,0,0:0:0:0:
213,133,45176,1,0,0:0:0:0:
199,226,45264,2,0,B|232:279|232:279|240:303|227:318,3,105,0|10|2|0,0:0|0:0|0:0|0:0,0:0:0:0:
217,364,45617,1,0,0:0:0:0:
172,381,45705,6,0,B|157:389|136:385|136:385|127:371,3,52.5,0|0|0|0,0:0|0:0|0:0|0:0,0:0:0:0:
97,333,46058,2,0,B|83:308|94:282,1,52.5,0|0,0:0|0:0,0:0:0:0:
7,124,46323,2,0,B|-2:131|-2:131|3:90,1,52.5,0|4,0:0|0:0,0:0:0:0:
26,48,46499,1,4,0:0:0:0:
194,23,46676,1,0,0:0:0:0:
341,141,46852,1,2,0:0:0:0:
374,174,46940,2,0,B|385:187|405:189|405:189|418:179,3,52.5,0|0|0|0,0:0|0:0|0:0|0:0,0:0:0:0:
363,37,47382,1,0,0:0:0:0:
323,10,47470,5,0,0:0:0:0:
290,43,47558,1,0,0:0:0:0:
301,88,47646,1,0,0:0:0:0:
272,125,47735,1,0,0:0:0:0:
233,152,47823,2,0,B|211:137|211:137|210:163,1,52.5,0|2,0:0|0:0,0:0:0:0:
177,197,47999,1,0,0:0:0:0:
153,238,48088,1,8,0:0:0:0:
106,230,48176,5,0,0:0:0:0:
60,242,48264,1,10,0:0:0:0:
14,254,48352,1,8,0:0:0:0:
38,294,48440,2,0,B|22:300|13:320|13:320|19:335,1,52.5,0|0,0:0|0:0,0:0:0:0:
66,335,48617,1,0,0:0:0:0:
107,312,48705,1,0,0:0:0:0:
142,280,48793,1,8,0:0:0:0:
150,233,48882,1,0,0:0:0:0:
172,191,48970,5,0,0:0:0:0:
159,145,49058,2,0,B|160:92,1,52.5,4|8,0:0|0:0,0:0:0:0:
137,50,49235,1,0,0:0:0:0:
100,19,49323,1,0,0:0:0:0:
54,4,49411,1,0,0:0:0:0:
7,14,49499,1,0,0:0:0:0:
20,59,49588,1,0,0:0:0:0:
49,95,49676,1,14,0:0:0:0:
88,120,49764,5,8,0:0:0:0:
239,125,49940,2,0,B|255:102|283:101,1,52.5,2|0,0:0|0:0,0:0:0:0:
329,94,50117,1,0,0:0:0:0:
485,128,50293,1,0,0:0:0:0:
506,170,50382,5,2,0:0:0:0:
366,144,50558,1,0,0:0:0:0:
319,134,50646,1,0,0:0:0:0:
272,126,50735,1,8,0:0:0:0:
225,135,50823,1,2,0:0:0:0:
177,134,50911,2,0,B|194:160|194:160|199:171|192:179,3,52.5,0|10|8|8,0:0|0:0|0:0|0:0,0:0:0:0:
171,221,51264,1,0,0:0:0:0:
153,265,51352,2,0,B|157:278|157:278|161:292|173:302|183:303,1,52.5,0|0,0:0|0:0,0:0:0:0:
222,328,51529,5,8,0:0:0:0:
268,337,51617,1,0,0:0:0:0:
360,205,51793,1,8,0:0:0:0:
390,28,51970,1,0,0:0:0:0:
348,6,52058,1,2,0:0:0:0:
391,170,52235,1,2,0:0:0:0:
430,144,52323,1,0,0:0:0:0:
477,145,52411,1,0,0:0:0:0:
326,88,52588,5,8,0:0:0:0:
301,47,52676,1,0,0:0:0:0:
308,0,52764,1,2,0:0:0:0:
260,4,52852,1,0,0:0:0:0:
296,140,53029,1,2,0:0:0:0:
340,155,53117,1,0,0:0:0:0:
385,142,53205,1,2,0:0:0:0:
396,96,53293,5,0,0:0:0:0:
226,104,53470,1,0,0:0:0:0:
182,84,53558,1,0,0:0:0:0:
5,115,53735,5,0,0:0:0:0:
24,302,53911,2,0,B|46:332|46:332|58:341|69:337,1,63,0|12,0:0|0:0,0:0:0:0:
125,345,54087,1,0,0:0:0:0:
318,250,54264,1,0,0:0:0:0:
501,116,54440,6,0,B|493:97|504:80|504:80|514:64|507:45,1,73.5,4|2,0:0|0:0,0:0:0:0:
452,82,54617,1,0,0:0:0:0:
456,148,54705,1,0,0:0:0:0:
173,96,54882,5,4,0:0:0:0:
98,83,54970,2,0,B|71:78|50:51|50:51|53:25,1,84,4|2,0:0|0:0,0:0:0:0:
9,98,55146,1,10,0:0:0:0:
86,132,55235,1,0,0:0:0:0:
154,182,55323,1,0,0:0:0:0:
471,243,55499,1,0,0:0:0:0:
208,172,55676,5,0,0:0:0:0:
141,119,55764,1,10,0:0:0:0:
69,73,55852,1,0,0:0:0:0:
19,4,55941,1,10,0:0:0:0:
99,31,56029,1,0,0:0:0:0:
387,18,56205,1,0,0:0:0:0:
470,34,56294,5,10,0:0:0:0:
402,280,56470,1,10,0:0:0:0:
239,355,56646,1,0,0:0:0:0:
192,363,56735,1,2,0:0:0:0:
145,369,56823,2,0,B|115:357|115:357|105:350|106:340,1,52.5,4|2,0:0|0:0,0:0:0:0:
67,366,56999,2,0,B|15:375,1,52.5,0|2,0:0|0:0,0:0:0:0:
18,327,57176,1,0,0:0:0:0:
7,280,57264,2,0,B|33:234,1,52.5,0|0,0:0|0:0,0:0:0:0:
65,268,57441,5,2,0:0:0:0:
232,240,57617,1,4,0:0:0:0:
252,197,57705,1,8,0:0:0:0:
348,68,57882,1,0,0:0:0:0:
502,159,58058,1,0,0:0:0:0:
510,205,58146,1,0,0:0:0:0:
481,242,58235,1,0,0:0:0:0:
440,266,58323,1,0,0:0:0:0:
392,265,58411,5,0,0:0:0:0:
344,262,58499,1,2,0:0:0:0:
321,220,58588,1,8,0:0:0:0:
282,192,58676,5,8,0:0:0:0:
252,155,58764,1,0,0:0:0:0:
228,113,58852,1,0,0:0:0:0:
193,145,58941,1,8,0:0:0:0:
146,138,59029,1,0,0:0:0:0:
102,120,59117,1,0,0:0:0:0:
66,88,59205,1,0,0:0:0:0:
55,41,59294,1,0,0:0:0:0:
16,12,59382,5,2,0:0:0:0:
32,152,59558,2,0,B|49:174|41:201,3,52.5,0|0|0|0,0:0|0:0|0:0|0:0,0:0:0:0:
29,246,59911,1,0,0:0:0:0:
96,90,60088,1,0,0:0:0:0:
135,64,60176,1,0,0:0:0:0:
181,72,60264,1,8,0:0:0:0:
227,61,60352,1,0,0:0:0:0:
260,27,60441,1,0,0:0:0:0:
307,26,60529,5,0,0:0:0:0:
350,43,60617,1,8,0:0:0:0:
370,85,60705,1,0,0:0:0:0:
339,49,60794,1,0,0:0:0:0:
306,14,60882,1,8,0:0:0:0:
259,6,60970,1,0,0:0:0:0:
428,21,61146,1,0,0:0:0:0:
369,200,61323,1,0,0:0:0:0:
325,218,61411,5,4,0:0:0:0:
301,259,61499,1,2,0:0:0:0:
302,306,61588,2,0,B|323:323|322:351,3,52.5,0|0|0|2,0:0|0:0|0:0|0:0,0:0:0:0:
510,368,62029,6,0,B|491:318,3,52.5,0|0|0|2,0:0|0:0|0:0|0:0,0:0:0:0:
461,280,62382,1,8,0:0:0:0:
322,218,62558,1,0,0:0:0:0:
296,178,62646,1,0,0:0:0:0:
342,34,62823,1,0,0:0:0:0:
388,24,62911,5,0,0:0:0:0:
256,192,62999,12,0,65470,0:0:0:0:
385,277,65911,5,0,0:0:0:0:
340,261,65999,1,0,0:0:0:0:
221,355,66176,1,0,0:0:0:0:
387,319,66352,1,0,0:0:0:0:
433,324,66441,1,0,0:0:0:0:
480,323,66529,1,0,0:0:0:0:
511,357,66617,1,0,0:0:0:0:
508,309,66705,5,0,0:0:0:0:
467,285,66794,1,8,0:0:0:0:
452,240,66882,2,0,B|438:215|410:210,1,52.5,0|8,0:0|0:0,0:0:0:0:
389,167,67058,1,0,0:0:0:0:
410,124,67146,1,0,0:0:0:0:
273,85,67323,2,0,B|245:89|224:70,1,52.5,0|0,0:0|0:0,0:0:0:0:
186,98,67499,5,0,0:0:0:0:
146,123,67588,1,0,0:0:0:0:
125,309,67763,1,0,0:0:0:0:
136,371,67851,1,0,0:0:0:0:
187,333,67940,2,0,B|198:291|198:291|206:277|220:276,3,70.875,0|2|2|2,0:0|0:0|0:0|0:0,0:0:0:0:
243,216,68293,1,0,0:0:0:0:
288,170,68381,1,0,0:0:0:0:
290,106,68469,1,0,0:0:0:0:
302,43,68557,5,0,0:0:0:0:
107,106,68734,1,0,0:0:0:0:
66,154,68822,1,0,0:0:0:0:
252,198,68999,2,0,B|319:218,1,70.875,8|0,0:0|0:0,0:0:0:0:
381,231,69175,1,0,0:0:0:0:
410,287,69263,1,0,0:0:0:0:
425,225,69351,1,2,0:0:0:0:
392,170,69440,1,0,0:0:0:0:
338,204,69528,5,8,0:0:0:0:
146,197,69704,1,0,0:0:0:0:
84,181,69793,1,0,0:0:0:0:
292,239,69969,1,0,0:0:0:0:
336,284,70057,2,0,B|382:337,3,70.875,8|0|0|0,0:0|0:0|0:0|0:0,0:0:0:0:
434,372,70410,1,0,0:0:0:0:
497,367,70499,1,4,0:0:0:0:
436,348,70587,5,0,0:0:0:0:
373,359,70675,1,2,0:0:0:0:
402,105,70851,1,0,0:0:0:0:
439,53,70940,1,0,0:0:0:0:
238,89,71116,1,8,0:0:0:0:
178,111,71204,1,8,0:0:0:0:
120,84,71293,1,8,0:0:0:0:
80,33,71381,1,0,0:0:0:0:
282,10,71557,6,0,B|310:34|348:26,1,70.875,0|0,0:0|0:0,0:0:0:0:
395,69,71734,1,10,0:0:0:0:
458,75,71822,1,2,0:0:0:0:
493,128,71910,1,2,0:0:0:0:
503,190,71999,1,0,0:0:0:0:
472,246,72087,1,0,0:0:0:0:
461,308,72175,2,0,B|433:340|433:340|418:349|406:344,3,70.875,0|0|0|0,0:0|0:0|0:0|0:0,0:0:0:0:
343,332,72528,2,0,B|335:310|310:296|310:296|289:303,1,70.875,0|8,0:0|0:0,0:0:0:0:
225,312,72704,5,0,0:0:0:0:
161,317,72793,1,8,0:0:0:0:
116,380,72881,1,8,0:0:0:0:
38,381,72970,1,0,0:0:0:0:
74,312,73058,2,0,B|152:275,1,86.625,2|0,0:0|0:0,0:0:0:0:
213,227,73234,1,2,0:0:0:0:
289,210,73323,1,8,0:0:0:0:
325,141,73411,1,2,0:0:0:0:
325,63,73499,5,8,0:0:0:0:
383,11,73587,1,2,0:0:0:0:
281,305,73764,1,0,0:0:0:0:
331,364,73852,2,0,B|372:343|414:364,3,86.625,4|8|0|0,0:0|0:0|0:0|0:0,0:0:0:0:
480,323,74205,1,0,0:0:0:0:
490,245,74293,1,2,0:0:0:0:
440,185,74381,1,0,0:0:0:0:
397,119,74470,1,8,0:0:0:0:
416,43,74558,6,0,B|462:49|484:90,3,86.625,0|0|10|0,0:0|0:0|0:0|0:0,0:0:0:0:
476,12,74911,1,10,0:0:0:0:
214,57,75087,1,0,0:0:0:0:
48,283,75264,1,0,0:0:0:0:
8,350,75352,1,0,0:0:0:0:
84,362,75440,1,0,0:0:0:0:
363,332,75617,2,0,B|448:347,1,86.625,0|2,0:0|0:0,0:0:0:0:
505,294,75793,1,0,0:0:0:0:
252,111,75970,5,2,0:0:0:0:
214,42,76058,1,0,0:0:0:0:
128,292,76234,1,0,0:0:0:0:
416,357,76411,1,0,0:0:0:0:
490,379,76499,1,0,0:0:0:0:
481,301,76587,1,0,0:0:0:0:
494,224,76676,1,2,0:0:0:0:
492,146,76764,1,0,0:0:0:0:
476,69,76852,6,0,B|430:57|412:15,3,86.625,2|4|0|0,0:0|0:0|0:0|0:0,0:0:0:0:
132,36,77293,2,0,B|111:16|77:15|77:15|57:34,1,86.625,0|0,0:0|0:0,0:0:0:0:
4,91,77470,1,10,0:0:0:0:
18,167,77558,1,2,0:0:0:0:
90,194,77646,1,0,0:0:0:0:
153,239,77734,5,0,0:0:0:0:
207,294,77823,1,8,0:0:0:0:
253,356,77911,1,0,0:0:0:0:
327,380,77999,1,0,0:0:0:0:
394,340,78087,1,2,0:0:0:0:
469,321,78176,5,0,0:0:0:0:
492,246,78264,2,0,B|506:228|501:205|501:205|495:182|510:164,1,86.625,0|2,0:0|0:0,0:0:0:0:
468,98,78440,1,0,0:0:0:0:
422,34,78529,1,0,0:0:0:0:
110,53,78705,1,0,0:0:0:0:
34,73,78793,2,0,B|33:159,3,86.625,0|0|8|2,0:0|0:0|0:0|0:0,0:0:0:0:
50,235,79146,1,8,0:0:0:0:
11,302,79234,1,0,0:0:0:0:
5,379,79323,5,4,0:0:0:0:
78,351,79411,1,2,0:0:0:0:
102,277,79499,1,2,0:0:0:0:
171,240,79587,1,2,0:0:0:0:
179,162,79676,1,0,0:0:0:0:
143,92,79764,2,0,B|130:71|130:71|118:50|118:25|128:11,1,86.625,8|8,0:0|0:0,0:0:0:0:
64,56,79940,5,0,0:0:0:0:
102,124,80029,1,0,0:0:0:0:
82,48,80117,1,10,0:0:0:0:
9,77,80205,1,0,0:0:0:0:
48,9,80293,5,0,0:0:0:0:
125,2,80381,2,0,B|168:18|180:63,1,86.625,0|0,0:0|0:0,0:0:0:0:
167,139,80558,1,0,0:0:0:0:
16,375,80734,2,0,B|55:399|98:381,1,86.625,0|2,0:0|0:0,0:0:0:0:
50,72,80999,1,0,0:0:0:0:
91,5,81087,1,0,0:0:0:0:
18,34,81176,1,0,0:0:0:0:
47,106,81264,1,0,0:0:0:0:
63,182,81352,6,0,B|30:262,3,86.625,0|0|0|8,0:0|0:0|0:0|0:0,0:0:0:0:
72,327,81705,1,0,0:0:0:0:
134,373,81793,1,0,0:0:0:0:
425,320,81970,2,0,B|497:367,1,86.625,8|0,0:0|0:0,0:0:0:0:
445,308,82146,1,0,0:0:0:0:
367,318,82234,2,0,B|333:349|287:342,3,86.625,0|0|0|0,0:0|0:0|0:0|0:0,0:0:0:0:
224,295,82587,1,0,0:0:0:0:
146,297,82676,1,0,0:0:0:0:
68,298,82764,5,0,0:0:0:0:
33,228,82852,1,0,0:0:0:0:
53,152,82940,1,0,0:0:0:0:
103,92,83029,2,0,B|92:6,1,86.625,0|2,0:0|0:0,0:0:0:0:
43,313,83293,1,0,0:0:0:0:
10,383,83381,1,0,0:0:0:0:
87,372,83470,1,0,0:0:0:0:
164,374,83558,1,0,0:0:0:0:
221,321,83646,5,0,0:0:0:0:
298,322,83734,1,2,0:0:0:0:
244,265,83823,1,2,0:0:0:0:
166,274,83911,1,0,0:0:0:0:
93,302,83999,1,8,0:0:0:0:
47,364,84087,1,0,0:0:0:0:
262,161,84264,1,0,0:0:0:0:
190,128,84352,1,2,0:0:0:0:
462,12,84529,5,8,0:0:0:0:
384,1,84617,1,0,0:0:0:0:
314,35,84705,1,0,0:0:0:0:
378,78,84793,1,2,0:0:0:0:
436,129,84881,1,2,0:0:0:0:
250,379,85058,1,2,0:0:0:0:
172,374,85146,1,4,0:0:0:0:
107,330,85234,2,0,B|93:279|93:279|82:261|65:261,1,86.625,0|0,0:0|0:0,0:0:0:0:
205,36,85499,5,4,0:0:0:0:
282,26,85587,1,0,0:0:0:0:
355,51,85676,1,2,0:0:0:0:
419,6,85764,1,0,0:0:0:0:
496,12,85852,1,4,0:0:0:0:
388,271,86029,1,2,0:0:0:0:
148,341,86205,1,0,0:0:0:0:
87,292,86293,2,0,B|42:278|5:306,3,86.625,2|0|2|0,0:0|0:0|0:0|0:0,0:0:0:0:
32,378,86646,6,0,B|105:332,1,86.625,0|0,0:0|0:0,0:0:0:0:
140,262,86823,1,0,0:0:0:0:
145,184,86911,1,0,0:0:0:0:
133,106,86999,1,2,0:0:0:0:
65,66,87087,1,2,0:0:0:0:
11,9,87176,1,0,0:0:0:0:
47,271,87352,2,0,B|32:356,1,86.625,2|0,0:0|0:0,0:0:0:0:
83,297,87529,1,0,0:0:0:0:
122,364,87617,5,0,0:0:0:0:
199,371,87705,2,0,B|251:374|251:374|271:369|276:354,1,86.625,0|0,0:0|0:0,0:0:0:0:
344,316,87881,1,2,0:0:0:0:
353,238,87970,2,0,B|301:205|301:205|298:179,3,86.625,0|0|0|2,0:0|0:0|0:0|0:0,0:0:0:0:
259,246,88323,2,0,B|213:271|213:271|198:285|201:301,3,86.625,0|0|2|0,0:0|0:0|0:0|0:0,0:0:0:0:
218,377,88676,1,0,0:0:0:0:
257,309,88764,1,4,0:0:0:0:
24,151,88940,2,0,B|8:65,3,86.625,0|0|0|0,0:0|0:0|0:0|0:0,0:0:0:0:
53,1,89293,5,10,0:0:0:0:
130,6,89381,2,0,B|158:42|205:41,1,86.625,8|0,0:0|0:0,0:0:0:0:
280,20,89558,1,8,0:0:0:0:
254,93,89646,1,2,0:0:0:0:
232,167,89734,1,8,0:0:0:0:
45,333,89911,1,2,0:0:0:0:
114,297,89999,1,0,0:0:0:0:
348,91,90176,1,0,0:0:0:0:
417,55,90264,5,0,0:0:0:0:
492,74,90352,1,8,0:0:0:0:
460,145,90440,2,0,B|487:189|487:189|492:209|481:221,1,86.625,2|0,0:0|0:0,0:0:0:0:
469,298,90617,1,0,0:0:0:0:
322,115,90793,1,0,0:0:0:0:
309,38,90881,1,0,0:0:0:0:
231,35,90970,1,0,0:0:0:0:
93,243,91146,1,0,0:0:0:0:
402,277,91323,5,2,0:0:0:0:
103,185,91499,1,0,0:0:0:0:
51,126,91587,2,0,B|44:39,1,86.625,0|0,0:0|0:0,0:0:0:0:
305,83,91852,1,0,0:0:0:0:
380,101,91940,2,0,B|457:61,3,86.625,4|10|0|0,0:0|0:0|0:0|0:0,0:0:0:0:
506,0,92293,1,2,0:0:0:0:
431,23,92381,1,0,0:0:0:0:
355,2,92470,2,0,B|311:-15|272:9,3,86.625,0|0|0|0,0:0|0:0|0:0|0:0,0:0:0:0:
196,30,92823,5,2,0:0:0:0:
167,102,92911,1,0,0:0:0:0:
229,148,92999,1,0,0:0:0:0:
226,225,93087,1,0,0:0:0:0:
266,291,93176,1,0,0:0:0:0:
294,363,93264,1,2,0:0:0:0:
357,317,93352,5,0,0:0:0:0:
363,239,93440,1,0,0:0:0:0:
363,5,93617,1,0,0:0:0:0:
400,73,93705,1,0,0:0:0:0:
480,341,93881,1,2,0:0:0:0:
412,302,93970,1,0,0:0:0:0:
335,317,94058,5,2,0:0:0:0:
285,377,94146,1,0,0:0:0:0:
207,370,94234,1,0,0:0:0:0:
129,375,94323,1,2,0:0:0:0:
80,314,94411,1,0,0:0:0:0:
88,236,94499,1,0,0:0:0:0:
312,127,94676,1,2,0:0:0:0:
152,338,94852,5,8,0:0:0:0:
25,53,95029,1,12,0:0:0:0:
303,18,95205,1,0,0:0:0:0:
469,280,95381,1,8,0:0:0:0:
458,364,95469,1,0,0:0:0:0:
373,372,95558,1,0,0:0:0:0:
83,228,95734,1,0,0:0:0:0:
49,149,95822,1,4,0:0:0:0:
13,71,95911,6,0,B|60:87|103:59,1,94.4999999999999,0|0,0:0|0:0,0:0:0:0:
170,110,96087,1,0,0:0:0:0:
194,191,96175,1,0,0:0:0:0:
478,344,96352,1,8,0:0:0:0:
496,21,96528,1,0,0:0:0:0:
250,90,96705,1,0,0:0:0:0:
178,43,96793,1,0,0:0:0:0:
95,24,96881,1,10,0:0:0:0:
104,313,97058,5,8,0:0:0:0:
53,381,97146,1,0,0:0:0:0:
137,377,97234,1,8,0:0:0:0:
206,328,97322,5,0,0:0:0:0:
289,344,97411,1,2,0:0:0:0:
356,291,97499,1,0,0:0:0:0:
55,131,97675,2,0,B|36:126|36:126|1:81|1:81|1:62,1,94.4999999999999,0|0,0:0|0:0,0:0:0:0:
64,5,97852,1,2,0:0:0:0:
324,130,98028,2,0,B|372:143|413:113,3,94.4999999999999,0|8|0|0,0:0|0:0|0:0|0:0,0:0:0:0:
494,137,98381,1,0,0:0:0:0:
426,188,98469,1,6,0:0:0:0:
182,264,98646,5,0,0:0:0:0:
465,205,98822,1,0,0:0:0:0:
502,128,98911,1,0,0:0:0:0:
213,106,99087,1,0,0:0:0:0:
130,128,99175,5,0,0:0:0:0:
104,209,99264,1,0,0:0:0:0:
351,270,99440,1,2,0:0:0:0:
397,198,99528,5,0,0:0:0:0:
387,113,99617,1,0,0:0:0:0:
306,85,99705,2,0,B|280:83|266:62|266:62|252:41|227:39,1,94.4999999999999,0|0,0:0|0:0,0:0:0:0:
201,120,99881,5,8,0:0:0:0:
502,236,100058,1,2,0:0:0:0:
481,317,100145,2,0,B|473:318|473:318|466:320|461:325|460:330,3,26.25,2|0|0|2,0:0|0:0|0:0|0:0,0:0:0:0:
310,269,100763,1,0,0:0:0:0:
130,265,101116,1,0,0:0:0:0:
96,231,101293,1,0,0:0:0:0:
78,187,101469,5,10,0:0:0:0:
40,126,101646,1,0,0:0:0:0:
22,42,101734,1,8,0:0:0:0:
241,230,101911,1,2,0:0:0:0:
321,201,101999,1,2,0:0:0:0:
360,125,102087,1,0,0:0:0:0:
424,69,102175,1,0,0:0:0:0:
504,95,102264,1,0,0:0:0:0:
471,173,102352,5,0,0:0:0:0:
430,248,102440,1,0,0:0:0:0:
410,330,102528,1,4,0:0:0:0:
344,384,102617,1,4,0:0:0:0:
262,358,102705,1,0,0:0:0:0:
217,285,102793,1,8,0:0:0:0:
370,0,102970,1,0,0:0:0:0:
152,163,103146,1,0,0:0:0:0:
67,159,103234,5,8,0:0:0:0:
320,298,103411,1,8,0:0:0:0:
370,366,103499,1,0,0:0:0:0:
139,115,103675,6,0,B|152:66|122:25,3,94.4999999999999,0|2|0|0,0:0|0:0|0:0|0:0,0:0:0:0:
443,55,104117,1,4,0:0:0:0:
494,122,104205,1,0,0:0:0:0:
496,207,104293,1,0,0:0:0:0:
193,319,104470,1,8,0:0:0:0:
238,50,104646,1,0,0:0:0:0:
275,126,104734,1,0,0:0:0:0:
355,153,104822,1,2,0:0:0:0:
384,232,104911,5,8,0:0:0:0:
141,310,105087,1,0,0:0:0:0:
479,344,105264,1,0,0:0:0:0:
419,61,105440,1,14,0:0:0:0:
337,37,105528,1,2,0:0:0:0:
253,53,105617,1,0,0:0:0:0:
197,117,105705,5,8,0:0:0:0:
142,182,105793,1,0,0:0:0:0:
131,266,105881,2,0,B|105:309|54:314,1,94.4999999999999,8|4,0:0|0:0,0:0:0:0:
5,383,106058,2,0,B|53:301,3,94.4999999999999,0|10|0|8,0:0|0:0|0:0|0:0,0:0:0:0:
134,278,106411,1,0,0:0:0:0:
219,280,106499,1,0,0:0:0:0:
226,24,106675,2,0,B|166:54|166:54|141:42,1,94.4999999999999,0|0,0:0|0:0,0:0:0:0:
326,306,106940,1,4,0:0:0:0:
410,312,107028,5,0,0:0:0:0:
475,365,107117,1,0,0:0:0:0:
401,102,107293,1,0,0:0:0:0:
88,19,107470,5,0,0:0:0:0:
128,288,107646,1,2,0:0:0:0:
168,362,107734,2,0,B|174:408|174:408|210:377,1,94.4999999999999,2|0,0:0|0:0,0:0:0:0:
413,104,107999,1,0,0:0:0:0:
455,30,108087,1,0,0:0:0:0:
371,12,108175,1,0,0:0:0:0:
250,293,108352,1,8,0:0:0:0:
209,218,108440,1,0,0:0:0:0:
230,135,108528,5,4,0:0:0:0:
276,63,108617,1,10,0:0:0:0:
347,16,108705,1,0,0:0:0:0:
431,19,108793,1,0,0:0:0:0:
384,355,108970,2,0,B|407:374|445:373|445:373|465:351,3,94.4999999999999,0|2|0|0,0:0|0:0|0:0|0:0,0:0:0:0:
504,275,109322,5,0,0:0:0:0:
417,17,109499,1,0,0:0:0:0:
341,56,109587,2,0,B|325:104|277:121,1,94.4999999999999,0|4,0:0|0:0,0:0:0:0:
191,123,109764,5,0,0:0:0:0:
116,81,109852,2,0,B|65:74|40:29,3,94.4999999999999,0|2|0|8,0:0|0:0|0:0|0:0,0:0:0:0:
91,365,110293,1,0,0:0:0:0:
349,234,110470,2,0,B|438:262,1,94.4999999999999,8|0,0:0|0:0,0:0:0:0:
346,5,110734,2,0,B|353:55|317:91,3,94.4999999999999,8|0|2|0,0:0|0:0|0:0|0:0,0:0:0:0:
155,288,111175,1,0,0:0:0:0:
162,372,111264,1,10,0:0:0:0:
234,327,111352,1,0,0:0:0:0:
208,245,111440,5,0,0:0:0:0:
124,231,111528,1,0,0:0:0:0:
39,240,111881,1,8,0:0:0:0:
27,219,112057,1,2,0:0:0:0:
101,168,112410,1,0,0:0:0:0:
120,154,112587,1,0,0:0:0:0:
175,109,112940,1,0,0:0:0:0:
198,109,113116,2,0,B|205:113|215:110|215:110|219:103,1,26.25,6|2,0:0|0:0,0:0:0:0:
200,117,113469,5,0,0:0:0:0:
193,139,113646,1,2,0:0:0:0:
194,115,113822,1,0,0:0:0:0:
211,99,113999,2,0,B|229:80,3,26.25,0|2|4|0,0:0|0:0|0:0|0:0,0:0:0:0:
302,48,114881,1,2,0:0:0:0:
377,57,115234,1,0,0:0:0:0:
397,68,115410,1,8,0:0:0:0:
400,91,115587,1,2,0:0:0:0:
400,114,115763,5,10,0:0:0:0:
380,127,115940,2,0,B|373:129|373:129|366:132|362:138|361:143,1,26.25,8|0,0:0|0:0,0:0:0:0:
355,165,116293,1,12,0:0:0:0:
375,176,116469,1,6,0:0:0:0:
441,150,116822,1,0,0:0:0:0:
462,140,116999,1,0,0:0:0:0:
483,131,117175,1,0,0:0:0:0:
455,45,117528,1,8,0:0:0:0:
478,40,117704,5,0,0:0:0:0:
468,61,117881,1,8,0:0:0:0:
479,40,118057,1,12,0:0:0:0:
467,60,118234,1,2,0:0:0:0:
468,36,118410,1,0,0:0:0:0:
462,59,118587,1,2,0:0:0:0:
440,69,118763,1,0,0:0:0:0:
434,91,118940,1,0,0:0:0:0:
432,67,119116,5,0,0:0:0:0:
501,55,119469,1,0,0:0:0:0:
496,78,119646,1,10,0:0:0:0:
500,167,119999,1,0,0:0:0:0:
486,147,120175,1,0,0:0:0:0:
465,159,120352,1,0,0:0:0:0:
449,176,120528,2,0,B|434:175|426:186,1,26.25,4|0,0:0|0:0,0:0:0:0:
449,183,120881,1,0,0:0:0:0:
469,171,121057,6,0,B|480:162|480:148,1,26.25,2|0,0:0|0:0,0:0:0:0:
501,138,121410,1,0,0:0:0:0:
510,159,121587,1,2,0:0:0:0:
503,181,121763,1,0,0:0:0:0:
435,203,122116,1,0,0:0:0:0:
435,179,122293,5,0,0:0:0:0:
476,115,122646,2,0,B|479:101|493:96,1,26.25,0|0,0:0|0:0,0:0:0:0:
503,75,122999,2,0,B|495:61|495:61|494:54|497:51,1,26.25,0|2,0:0|0:0,0:0:0:0:
481,33,123352,2,0,B|474:20|480:7,3,26.25,8|0|0|8,0:0|0:0|0:0|0:0,0:0:0:0:
397,42,124234,1,0,0:0:0:0:
373,40,124410,2,0,B|359:35|348:43,3,26.25,10|0|0|0,0:0|0:0|0:0|0:0,0:0:0:0:
332,25,125116,1,6,0:0:0:0:
328,1,125293,2,0,B|314:23,3,26.25,4|0|0|0,0:0|0:0|0:0|0:0,0:0:0:0:
298,40,125999,6,0,B|274:51,3,26.25,2|0|0|2,0:0|0:0|0:0|0:0,0:0:0:0:
272,74,126704,1,2,0:0:0:0:
280,51,126881,1,0,0:0:0:0:
297,34,127057,1,2,0:0:0:0:
318,24,127234,1,2,0:0:0:0:
338,12,127410,1,0,0:0:0:0:
344,34,127587,1,2,0:0:0:0:
364,22,127763,1,0,0:0:0:0:
375,1,127940,6,0,B|401:4,1,26.25,4|0,0:0|0:0,0:0:0:0:
423,11,128293,1,0,0:0:0:0:
493,73,128646,1,0,0:0:0:0:
470,65,128822,1,2,0:0:0:0:
458,44,128999,1,4,0:0:0:0:
373,2,129352,1,0,0:0:0:0:
373,25,129528,1,0,0:0:0:0:
386,104,129881,1,0,0:0:0:0:
396,82,130057,5,2,0:0:0:0:
373,73,130234,1,0,0:0:0:0:
396,67,130410,1,0,0:0:0:0:
410,85,130587,1,2,0:0:0:0:
415,62,130763,1,0,0:0:0:0:
399,44,130940,1,0,0:0:0:0:
471,10,131293,2,0,B|482:2|496:7,1,26.25,0|0,0:0|0:0,0:0:0:0:
496,30,131646,1,4,0:0:0:0:
474,39,131822,5,2,0:0:0:0:
451,44,131999,1,0,0:0:0:0:
468,117,132352,1,0,0:0:0:0:
473,140,132528,1,0,0:0:0:0:
477,116,132704,1,0,0:0:0:0:
506,78,132748,1,2,0:0:0:0:
321,34,132836,2,0,B|292:32|274:53,1,52.5,0|8,0:0|0:0,0:0:0:0:
241,87,132925,1,0,0:0:0:0:
215,126,132969,5,0,0:0:0:0:
238,85,133013,2,0,B|245:57|229:35,1,52.5,4|0,0:0|0:0,0:0:0:0:
81,67,133145,1,8,0:0:0:0:
156,219,133233,1,0,0:0:0:0:
335,220,133322,1,2,0:0:0:0:
492,284,133410,1,4,0:0:0:0:
510,240,133454,5,0,0:0:0:0:
501,193,133498,1,0,0:0:0:0:
469,157,133542,2,0,B|459:142|439:137|439:137|425:145,1,52.5,0|0,0:0|0:0,0:0:0:0:
387,116,133630,1,4,0:0:0:0:
370,71,133675,1,0,0:0:0:0:
192,136,133763,1,0,0:0:0:0:
145,129,133807,1,0,0:0:0:0:
31,242,133895,1,2,0:0:0:0:
13,285,133939,5,2,0:0:0:0:
73,136,134028,1,10,0:0:0:0:
172,35,134116,1,0,0:0:0:0:
355,80,134292,1,2,0:0:0:0:
500,38,134645,1,0,0:0:0:0:
492,84,134821,1,4,0:0:0:0:
511,195,135174,1,2,0:0:0:0:
490,214,135350,1,8,0:0:0:0:
376,210,135703,5,0,0:0:0:0:
403,204,135880,1,0,0:0:0:0:
296,217,136233,2,0,B|289:225|277:227|277:227|269:221,3,31.4999999999999,0|2|0|0,0:0|0:0|0:0|0:0,0:0:0:0:
240,223,136939,1,10,0:0:0:0:
220,202,137115,1,0,0:0:0:0:
119,162,137468,1,2,0:0:0:0:
93,174,137645,2,0,B|86:180|86:180|80:186|78:195|81:201,3,31.4999999999999,8|0|0|0,0:0|0:0|0:0|0:0,0:0:0:0:
73,228,138350,1,8,0:0:0:0:
91,116,138703,5,4,0:0:0:0:
145,16,139056,1,0,0:0:0:0:
167,32,139233,1,10,0:0:0:0:
176,58,139409,1,0,0:0:0:0:
203,52,139586,1,0,0:0:0:0:
227,37,139762,1,0,0:0:0:0:
220,9,139939,5,0,0:0:0:0:
192,1,140115,2,0,B|185:16|168:20,3,31.4999999999999,0|0|0|0,0:0|0:0|0:0|0:0,0:0:0:0:
149,41,140821,2,0,B|152:48|148:56|148:56|143:63|147:71,1,31.4999999999999,0|0,0:0|0:0,0:0:0:0:
165,92,141174,1,10,0:0:0:0:
175,65,141350,2,0,B|195:41,1,31.4999999999999,0|0,0:0|0:0,0:0:0:0:
195,12,141703,1,0,0:0:0:0:
271,70,142056,1,0,0:0:0:0:
285,45,142233,1,0,0:0:0:0:
306,26,142409,5,10,0:0:0:0:
401,37,142762,1,10,0:0:0:0:
406,9,142939,1,0,0:0:0:0:
317,28,143292,2,0,B|289:11,3,31.4999999999999,0|0|0|0,0:0|0:0|0:0|0:0,0:0:0:0:
310,30,143997,1,8,0:0:0:0:
295,5,144174,1,2,0:0:0:0:
215,86,144527,1,0,0:0:0:0:
313,129,144880,2,0,B|329:128|340:141,1,31.4999999999999,0|0,0:0|0:0,0:0:0:0:
368,137,145233,5,0,0:0:0:0:
377,110,145409,1,4,0:0:0:0:
382,82,145586,1,8,0:0:0:0:
408,92,145762,1,2,0:0:0:0:
434,82,145939,1,2,0:0:0:0:
458,95,146115,1,2,0:0:0:0:
445,69,146292,5,0,0:0:0:0:
462,46,146468,1,4,0:0:0:0:
354,9,146821,1,0,0:0:0:0:
382,10,146997,1,2,0:0:0:0:
353,12,147174,6,0,B|336:7|323:18,3,31.4999999999999,8|0|0|2,0:0|0:0|0:0|0:0,0:0:0:0:
300,35,147880,1,0,0:0:0:0:
241,118,148233,1,4,0:0:0:0:
227,142,148409,2,0,B|232:172,3,31.4999999999999,8|6|0|2,0:0|0:0|0:0|0:0,0:0:0:0:
240,199,149115,1,0,0:0:0:0:
219,218,149292,1,0,0:0:0:0:
191,212,149468,1,0,0:0:0:0:
196,239,149645,5,0,0:0:0:0:
114,309,149997,1,0,0:0:0:0:
90,324,150174,1,0,0:0:0:0:
63,333,150350,1,12,0:0:0:0:
46,310,150527,1,4,0:0:0:0:
74,314,150703,1,0,0:0:0:0:
98,327,150880,5,2,0:0:0:0:
200,358,151233,1,4,0:0:0:0:
304,330,151586,2,0,B|320:339|320:339|327:341|331:337,3,31.4999999999999,2|0|0|8,0:0|0:0|0:0|0:0,0:0:0:0:
355,351,152292,1,4,0:0:0:0:
437,331,152645,1,0,0:0:0:0:
498,263,152997,1,0,0:0:0:0:
472,275,153174,1,4,0:0:0:0:
496,289,153350,1,2,0:0:0:0:
509,313,153527,5,0,0:0:0:0:
483,324,153703,1,10,0:0:0:0:
488,351,153880,1,0,0:0:0:0:
459,348,154056,1,0,0:0:0:0:
441,369,154233,1,10,0:0:0:0:
413,375,154409,2,0,B|404:373|404:373|395:371|389:364|388:358,1,31.4999999999999,0|2,0:0|0:0,0:0:0:0:
377,331,154762,1,0,0:0:0:0:
366,304,154939,2,0,B|345:280,1,31.4999999999999,0|14,0:0|0:0,0:0:0:0:
366,298,155292,5,0,0:0:0:0:
381,321,155468,1,0,0:0:0:0:
401,341,155645,1,0,0:0:0:0:
428,242,155997,1,0,0:0:0:0:
455,234,156174,2,0,B|473:230|473:230|480:227|480:221,3,31.4999999999999,0|0|6|0,0:0|0:0|0:0|0:0,0:0:0:0:
490,194,156880,2,0,B|504:165,1,31.4999999999999,0|2,0:0|0:0,0:0:0:0:
512,137,157233,1,0,0:0:0:0:
433,80,157586,1,0,0:0:0:0:
405,75,157762,5,0,0:0:0:0:
418,50,157939,1,0,0:0:0:0:
413,36,158027,1,2,0:0:0:0:
367,23,158115,1,0,0:0:0:0:
178,33,158292,2,0,B|164:22|143:25|143:25|133:38,1,52.5,0|0,0:0|0:0,0:0:0:0:
105,76,158468,1,0,0:0:0:0:
80,116,158557,1,8,0:0:0:0:
60,158,158645,1,2,0:0:0:0:
233,231,158821,5,0,0:0:0:0:
253,218,158909,1,0,0:0:0:0:
249,241,158997,1,2,0:0:0:0:
266,256,159086,2,0,B|278:278,3,26.25,8|0|0|8,0:0|0:0|0:0|0:0,0:0:0:0:
351,329,159527,2,0,B|362:320|375:324,3,26.25,0|4|2|0,0:0|0:0|0:0|0:0,0:0:0:0:
433,284,159968,1,2,0:0:0:0:
394,202,160145,1,4,0:0:0:0:
377,184,160233,1,0,0:0:0:0:
353,182,160321,5,2,0:0:0:0:
277,229,160497,1,0,0:0:0:0:
202,217,160674,2,0,B|188:221|184:234,1,26.25,0|0,0:0|0:0,0:0:0:0:
160,236,160850,1,0,0:0:0:0:
156,259,160939,1,0,0:0:0:0:
144,279,161027,1,2,0:0:0:0:
137,301,161115,2,0,B|154:320,3,26.25,0|0|0|2,0:0|0:0|0:0|0:0,0:0:0:0:
167,300,161468,1,0,0:0:0:0:
151,282,161556,5,0,0:0:0:0:
172,273,161645,1,0,0:0:0:0:
181,251,161733,1,0,0:0:0:0:
158,256,161821,1,0,0:0:0:0:
95,213,161997,1,2,0:0:0:0:
74,224,162086,1,0,0:0:0:0:
53,211,162174,2,0,B|29:200,3,26.25,8|0|2|0,0:0|0:0|0:0|0:0,0:0:0:0:
49,189,162527,1,0,0:0:0:0:
113,229,162703,5,4,0:0:0:0:
96,245,162792,1,0,0:0:0:0:
96,268,162880,1,0,0:0:0:0:
82,287,162968,1,0,0:0:0:0:
101,300,163056,1,0,0:0:0:0:
77,298,163145,5,0,0:0:0:0:
56,310,163233,1,0,0:0:0:0:
32,309,163321,2,0,B|20:317|7:313,3,26.25,2|0|0|2,0:0|0:0|0:0|0:0,0:0:0:0:
90,328,163762,5,8,0:0:0:0:
143,374,163850,1,0,0:0:0:0:
163,306,163938,1,0,0:0:0:0:
256,192,164027,12,2,166850,0:0:0:0:
242,61,166938,5,0,0:0:0:0:
152,330,167115,1,0,0:0:0:0:
85,353,167203,1,0,0:0:0:0:
17,332,167291,1,0,0:0:0:0:
137,75,167468,1,2,0:0:0:0:
376,44,167644,6,0,B|388:84|364:118,1,78.75,8|0,0:0|0:0,0:0:0:0:
391,183,167821,1,0,0:0:0:0:
349,240,167909,1,0,0:0:0:0:
293,284,167997,1,2,0:0:0:0:
283,310,168173,1,0,0:0:0:0:
323,384,168526,1,2,0:0:0:0:
345,367,168703,1,2,0:0:0:0:
355,340,168879,2,0,B|366:310,3,31.4999999999999,0|0|4|0,0:0|0:0|0:0|0:0,0:0:0:0:
367,262,169498,5,0,0:0:0:0:
402,230,169586,2,0,B|410:215|407:194|407:194|393:185,1,52.5,10|0,0:0|0:0,0:0:0:0:
357,154,169762,1,2,0:0:0:0:
307,316,169939,1,0,0:0:0:0:
281,356,170027,1,0,0:0:0:0:
182,217,170204,1,8,0:0:0:0:
134,220,170292,1,0,0:0:0:0:
43,340,170468,1,0,0:0:0:0:
72,376,170557,5,0,0:0:0:0:
101,339,170645,1,0,0:0:0:0:
110,292,170733,1,10,0:0:0:0:
148,264,170821,5,10,0:0:0:0:
193,277,170909,1,10,0:0:0:0:
239,285,170998,1,0,0:0:0:0:
285,290,171086,5,8,0:0:0:0:
327,310,171174,1,0,0:0:0:0:
343,354,171262,1,0,0:0:0:0:
388,366,171351,1,0,0:0:0:0:
435,365,171439,1,4,0:0:0:0:
497,237,171615,1,0,0:0:0:0:
490,190,171704,1,4,0:0:0:0:
491,142,171792,1,0,0:0:0:0:
476,97,171880,5,4,0:0:0:0:
500,56,171968,1,0,0:0:0:0:
505,9,172057,1,0,0:0:0:0:
459,20,172145,1,0,0:0:0:0:
415,1,172233,1,0,0:0:0:0:
379,32,172321,2,0,B|357:49|358:78,1,52.5,2|8,0:0|0:0,0:0:0:0:
327,114,172498,1,0,0:0:0:0:
286,139,172586,1,6,0:0:0:0:
261,179,172674,6,0,B|233:184|220:209,1,52.5,0|0,0:0|0:0,0:0:0:0:
393,134,172939,1,4,0:0:0:0:
299,298,173115,1,0,0:0:0:0:
292,344,173204,2,0,B|344:345,3,52.5,0|0|8|0,0:0|0:0|0:0|0:0,0:0:0:0:
382,317,173557,1,2,0:0:0:0:
395,271,173645,2,0,B|410:247|400:220,1,52.5,0|0,0:0|0:0,0:0:0:0:
439,193,173821,1,0,0:0:0:0:
457,149,173909,1,8,0:0:0:0:
428,111,173998,5,0,0:0:0:0:
290,78,174174,2,0,B|280:129,3,52.5,0|0|0|2,0:0|0:0|0:0|0:0,0:0:0:0:
302,170,174527,1,0,0:0:0:0:
322,212,174615,1,2,0:0:0:0:
314,258,174704,1,0,0:0:0:0:
358,272,174792,5,0,0:0:0:0:
399,249,174880,1,0,0:0:0:0:
440,271,174968,1,4,0:0:0:0:
437,129,175145,1,0,0:0:0:0:
407,92,175233,5,0,0:0:0:0:
412,45,175321,1,8,0:0:0:0:
444,10,175409,1,0,0:0:0:0:
291,104,175586,1,0,0:0:0:0:
285,150,175674,1,0,0:0:0:0:
253,185,175762,5,0,0:0:0:0:
118,289,175939,1,0,0:0:0:0:
102,333,176027,1,8,0:0:0:0:
123,375,176115,1,8,0:0:0:0:
158,343,176204,1,8,0:0:0:0:
204,334,176292,1,2,0:0:0:0:
248,318,176380,1,4,0:0:0:0:
342,199,176557,2,0,B|362:175|362:175|368:163|363:155,1,52.5,4|4,0:0|0:0,0:0:0:0:
209,44,176821,5,2,0:0:0:0:
175,10,176909,1,2,0:0:0:0:
92,124,177086,2,0,B|63:167,1,52.5,0|2,0:0|0:0,0:0:0:0:
48,212,177262,1,2,0:0:0:0:
20,250,177351,2,0,B|16:264|16:264|13:278|19:292|27:298,1,52.5,0|2,0:0|0:0,0:0:0:0:
65,271,177527,1,2,0:0:0:0:
88,229,177615,1,0,0:0:0:0:
106,185,177704,1,4,0:0:0:0:
145,158,177792,5,0,0:0:0:0:
232,177,177880,1,2,0:0:0:0:
289,6,177968,1,8,0:0:0:0:
242,11,178012,1,4,0:0:0:0:
256,192,178056,12,0,178939,0:0:0:0:
366,310,179379,5,10,0:0:0:0:
350,327,179467,1,0,0:0:0:0:
338,347,179556,1,0,0:0:0:0:
322,364,179644,2,0,B|315:376|301:378,3,26.25,2|0|0|0,0:0|0:0|0:0|0:0,0:0:0:0:
282,363,179997,5,2,0:0:0:0:
266,380,180085,1,0,0:0:0:0:
262,356,180173,1,2,0:0:0:0:
345,340,180350,1,2,0:0:0:0:
362,355,180438,5,0,0:0:0:0:
