osu file format v14

[General]
AudioFilename: Old is Gold.mp3
AudioLeadIn: 0
PreviewTime: 143070
Countdown: 1
SampleSet: None
StackLeniency: 0.2
Mode: 0
LetterboxInBreaks: 1
WidescreenStoryboard: 1

[Editor]
DistanceSpacing: 1.9
BeatDivisor: 2
GridSize: 8
TimelineZoom: 1.9

[Metadata]
Title:Old is Gold
TitleUnicode:Old is Gold
Artist:aran
ArtistUnicode:aran
Creator:jaaakb
Version:eggpain
Source:
Tags:hola bueno senor
BeatmapID:746727
BeatmapSetID:243771

[Difficulty]
HPDrainRate:4
CircleSize:10
OverallDifficulty:10
ApproachRate:2
SliderMultiplier:2
SliderTickRate:4

[Events]
//Background and Video events
0,0,"-moon-a.jpg",0,0
//Break Periods
//Storyboard Layer 0 (Background)
//Storyboard Layer 1 (Fail)
//Storyboard Layer 2 (Pass)
//Storyboard Layer 3 (Foreground)
//Storyboard Sound Samples

[TimingPoints]
0,352.941176470588,4,1,0,100,1,0
176,-200,4,1,0,80,0,0
11558,-100,4,1,0,80,0,0
12882,-200,4,1,0,80,0,0
12970,-100,4,1,0,80,0,0
14294,-200,4,1,0,80,0,0
14382,-100,4,1,0,80,0,0
15705,-200,4,1,0,80,0,0
15794,-100,4,1,0,80,0,0
16588,-200,4,1,0,80,0,0
17205,-100,4,1,0,80,0,0
18529,-200,4,1,0,80,0,0
18617,-100,4,1,0,80,0,0
19941,-200,4,1,0,80,0,0
20029,-100,4,1,0,80,0,0
21352,-200,4,1,0,80,0,0
22499,-100,4,1,0,80,0,0
27882,-200,4,1,0,80,0,0
28235,-100,4,1,0,80,0,0
33882,3529.41176470588,4,1,0,100,1,0
39176,352.941176470588,4,1,0,100,1,0
43676,176.470588235294,4,1,0,100,1,0
44823,352.941176470588,4,1,0,100,1,0
44911,-50,4,1,0,100,0,0
45264,-100,4,1,0,100,0,0
53911,-83.3333333333333,4,1,0,100,0,0
54264,-71.4285714285714,4,1,0,100,0,0
54617,-62.5,4,1,0,100,0,0
54970,-55.5555555555556,4,1,0,100,0,0
56470,-100,4,1,0,100,0,0
67675,-74.0740740740741,4,1,0,100,0,0
72705,-60.6060606060606,4,1,0,100,0,0
95293,-55.5555555555556,4,1,0,100,0,0
100145,-200,4,1,0,100,0,0
100234,705.882352941176,4,1,0,100,1,0
101513,-55.5555555555556,4,1,0,100,0,0
101646,352.941176470588,4,1,0,100,1,0
101646,-55.5555555555556,4,1,0,100,0,0
111528,705.882352941176,4,1,0,100,1,0
111528,-200,4,1,0,100,0,0
132704,176.470588235294,4,1,0,100,1,0
134116,705.882352941176,4,1,0,100,1,0
134821,-166.666666666667,4,2,0,40,0,0
157939,352.941176470588,4,1,0,80,1,0
158821,-200,4,1,0,80,0,0
163762,-66.6666666666667,4,1,0,80,0,0
167997,705.882352941176,4,2,0,60,1,0
167997,-166.666666666667,4,2,0,60,0,0
169233,352.941176470588,4,1,0,80,1,0
177880,176.470588235294,4,1,0,80,1,0
179291,352.941176470588,4,1,0,80,1,0
179291,-200,4,1,0,80,0,0

[Colours]
Combo1 : 32,255,44
Combo2 : 173,192,38
Combo3 : 59,150,218
Combo4 : 3,123,9
Combo5 : 200,142,44
Combo6 : 98,229,240
Combo7 : 78,55,5
Combo8 : 131,79,248

[HitObjects]
475,308,0,1,2,0:0:0:0:
396,323,88,1,0,0:0:0:0:
316,337,176,1,0,0:0:0:0:
385,272,352,1,0,0:0:0:0:
385,272,441,1,0,0:0:0:0:
385,272,529,1,0,0:0:0:0:
461,328,705,2,0,P|474:307|479:282,1,50,0|0,0:0|0:0,0:0:0:0:
479,282,1058,1,0,0:0:0:0:
444,193,1235,1,8,0:0:0:0:
439,98,1411,1,2,0:0:0:0:
439,98,1500,1,0,0:0:0:0:
465,6,1676,1,0,0:0:0:0:
465,6,1764,1,0,0:0:0:0:
508,90,1941,1,10,0:0:0:0:
508,90,2029,1,2,0:0:0:0:
508,90,2117,1,10,0:0:0:0:
456,9,2294,5,0,0:0:0:0:
456,9,2382,1,14,0:0:0:0:
428,99,2558,1,0,0:0:0:0:
428,99,2647,1,0,0:0:0:0:
509,50,2823,5,0,0:0:0:0:
509,50,2911,1,0,0:0:0:0:
509,50,3000,2,0,B|489:26|489:26|484:16|489:8|489:8|473:33|473:33|469:45|475:52|475:52|471:25|490:6,1,150,0|0,0:0|0:0,0:0:0:0:
466,97,3705,2,0,P|443:88|423:73,3,50,0|0|10|2,0:0|0:0|0:0|0:0,0:0:0:0:
510,36,4411,1,0,0:0:0:0:
510,36,4500,1,0,0:0:0:0:
510,36,4588,1,0,0:0:0:0:
470,122,4764,2,0,B|443:115|433:90|433:90|463:129|463:129|431:90|431:90|435:76|435:76|440:63|452:55|461:54,2,200,0|0|2,0:0|0:0|0:0,0:0:0:0:
375,122,6352,5,14,0:0:0:0:
375,122,6441,1,2,0:0:0:0:
469,114,6617,1,2,0:0:0:0:
469,114,6705,1,10,0:0:0:0:
491,21,6882,1,8,0:0:0:0:
491,21,6970,1,8,0:0:0:0:
491,21,7058,1,2,0:0:0:0:
350,79,7235,1,6,0:0:0:0:
288,6,7411,2,0,P|272:25|260:47,1,50,0|0,0:0|0:0,0:0:0:0:
271,198,7764,1,8,0:0:0:0:
365,196,7941,1,0,0:0:0:0:
365,196,8029,1,2,0:0:0:0:
365,196,8117,1,8,0:0:0:0:
437,257,8294,1,0,0:0:0:0:
437,257,8382,1,8,0:0:0:0:
437,257,8471,2,0,B|423:256|423:256|409:255|397:247|393:238|393:238|406:236|415:247|415:247|424:257|437:256|437:256|423:252|413:261|413:261|403:270|390:267|390:267|382:241|398:219,2,200,10|2|8,0:0|0:0|0:0,0:0:0:0:
372,327,10058,1,0,0:0:0:0:
372,327,10147,1,8,0:0:0:0:
285,286,10323,5,8,0:0:0:0:
285,286,10411,1,12,0:0:0:0:
377,308,10588,1,8,0:0:0:0:
377,308,10676,1,0,0:0:0:0:
282,300,10852,1,0,0:0:0:0:
282,300,10941,1,2,0:0:0:0:
376,307,11117,5,8,0:0:0:0:
376,307,11205,1,0,0:0:0:0:
376,307,11294,1,0,0:0:0:0:
282,292,11470,2,0,B|302:308|301:335|301:335|273:293,2,100,8|2|8,0:0|0:0|0:0,0:0:0:0:
452,64,12440,2,0,B|385:138|385:138|482:116,1,200,8|0,0:0|0:0,0:0:0:0:
482,116,12882,2,0,B|495:136|495:136|470:137|470:137|496:123|496:123|505:115|503:106|503:106|501:155,2,150,2|0|2,0:0|0:0|0:0,0:0:0:0:
317,348,14205,6,0,P|279:316|247:277,2,100,0|8|10,0:0|0:0|0:0,0:0:0:0:
276,162,14735,1,0,0:0:0:0:
276,162,14823,1,8,0:0:0:0:
118,56,15000,1,0,0:0:0:0:
118,56,15088,1,8,0:0:0:0:
23,220,15264,1,8,0:0:0:0:
23,220,15353,1,8,0:0:0:0:
43,31,15529,1,0,0:0:0:0:
43,31,15617,1,0,0:0:0:0:
7,118,15705,2,0,P|31:125|56:125,1,50,8|0,0:0|0:0,0:0:0:0:
341,120,16147,1,0,0:0:0:0:
341,120,16235,1,0,0:0:0:0:
341,120,16324,2,0,B|288:133|247:99|247:99|277:86|314:100|314:100|327:129|327:129|293:166|293:166|280:118,4,300,2|2|10|0|8,0:0|0:0|0:0|0:0|0:0,0:0:0:0:
329,213,18529,5,0,0:0:0:0:
329,213,18617,1,2,0:0:0:0:
329,213,18705,1,2,0:0:0:0:
138,1,18970,2,0,B|170:2|198:30|198:30|199:61|199:61|173:70|151:56|151:56|128:41|103:51|103:51|129:58|129:58|156:66|183:57|196:42,3,300,0|2|8|0,0:0|0:0|0:0|0:0,0:0:0:0:
83,195,20735,2,0,P|47:160|21:118,2,100,2|8|8,0:0|0:0|0:0,0:0:0:0:
256,192,21264,12,0,21970,0:0:0:0:
36,210,22234,5,0,0:0:0:0:
36,210,22323,1,8,0:0:0:0:
36,210,22411,1,6,0:0:0:0:
59,168,22499,2,0,P|83:209|60:251,1,100,0|0,0:0|0:0,0:0:0:0:
117,70,22852,1,0,0:0:0:0:
117,70,22940,1,6,0:0:0:0:
117,70,23028,1,0,0:0:0:0:
256,192,23205,12,0,23911,0:0:0:0:
253,175,24087,5,0,0:0:0:0:
253,175,24175,1,0,0:0:0:0:
396,299,24352,5,0,0:0:0:0:
396,299,24440,1,2,0:0:0:0:
306,131,24617,2,0,B|327:228|327:228|376:206|388:154|388:154|407:104|459:90,1,300,0|0,0:0|0:0,0:0:0:0:
389,267,25323,1,2,0:0:0:0:
389,267,25411,1,8,0:0:0:0:
389,267,25499,1,0,0:0:0:0:
511,121,25675,2,0,P|469:95|421:80,8,100,10|0|2|0|0|0|10|10|4,0:0|0:0|0:0|0:0|0:0|0:0|0:0|0:0|0:0,0:0:0:0:
481,308,27264,1,0,0:0:0:0:
481,308,27352,1,6,0:0:0:0:
481,308,27440,1,0,0:0:0:0:
391,140,27617,1,0,0:0:0:0:
391,140,27705,1,8,0:0:0:0:
391,140,27793,1,2,0:0:0:0:
390,235,27882,1,12,0:0:0:0:
390,235,27970,1,0,0:0:0:0:
390,235,28058,1,2,0:0:0:0:
398,140,28235,6,0,P|373:142|349:149,8,50,10|8|10|0|10|0|2|0|0,0:0|0:0|0:0|0:0|0:0|0:0|0:0|0:0|0:0,0:0:0:0:
401,330,29823,1,0,0:0:0:0:
401,330,29911,1,2,0:0:0:0:
399,140,30088,1,0,0:0:0:0:
399,140,30176,1,0,0:0:0:0:
373,328,30353,1,2,0:0:0:0:
373,328,30441,1,4,0:0:0:0:
373,328,30529,1,0,0:0:0:0:
507,193,30706,2,0,P|467:163|421:144,1,100,2|0,0:0|0:0,0:0:0:0:
283,274,31059,1,6,0:0:0:0:
283,274,31147,1,8,0:0:0:0:
150,137,31323,5,0,0:0:0:0:
150,137,31411,1,0,0:0:0:0:
333,88,31588,1,0,0:0:0:0:
333,88,31676,1,0,0:0:0:0:
333,88,31764,1,2,0:0:0:0:
150,34,31941,1,8,0:0:0:0:
150,34,32029,1,0,0:0:0:0:
150,34,32117,1,2,0:0:0:0:
336,68,32294,1,2,0:0:0:0:
276,122,32382,1,8,0:0:0:0:
216,176,32470,1,2,0:0:0:0:
404,149,32647,2,0,P|405:199|392:247,1,100,0|0,0:0|0:0,0:0:0:0:
362,59,33000,5,2,0:0:0:0:
362,59,33088,1,8,0:0:0:0:
387,247,33264,1,4,0:0:0:0:
387,247,33353,1,8,0:0:0:0:
232,136,33529,2,0,B|300:151|300:151|313:178|313:178|290:163|288:136|288:136|287:109|264:94|264:94|308:70|308:70|303:120|303:120|347:96|347:96|303:72,2,400,8|0|0,0:0|0:0|0:0,0:0:0:0:
471,20,37411,1,0,0:0:0:0:
390,14,38294,1,8,0:0:0:0:
309,8,39176,1,0,0:0:0:0:
479,90,39352,1,0,0:0:0:0:
479,90,39441,1,2,0:0:0:0:
292,124,39617,1,0,0:0:0:0:
292,124,39705,1,8,0:0:0:0:
129,222,39882,2,0,P|109:176|102:127,3,100,0|2|0|0,0:0|0:0|0:0|0:0,0:0:0:0:
191,294,40588,5,8,0:0:0:0:
191,294,40676,1,0,0:0:0:0:
191,294,40765,2,0,B|91:280|91:280|176:228|176:228|135:183|135:183|114:171|97:179|97:179|164:252,2,400,2|0|10,0:0|0:0|0:0,0:0:0:0:
309,145,42352,1,4,0:0:0:0:
309,145,42441,1,8,0:0:0:0:
309,145,42529,1,0,0:0:0:0:
120,165,42705,2,0,B|133:223|133:223|144:244|163:246|163:246|92:175|92:175|100:228|147:253|147:253|104:220|52:234,2,400,2|8|14,0:0|0:0|0:0,0:0:0:0:
300,105,44205,1,4,0:0:0:0:
300,105,44250,1,10,0:0:0:0:
138,205,44338,5,0,0:0:0:0:
138,205,44382,1,0,0:0:0:0:
73,26,44470,2,0,B|86:49|75:73|75:73|64:98|77:121|77:121|17:40|17:40|50:81|37:133,1,300,10|0,0:0|0:0,0:0:0:0:
224,159,44823,2,0,P|212:207|186:250,1,100,8|0,0:0|0:0,0:0:0:0:
478,324,45264,5,8,0:0:0:0:
478,324,45352,1,8,0:0:0:0:
103,260,45529,1,0,0:0:0:0:
103,260,45617,1,0,0:0:0:0:
288,302,45793,1,0,0:0:0:0:
288,302,45882,1,0,0:0:0:0:
288,302,45970,1,0,0:0:0:0:
99,282,46146,2,0,P|111:234|135:190,1,100,0|0,0:0|0:0,0:0:0:0:
168,377,46499,1,0,0:0:0:0:
168,377,46588,1,8,0:0:0:0:
168,377,46676,2,0,B|119:388|119:388|135:341,1,100,0|0,0:0|0:0,0:0:0:0:
236,180,47029,1,2,0:0:0:0:
236,180,47117,1,0,0:0:0:0:
236,180,47205,1,0,0:0:0:0:
58,246,47382,2,0,P|81:290|115:327,1,100,2|0,0:0|0:0,0:0:0:0:
161,142,47735,1,10,0:0:0:0:
161,142,47823,1,0,0:0:0:0:
24,274,47999,1,0,0:0:0:0:
24,274,48088,1,2,0:0:0:0:
212,299,48264,1,8,0:0:0:0:
212,299,48352,1,2,0:0:0:0:
44,210,48529,1,0,0:0:0:0:
44,210,48617,1,2,0:0:0:0:
209,115,48793,5,8,0:0:0:0:
209,115,48882,1,2,0:0:0:0:
209,115,48970,1,0,0:0:0:0:
132,288,49146,1,0,0:0:0:0:
132,288,49235,1,0,0:0:0:0:
310,223,49411,1,0,0:0:0:0:
310,223,49499,1,0,0:0:0:0:
0,2,49852,1,2,0:0:0:0:
256,192,50029,12,8,50382,0:0:0:0:
133,331,50558,6,0,B|126:277|80:250|80:250|83:276|106:289|106:289|130:302|133:329|133:329|106:335|86:317|86:317|65:300|39:306|39:306|112:374,8,400,0|8|0|8|12|8|10|6|0,0:0|0:0|0:0|0:0|0:0|0:0|0:0|0:0|0:0,0:0:0:0:
473,301,56382,1,0,0:0:0:0:
473,301,56470,1,0,0:0:0:0:
473,301,56558,1,0,0:0:0:0:
435,213,56646,2,0,B|376:294|376:294|424:271|471:297|471:297|382:344,1,300,8|0,0:0|0:0,0:0:0:0:
207,269,57352,1,0,0:0:0:0:
207,269,57441,1,8,0:0:0:0:
207,269,57529,2,0,B|202:301|224:334|224:334|255:340|255:340|274:241|274:241|294:258|292:285|292:285|290:312|311:329|311:329|251:334|251:334|227:329|220:312,1,400,12|0,0:0|0:0,0:0:0:0:
229,122,58411,1,0,0:0:0:0:
229,122,58499,1,0,0:0:0:0:
229,122,58588,1,0,0:0:0:0:
43,164,58764,5,8,0:0:0:0:
43,164,58852,1,0,0:0:0:0:
213,79,59029,1,8,0:0:0:0:
213,79,59117,1,4,0:0:0:0:
113,240,59294,2,0,B|191:302|191:302|93:326|93:326|119:334|119:334|146:342|173:335|186:320|186:320|162:338|136:336|136:336|116:353|92:350,1,400,0|0,0:0|0:0,0:0:0:0:
265,272,60176,2,0,P|280:320|281:369,1,100,8|0,0:0|0:0,0:0:0:0:
234,184,60529,2,0,P|188:203|148:233,1,100,0|8,0:0|0:0,0:0:0:0:
197,49,60882,1,0,0:0:0:0:
197,49,60970,1,10,0:0:0:0:
197,49,61058,1,10,0:0:0:0:
102,213,61235,1,8,0:0:0:0:
102,213,61323,1,8,0:0:0:0:
21,384,61499,5,10,0:0:0:0:
21,384,61588,1,0,0:0:0:0:
139,235,61764,2,0,B|170:278|153:329|153:329|177:318|200:331|200:331|224:344|248:334|248:334|194:342|156:305,1,300,0|10,0:0|0:0,0:0:0:0:
344,329,62470,2,0,P|344:279|331:231,3,100,8|8|2|2,0:0|0:0|0:0|0:0,0:0:0:0:
248,59,63176,2,0,B|220:104|240:154|240:154|293:147|320:101,3,200,8|2|8|8,0:0|0:0|0:0|0:0,0:0:0:0:
147,181,64411,1,0,0:0:0:0:
147,181,64499,1,8,0:0:0:0:
147,181,64588,1,8,0:0:0:0:
269,35,64764,6,0,B|276:134|276:134|264:103|228:85|228:85|199:95|199:95|272:67|272:67|262:86|262:86|261:118|234:147|234:147|203:149,1,400,10|0,0:0|0:0,0:0:0:0:
256,192,65646,12,8,66352,0:0:0:0:
297,291,66529,5,8,0:0:0:0:
297,291,66617,1,0,0:0:0:0:
297,291,66705,1,4,0:0:0:0:
448,176,66882,1,8,0:0:0:0:
448,176,66970,1,10,0:0:0:0:
448,176,67058,1,2,0:0:0:0:
260,145,67235,5,0,0:0:0:0:
260,145,67323,1,2,0:0:0:0:
441,202,67499,1,8,0:0:0:0:
441,202,67588,1,8,0:0:0:0:
360,152,67675,1,2,0:0:0:0:
360,152,67763,1,2,0:0:0:0:
360,152,67852,2,0,B|367:224|429:261|429:261|392:198|421:131,3,270,2|0|2|10,0:0|0:0|0:0|0:0,0:0:0:0:
282,346,69087,1,2,0:0:0:0:
282,346,69175,1,8,0:0:0:0:
414,126,69351,5,8,0:0:0:0:
414,126,69440,1,0,0:0:0:0:
201,141,69793,1,4,0:0:0:0:
201,141,69881,1,0,0:0:0:0:
201,141,69969,1,10,0:0:0:0:
56,353,70146,1,8,0:0:0:0:
56,353,70234,1,0,0:0:0:0:
213,150,70410,1,10,0:0:0:0:
213,150,70499,1,0,0:0:0:0:
63,358,70675,2,0,B|112:312|112:312|47:295|47:295|166:231|166:231|102:265|90:336|90:336|150:295|218:320,4,540,10|8|10|2|0,0:0|0:0|0:0|0:0|0:0,0:0:0:0:
87,202,73587,1,0,0:0:0:0:
87,202,73676,1,0,0:0:0:0:
394,142,73852,1,0,0:0:0:0:
394,142,73940,1,8,0:0:0:0:
87,206,74117,1,8,0:0:0:0:
87,206,74205,1,8,0:0:0:0:
390,282,74381,5,0,0:0:0:0:
390,282,74470,1,0,0:0:0:0:
126,111,74646,1,2,0:0:0:0:
126,111,74734,1,0,0:0:0:0:
439,105,74911,1,2,0:0:0:0:
439,105,74999,1,0,0:0:0:0:
131,42,75176,1,0,0:0:0:0:
131,42,75264,1,0,0:0:0:0:
44,343,75440,5,8,0:0:0:0:
44,343,75529,1,0,0:0:0:0:
238,97,75705,1,8,0:0:0:0:
238,97,75793,1,0,0:0:0:0:
371,380,75970,1,10,0:0:0:0:
371,380,76058,1,8,0:0:0:0:
212,109,76234,1,0,0:0:0:0:
212,109,76323,1,2,0:0:0:0:
212,109,76411,1,10,0:0:0:0:
38,370,76587,1,2,0:0:0:0:
38,370,76676,1,0,0:0:0:0:
38,370,76764,1,4,0:0:0:0:
303,203,76940,1,8,0:0:0:0:
303,203,77029,1,2,0:0:0:0:
303,203,77117,1,0,0:0:0:0:
14,325,77293,1,8,0:0:0:0:
146,346,77381,1,0,0:0:0:0:
277,366,77470,1,0,0:0:0:0:
309,54,77646,1,0,0:0:0:0:
309,54,77734,1,10,0:0:0:0:
309,54,77823,1,8,0:0:0:0:
266,364,77999,5,2,0:0:0:0:
266,364,78087,1,0,0:0:0:0:
266,364,78176,1,8,0:0:0:0:
168,66,78352,1,2,0:0:0:0:
168,66,78440,1,0,0:0:0:0:
168,66,78529,1,0,0:0:0:0:
179,379,78705,2,0,B|82:315|82:315|77:265,1,165,0|8,0:0|0:0,0:0:0:0:
361,132,79058,1,0,0:0:0:0:
361,132,79146,1,0,0:0:0:0:
361,132,79234,1,0,0:0:0:0:
73,256,79411,1,0,0:0:0:0:
73,256,79499,1,14,0:0:0:0:
73,256,79587,1,0,0:0:0:0:
256,192,79764,12,0,80117,0:0:0:0:
197,56,80293,6,0,B|361:62|361:62|357:115|310:161|310:161|259:160,1,330,10|6,0:0|0:0,0:0:0:0:
496,364,80823,1,2,0:0:0:0:
496,364,80911,1,0,0:0:0:0:
496,364,81000,2,0,B|365:262|365:262|414:240|476:260|476:260|499:306|499:306|452:278|434:215|434:215|458:169|458:169|456:333,4,660,8|8|2|8|2,0:0|0:0|0:0|0:0|0:0,0:0:0:0:
182,380,83999,5,0,0:0:0:0:
292,304,84087,1,0,0:0:0:0:
401,228,84176,1,8,0:0:0:0:
90,182,84352,2,0,P|113:103|156:33,1,165,0|8,0:0|0:0,0:0:0:0:
0,305,84705,1,0,0:0:0:0:
0,305,84793,1,0,0:0:0:0:
0,305,84882,2,0,B|-19:218|40:151|40:151|38:239|107:294,2,330,2|8|0,0:0|0:0|0:0,0:0:0:0:
311,268,85764,1,2,0:0:0:0:
311,268,85852,1,8,0:0:0:0:
106,30,86029,1,0,0:0:0:0:
106,30,86117,1,0,0:0:0:0:
256,192,86293,12,0,86646,0:0:0:0:
443,12,86823,5,8,0:0:0:0:
443,12,86911,1,4,0:0:0:0:
203,214,87087,1,0,0:0:0:0:
203,214,87176,1,0,0:0:0:0:
506,134,87352,1,0,0:0:0:0:
506,134,87440,1,0,0:0:0:0:
506,134,87529,2,0,B|423:165|348:117|348:117|429:81|506:125,2,330,6|0|0,0:0|0:0|0:0,0:0:0:0:
205,222,88411,1,8,0:0:0:0:
205,222,88499,1,0,0:0:0:0:
205,222,88587,1,8,0:0:0:0:
472,58,88764,1,2,0:0:0:0:
472,58,88852,1,8,0:0:0:0:
472,58,88940,1,8,0:0:0:0:
166,127,89117,5,0,0:0:0:0:
256,192,89293,12,8,89999,0:0:0:0:
25,32,90176,5,10,0:0:0:0:
25,32,90264,1,0,0:0:0:0:
331,98,90440,1,2,0:0:0:0:
331,98,90529,1,0,0:0:0:0:
176,370,90705,1,0,0:0:0:0:
176,370,90793,1,0,0:0:0:0:
176,370,90881,1,0,0:0:0:0:
388,139,91058,1,2,0:0:0:0:
388,139,91146,1,8,0:0:0:0:
75,116,91323,1,8,0:0:0:0:
75,116,91411,1,0,0:0:0:0:
267,308,91764,1,10,0:0:0:0:
267,308,91852,1,0,0:0:0:0:
267,308,91940,1,2,0:0:0:0:
402,25,92117,1,4,0:0:0:0:
353,149,92205,1,0,0:0:0:0:
304,272,92293,1,0,0:0:0:0:
68,64,92470,6,0,B|68:180|68:180|107:210|107:210|99:127|99:127|172:165,1,330,0|12,0:0|0:0,0:0:0:0:
138,191,93176,1,12,0:0:0:0:
138,191,93264,1,0,0:0:0:0:
138,191,93353,2,0,B|122:278|44:318|44:318|78:287|78:287|112:256|158:248|188:262,8,330,0|8|8|0|2|0|2|0|2,0:0|0:0|0:0|0:0|0:0|0:0|0:0|0:0|0:0,0:0:0:0:
473,127,96352,1,2,0:0:0:0:
473,127,96440,1,0,0:0:0:0:
473,127,96528,1,8,0:0:0:0:
147,231,96705,2,0,P|131:143|139:53,1,180,8|0,0:0|0:0,0:0:0:0:
297,355,97058,2,0,P|371:304|428:235,2,180,8|0|0,0:0|0:0|0:0,0:0:0:0:
393,126,97764,5,8,0:0:0:0:
393,126,97852,1,0,0:0:0:0:
121,333,98028,1,0,0:0:0:0:
121,333,98117,1,2,0:0:0:0:
298,40,98293,1,10,0:0:0:0:
298,40,98381,1,2,0:0:0:0:
298,40,98469,1,0,0:0:0:0:
51,90,98822,1,0,0:0:0:0:
51,90,98911,1,0,0:0:0:0:
51,90,98999,1,0,0:0:0:0:
368,218,99175,1,8,0:0:0:0:
368,218,99264,1,2,0:0:0:0:
36,134,99440,1,0,0:0:0:0:
36,134,99528,1,0,0:0:0:0:
377,124,99705,2,0,B|283:100|246:10|246:10|334:-29|418:20|418:20|333:66|319:161|319:161|498:171,8,720,0|6|2|2|10|0|0|2|0,0:0|0:0|0:0|0:0|0:0|0:0|0:0|0:0|0:0,0:0:0:0:
377,124,105528,2,0,B|317:293|317:293|403:317|403:317|377:230|377:230|492:367|492:367|381:304|381:304|331:324,2,720,2|2|0,0:0|0:0|0:0,0:0:0:0:
35,146,107117,5,0,0:0:0:0:
35,146,107205,1,2,0:0:0:0:
35,146,107293,1,0,0:0:0:0:
375,172,107470,1,0,0:0:0:0:
375,172,107558,1,2,0:0:0:0:
56,47,107734,1,2,0:0:0:0:
56,47,107822,1,4,0:0:0:0:
397,36,107999,2,0,B|418:123|418:123|332:93|332:93|380:106|380:106|428:120|462:159|467:194|467:194|383:227|383:227|400:139,1,540,2|10,0:0|0:0,0:0:0:0:
108,318,108705,1,0,0:0:0:0:
108,318,108793,1,0,0:0:0:0:
108,318,108881,1,12,0:0:0:0:
354,80,109058,5,0,0:0:0:0:
376,224,109146,1,8,0:0:0:0:
398,367,109234,1,0,0:0:0:0:
183,100,109411,1,10,0:0:0:0:
183,100,109499,1,4,0:0:0:0:
380,379,109675,1,2,0:0:0:0:
380,379,109764,1,0,0:0:0:0:
488,54,109940,1,0,0:0:0:0:
488,54,110028,1,10,0:0:0:0:
174,189,110205,5,2,0:0:0:0:
174,189,110293,1,8,0:0:0:0:
507,262,110470,1,0,0:0:0:0:
197,117,110646,2,0,P|170:203|166:292,4,180,0|2|0|10|6,0:0|0:0|0:0|0:0|0:0,0:0:0:0:
467,325,111528,6,0,B|456:349|430:356|430:356|445:334|437:308|437:308|403:344,1,150,0|0,0:0|0:0,0:0:0:0:
441,256,112940,2,0,B|457:234|484:235|484:235|461:221|436:230|436:230|426:253|426:253|450:248,1,150,0|8,0:0|0:0,0:0:0:0:
356,263,114352,1,8,0:0:0:0:
356,263,114528,1,0,0:0:0:0:
450,255,114881,1,0,0:0:0:0:
450,255,115057,1,0,0:0:0:0:
356,272,115410,2,0,P|355:247|361:223,1,50,6|8,0:0|0:0,0:0:0:0:
243,127,116116,1,0,0:0:0:0:
297,204,116469,2,0,P|275:216|251:222,1,50,0|0,0:0|0:0,0:0:0:0:
340,188,117175,1,0,0:0:0:0:
340,188,117352,1,2,0:0:0:0:
340,188,117528,1,0,0:0:0:0:
212,271,117881,5,8,0:0:0:0:
205,365,118234,2,0,B|231:359|242:335,1,50,8|2,0:0|0:0,0:0:0:0:
152,368,118940,1,0,0:0:0:0:
152,368,119116,1,0,0:0:0:0:
152,368,119293,1,0,0:0:0:0:
201,286,119646,2,0,P|220:302|235:322,3,50,0|0|10|10,0:0|0:0|0:0|0:0,0:0:0:0:
149,279,121057,5,2,0:0:0:0:
149,279,121234,1,8,0:0:0:0:
240,302,121587,1,2,0:0:0:0:
240,302,121763,1,2,0:0:0:0:
153,261,122116,1,0,0:0:0:0:
153,261,122293,1,6,0:0:0:0:
228,319,122646,1,0,0:0:0:0:
228,319,122822,1,0,0:0:0:0:
188,232,123175,2,0,B|163:248|163:248|151:252|144:246|144:246|169:237|178:212|178:212|168:186|142:179|142:179|146:205|170:217,2,200,0|8|10,0:0|0:0|0:0,0:0:0:0:
229,317,126352,1,8,0:0:0:0:
229,317,126528,1,0,0:0:0:0:
229,317,126704,1,0,0:0:0:0:
237,222,127057,1,2,0:0:0:0:
237,222,127234,1,8,0:0:0:0:
237,222,127410,1,0,0:0:0:0:
172,152,127763,2,0,B|187:173|179:199|179:199|177:172|197:154,1,100,0|2,0:0|0:0,0:0:0:0:
211,247,128822,6,0,P|235:241|256:228,1,50,8|2,0:0|0:0,0:0:0:0:
347,254,129528,2,0,B|359:248|362:235|362:235|365:222|378:217|378:217|425:232,1,100,0|0,0:0|0:0,0:0:0:0:
338,271,130587,1,0,0:0:0:0:
338,271,130763,1,0,0:0:0:0:
338,271,130940,1,2,0:0:0:0:
382,187,131293,6,0,P|402:201|418:220,2,50,0|8|0,0:0|0:0|0:0,0:0:0:0:
475,172,132352,1,0,0:0:0:0:
475,172,132528,1,6,0:0:0:0:
475,172,132704,1,8,0:0:0:0:
301,97,132792,1,0,0:0:0:0:
301,97,132836,1,0,0:0:0:0:
301,97,132880,1,0,0:0:0:0:
449,215,132969,5,8,0:0:0:0:
449,215,133013,1,0,0:0:0:0:
449,215,133057,1,10,0:0:0:0:
297,100,133145,1,8,0:0:0:0:
297,100,133189,1,0,0:0:0:0:
480,148,133278,1,4,0:0:0:0:
480,148,133322,1,8,0:0:0:0:
339,276,133410,1,0,0:0:0:0:
339,276,133454,1,2,0:0:0:0:
339,276,133498,1,8,0:0:0:0:
389,92,133586,2,0,B|315:24|315:24|300:122|300:122|326:102|365:106|365:106|385:131,1,300,8|0,0:0|0:0,0:0:0:0:
202,77,133939,1,0,0:0:0:0:
202,77,133983,1,2,0:0:0:0:
202,77,134028,1,8,0:0:0:0:
356,186,134116,1,8,0:0:0:0:
356,186,134160,1,0,0:0:0:0:
417,6,134248,1,0,0:0:0:0:
417,6,134292,1,0,0:0:0:0:
256,192,134469,12,8,135175,0:0:0:0:
256,192,135527,12,0,136233,0:0:0:0:
83,190,136586,5,8,0:0:0:0:
83,190,136762,1,8,0:0:0:0:
28,290,137115,1,0,0:0:0:0:
28,290,137292,1,10,0:0:0:0:
256,192,137645,12,2,139056,0:0:0:0:
256,192,139409,12,2,140821,0:0:0:0:
384,178,141174,6,0,B|355:193|326:179|326:179|358:180|375:207|375:207|377:223|377:223|379:240|372:255|362:261|362:261|369:246|369:246|377:231|392:223|404:223,1,240,0|4,0:0|0:0,0:0:0:0:
294,255,142939,1,8,0:0:0:0:
294,255,143115,1,8,0:0:0:0:
294,255,143292,2,0,B|326:253|344:226|344:226|329:218|315:225|315:225|300:232|286:224,1,120,2|8,0:0|0:0,0:0:0:0:
376,154,144350,1,0,0:0:0:0:
376,154,144527,1,2,0:0:0:0:
269,194,144880,5,0,0:0:0:0:
269,194,145056,1,8,0:0:0:0:
256,192,145409,12,0,146115,0:0:0:0:
256,192,146468,12,8,147880,0:0:0:0:
84,156,148233,5,0,0:0:0:0:
84,156,148409,1,8,0:0:0:0:
102,43,148762,1,2,0:0:0:0:
102,43,148939,1,0,0:0:0:0:
16,118,149292,2,0,B|38:95|70:100|70:100|61:85|61:85|52:71|52:54|59:44|59:44|98:89|98:89|66:83|51:54,8,240,10|0|0|8|8|0|8|10|8,0:0|0:0|0:0|0:0|0:0|0:0|0:0|0:0|0:0,0:0:0:0:
9,23,160762,1,2,0:0:0:0:
9,23,160850,1,0,0:0:0:0:
78,87,161027,1,0,0:0:0:0:
78,87,161115,1,2,0:0:0:0:
78,87,161292,5,2,0:0:0:0:
79,181,161468,1,8,0:0:0:0:
79,181,161556,1,2,0:0:0:0:
79,181,161645,1,0,0:0:0:0:
23,103,161821,1,12,0:0:0:0:
23,103,161909,1,0,0:0:0:0:
9,197,162086,1,12,0:0:0:0:
9,197,162174,1,10,0:0:0:0:
79,133,162350,2,0,P|93:153|102:177,1,50,2|0,0:0|0:0,0:0:0:0:
144,91,162703,1,2,0:0:0:0:
144,91,162792,1,10,0:0:0:0:
164,183,162968,1,4,0:0:0:0:
164,183,163056,1,0,0:0:0:0:
256,17,163409,1,4,0:0:0:0:
256,17,163497,1,0,0:0:0:0:
225,106,163674,5,0,0:0:0:0:
225,106,163762,1,0,0:0:0:0:
355,358,163938,2,0,B|342:434|274:423|286:346|286:346|185:234|185:234|135:158|135:158|108:134|81:143,1,450,8|8,0:0|0:0,0:0:0:0:
335,13,164644,1,8,0:0:0:0:
335,13,164733,1,0,0:0:0:0:
335,13,164821,1,6,0:0:0:0:
434,174,165174,1,0,0:0:0:0:
434,174,165262,1,0,0:0:0:0:
434,174,165350,1,2,0:0:0:0:
219,361,165527,1,8,0:0:0:0:
219,361,165615,1,0,0:0:0:0:
219,361,165703,1,8,0:0:0:0:
194,77,165880,5,0,0:0:0:0:
194,77,165968,1,4,0:0:0:0:
194,77,166056,1,0,0:0:0:0:
438,223,166233,2,0,B|451:185|430:151|430:151|408:117|422:79,2,150,0|0|0,0:0|0:0|0:0,0:0:0:0:
153,216,166762,2,0,P|161:290|188:360,1,150,8|2,0:0|0:0,0:0:0:0:
188,360,167291,2,0,B|335:384|335:384|222:284|222:284|300:303|330:378|330:378|334:287|334:287|326:252|299:243,1,600,0|2,0:0|0:0,0:0:0:0:
373,156,168350,2,0,P|393:178|406:205,2,60,8|0|0,0:0|0:0|0:0,0:0:0:0:
430,153,169233,1,0,0:0:0:0:
430,153,169321,1,8,0:0:0:0:
430,153,169409,1,0,0:0:0:0:
251,87,169586,5,10,0:0:0:0:
251,87,169674,1,2,0:0:0:0:
251,87,169762,1,0,0:0:0:0:
381,225,169939,2,0,P|413:187|433:141,1,100,8|2,0:0|0:0,0:0:0:0:
258,215,170292,1,10,0:0:0:0:
306,150,170380,1,2,0:0:0:0:
353,84,170468,1,0,0:0:0:0:
388,270,170645,1,8,0:0:0:0:
388,270,170733,1,0,0:0:0:0:
388,270,170821,1,8,0:0:0:0:
242,148,170998,5,0,0:0:0:0:
242,148,171086,1,8,0:0:0:0:
242,148,171174,1,8,0:0:0:0:
431,148,171351,1,0,0:0:0:0:
431,148,171439,1,2,0:0:0:0:
431,148,171527,1,8,0:0:0:0:
290,20,171704,2,0,P|262:61|245:108,3,100,0|2|0|8,0:0|0:0|0:0|0:0,0:0:0:0:
196,291,172409,2,0,P|245:298|295:291,3,100,0|0|0|0,0:0|0:0|0:0|0:0,0:0:0:0:
400,132,173115,5,12,0:0:0:0:
400,132,173204,1,2,0:0:0:0:
400,132,173292,1,0,0:0:0:0:
279,278,173468,2,0,B|346:257|346:257|357:229|357:229|262:197|262:197|305:155|305:155|326:143|342:153|342:153|317:139|317:139|293:126|264:128|248:140,2,400,14|8|0,0:0|0:0|0:0,0:0:0:0:
109,192,175057,1,2,0:0:0:0:
109,192,175145,1,0,0:0:0:0:
109,192,175233,1,6,0:0:0:0:
76,4,175409,2,0,B|62:103|62:103|57:3,3,200,8|0|8|8,0:0|0:0|0:0|0:0,0:0:0:0:
25,190,176645,6,0,B|45:239|97:252|97:252|131:190|131:190|120:162,1,200,2|0,0:0|0:0,0:0:0:0:
208,330,177174,1,0,0:0:0:0:
263,271,177262,1,0,0:0:0:0:
317,211,177351,1,0,0:0:0:0:
481,305,177527,2,0,B|435:276|385:296|385:296|438:291|466:245,1,200,8|10,0:0|0:0,0:0:0:0:
466,245,177968,2,0,B|429:337|429:337|393:296|403:244|403:244|403:276|431:305|431:305|462:306,1,300,10|8,0:0|0:0,0:0:0:0:
343,157,178321,1,2,0:0:0:0:
343,157,178365,1,0,0:0:0:0:
343,157,178409,1,8,0:0:0:0:
388,341,178498,1,10,0:0:0:0:
388,341,178542,1,10,0:0:0:0:
388,341,178586,1,0,0:0:0:0:
206,286,178674,5,0,0:0:0:0:
206,286,178718,1,2,0:0:0:0:
206,286,178762,1,0,0:0:0:0:
40,378,178851,2,0,P|22:332|16:282,1,100,0|2,0:0|0:0,0:0:0:0:
178,183,179027,1,2,0:0:0:0:
178,183,179071,1,4,0:0:0:0:
178,183,179115,1,6,0:0:0:0:
165,372,179204,6,0,P|116:363|72:340,2,100,0|8|14,0:0|0:0|0:0,0:0:0:0:
55,281,179644,2,0,P|41:302|31:325,1,50,2|0,0:0|0:0,0:0:0:0:
15,231,179997,1,0,0:0:0:0:
15,231,180085,1,10,0:0:0:0:
15,231,180173,1,8,0:0:0:0:
256,192,180350,12,2,180703,0:0:0:0:
