osu file format v14

[General]
AudioFilename: Speed of Link.mp3
AudioLeadIn: 0
PreviewTime: 83788
Countdown: 0
SampleSet: Normal
StackLeniency: 0.7
Mode: 1
LetterboxInBreaks: 0
WidescreenStoryboard: 1

[Editor]
Bookmarks: 14580,29176,43773,51071,58369,65667,72966
DistanceSpacing: 2.2
BeatDivisor: 4
GridSize: 4
TimelineZoom: 3.699998

[Metadata]
Title:Speed of Link
TitleUnicode:Speed of Link
Artist:antiPLUR
ArtistUnicode:antiPLUR
Creator:SKSalt
Version:Crazy Oni
Source:
Tags:
BeatmapID:880186
BeatmapSetID:404793

[Difficulty]
HPDrainRate:5
CircleSize:5
OverallDifficulty:6
ApproachRate:5
SliderMultiplier:1.4
SliderTickRate:1

[Events]
//Background and Video events
0,0,"ABG.jpg",0,0
//Break Periods
//Storyboard Layer 0 (Background)
//Storyboard Layer 1 (Fail)
//Storyboard Layer 2 (Pass)
//Storyboard Layer 3 (Foreground)
//Storyboard Sound Samples

[TimingPoints]
7282,228.07,4,1,0,80,1,0
81176,227.273,4,1,0,80,1,0
81630,217.391304347826,4,1,0,80,1,0
81630,-104.602510460251,4,1,0,80,0,0
82064,218.978,4,1,0,80,1,0
82501,211.268,4,1,0,80,1,0
82501,-107.52688172043,4,1,0,80,0,0
83788,210.526,4,1,0,80,1,1
83788,-100,4,1,0,80,0,1
110736,212.014,4,1,0,60,1,0
111584,214.286,4,1,0,60,1,0
112012,215.827,4,1,0,60,1,8
112444,217.391,4,1,0,60,1,0
112662,218.182,4,1,0,60,1,8
113098,219.78,4,1,0,60,1,8
113317,220.588,4,1,0,60,1,0
113537,221.402,4,1,0,60,1,8
113979,223.048,4,1,0,60,1,8
114202,223.464,4,1,0,60,1,0
114425,224.719,4,1,0,60,1,8
114649,225.564,4,1,0,60,1,8
114874,225.989,4,1,0,60,1,8
115099,227.273,4,1,0,60,1,0
115326,228.137,4,1,0,60,1,8
115554,229.008,4,1,0,60,1,8
115783,229.446,4,1,0,60,1,8
116012,230.769,4,1,0,60,1,0
116242,231.66,4,1,0,60,1,8
116473,232.558,4,1,0,60,1,8
116706,233.463,4,1,0,60,1,8
116939,234.375,4,1,0,60,1,0
117173,235.294,4,1,0,60,1,8
117408,236.22,4,1,0,60,1,8
117644,237.436,4,1,0,60,1,8
117881,238.095,4,1,0,60,1,0
118119,239.044,4,1,0,60,1,8
118358,240.385,4,1,0,60,1,8
118598,240.964,4,1,0,60,1,8
118838,241.935,4,1,0,60,1,0
119079,243.902,4,1,0,60,1,8
119566,244.898,4,1,0,60,1,8
119810,246.914,4,1,0,60,1,0
120303,247.934,4,1,0,60,1,8
120550,249.377,4,1,0,60,1,8
120799,250,4,1,0,60,1,0
121049,252.101,4,1,0,60,1,8
121301,252.419,4,1,0,60,1,8
121553,253.485,4,1,0,60,1,8
121814,254.777,4,1,0,60,1,0
122068,255.864,4,1,0,60,1,8
122323,257.511,4,1,0,60,1,8
122838,259.179,4,1,0,60,1,0
123097,260.87,4,1,0,60,1,8
123357,262.009,4,1,0,60,1,8
123881,264.317,4,1,0,60,1,0
124145,264.901,4,1,0,60,1,8
124409,266.312,4,1,0,60,1,8
124675,267.261,4,1,0,60,1,8
124942,269.058,4,1,0,60,1,0
125480,271.493,4,1,0,60,1,8
125751,272.727,4,1,0,60,1,8

[HitObjects]
168,240,7282,5,0,0:0:0:0:
208,184,7510,1,2,0:0:0:0:
208,184,7624,1,0,0:0:0:0:
208,184,7738,1,2,0:0:0:0:
208,184,7852,1,0,0:0:0:0:
208,184,7966,1,2,0:0:0:0:
208,184,8080,1,2,0:0:0:0:
168,240,8194,1,0,0:0:0:0:
208,184,8422,1,0,0:0:0:0:
208,184,8536,1,0,0:0:0:0:
208,184,8650,1,2,0:0:0:0:
208,184,8764,1,0,0:0:0:0:
208,184,8878,1,2,0:0:0:0:
208,184,8992,1,2,0:0:0:0:
168,240,9106,1,0,0:0:0:0:
208,184,9334,1,2,0:0:0:0:
208,184,9448,1,0,0:0:0:0:
208,184,9562,1,2,0:0:0:0:
208,184,9676,1,0,0:0:0:0:
208,184,9790,1,2,0:0:0:0:
208,184,9904,1,2,0:0:0:0:
168,240,10018,1,0,0:0:0:0:
208,184,10246,1,0,0:0:0:0:
208,184,10360,1,0,0:0:0:0:
208,184,10474,1,2,0:0:0:0:
208,184,10588,1,0,0:0:0:0:
208,184,10702,1,2,0:0:0:0:
208,184,10816,1,2,0:0:0:0:
236,216,10930,1,0,0:0:0:0:
216,292,11045,1,0,0:0:0:0:
208,184,11159,1,2,0:0:0:0:
208,184,11273,1,0,0:0:0:0:
208,184,11387,1,2,0:0:0:0:
208,184,11501,1,0,0:0:0:0:
208,184,11615,1,2,0:0:0:0:
208,184,11729,1,2,0:0:0:0:
168,240,11843,1,0,0:0:0:0:
216,292,11957,1,2,0:0:0:0:
208,184,12071,1,0,0:0:0:0:
208,184,12185,1,0,0:0:0:0:
208,184,12299,1,2,0:0:0:0:
208,184,12413,1,0,0:0:0:0:
208,184,12527,1,2,0:0:0:0:
208,184,12641,1,2,0:0:0:0:
168,240,12755,1,0,0:0:0:0:
216,292,12869,1,0,0:0:0:0:
208,184,12983,1,2,0:0:0:0:
208,184,13097,1,0,0:0:0:0:
208,184,13211,1,2,0:0:0:0:
208,184,13325,1,0,0:0:0:0:
208,184,13439,1,2,0:0:0:0:
208,184,13553,1,2,0:0:0:0:
168,240,13667,1,0,0:0:0:0:
216,292,13781,1,2,0:0:0:0:
208,184,13895,1,0,0:0:0:0:
208,184,14009,1,0,0:0:0:0:
208,184,14123,1,2,0:0:0:0:
208,184,14237,1,0,0:0:0:0:
208,184,14351,5,2,0:0:0:0:
208,184,14409,1,0,0:0:0:0:
236,216,14466,1,2,0:0:0:0:
96,256,14523,1,2,0:0:0:0:
96,256,14580,1,0,0:0:0:0:
212,200,14694,1,2,0:0:0:0:
212,200,14751,1,0,0:0:0:0:
328,248,14808,1,2,0:0:0:0:
88,204,14922,1,2,0:0:0:0:
88,204,15036,1,0,0:0:0:0:
112,216,15093,1,0,0:0:0:0:
112,216,15150,1,2,0:0:0:0:
112,216,15207,1,0,0:0:0:0:
328,256,15264,1,2,0:0:0:0:
264,200,15378,1,2,0:0:0:0:
276,208,15492,1,0,0:0:0:0:
264,200,15606,1,2,0:0:0:0:
264,200,15663,1,0,0:0:0:0:
248,144,15720,1,2,0:0:0:0:
112,200,15834,1,2,0:0:0:0:
112,200,15891,1,2,0:0:0:0:
112,200,15948,1,0,0:0:0:0:
112,200,16062,1,2,0:0:0:0:
236,144,16176,1,2,0:0:0:0:
72,216,16233,1,0,0:0:0:0:
72,216,16290,1,2,0:0:0:0:
72,216,16347,1,2,0:0:0:0:
72,216,16404,1,0,0:0:0:0:
72,216,16518,1,2,0:0:0:0:
96,192,16575,1,0,0:0:0:0:
144,208,16632,1,2,0:0:0:0:
184,216,16746,1,2,0:0:0:0:
184,216,16860,1,0,0:0:0:0:
184,216,16917,1,0,0:0:0:0:
184,216,16974,1,2,0:0:0:0:
184,216,17031,1,0,0:0:0:0:
144,192,17089,1,2,0:0:0:0:
276,264,17203,1,2,0:0:0:0:
276,264,17317,1,0,0:0:0:0:
276,264,17374,1,2,0:0:0:0:
276,264,17431,1,2,0:0:0:0:
276,264,17488,1,0,0:0:0:0:
144,200,17545,1,2,0:0:0:0:
288,284,17659,1,2,0:0:0:0:
288,284,17773,1,0,0:0:0:0:
288,284,17830,1,0,0:0:0:0:
288,284,17887,1,2,0:0:0:0:
288,284,17944,1,0,0:0:0:0:
144,200,18001,1,2,0:0:0:0:
248,248,18058,1,0,0:0:0:0:
248,248,18115,1,2,0:0:0:0:
248,248,18172,1,2,0:0:0:0:
248,248,18229,1,0,0:0:0:0:
188,240,18343,1,2,0:0:0:0:
188,240,18400,1,0,0:0:0:0:
424,304,18457,1,2,0:0:0:0:
280,232,18571,1,2,0:0:0:0:
280,232,18685,1,0,0:0:0:0:
280,232,18742,1,2,0:0:0:0:
280,232,18799,1,0,0:0:0:0:
280,232,18856,1,0,0:0:0:0:
424,304,18913,1,2,0:0:0:0:
240,272,19027,1,2,0:0:0:0:
240,272,19141,1,0,0:0:0:0:
240,272,19255,1,2,0:0:0:0:
240,272,19312,1,0,0:0:0:0:
424,256,19369,1,2,0:0:0:0:
128,168,19483,1,2,0:0:0:0:
128,168,19540,1,2,0:0:0:0:
128,168,19597,1,0,0:0:0:0:
128,168,19654,1,2,0:0:0:0:
128,168,19711,1,0,0:0:0:0:
428,248,19825,1,2,0:0:0:0:
56,184,19882,1,0,0:0:0:0:
56,184,19939,1,2,0:0:0:0:
56,184,20053,1,0,0:0:0:0:
56,184,20110,1,0,0:0:0:0:
56,184,20167,1,2,0:0:0:0:
56,184,20224,1,0,0:0:0:0:
428,248,20281,1,2,0:0:0:0:
208,196,20396,1,2,0:0:0:0:
208,196,20510,1,0,0:0:0:0:
208,196,20567,1,2,0:0:0:0:
208,196,20624,1,0,0:0:0:0:
208,196,20681,1,0,0:0:0:0:
428,248,20738,1,2,0:0:0:0:
116,204,20852,1,2,0:0:0:0:
116,204,20966,1,0,0:0:0:0:
116,204,21023,1,0,0:0:0:0:
116,204,21080,1,2,0:0:0:0:
116,204,21137,1,0,0:0:0:0:
428,248,21194,1,2,0:0:0:0:
208,200,21251,1,0,0:0:0:0:
208,200,21308,1,2,0:0:0:0:
208,200,21365,1,2,0:0:0:0:
208,200,21422,1,0,0:0:0:0:
208,200,21479,1,2,0:0:0:0:
208,200,21536,1,0,0:0:0:0:
208,200,21593,1,0,0:0:0:0:
428,248,21650,1,2,0:0:0:0:
264,260,21707,1,0,0:0:0:0:
264,260,21764,1,2,0:0:0:0:
264,260,21821,1,2,0:0:0:0:
96,256,21878,1,0,0:0:0:0:
212,200,21992,1,2,0:0:0:0:
212,200,22049,1,0,0:0:0:0:
328,248,22106,1,2,0:0:0:0:
88,204,22220,1,2,0:0:0:0:
88,204,22334,1,0,0:0:0:0:
112,216,22391,1,0,0:0:0:0:
112,216,22448,1,2,0:0:0:0:
112,216,22505,1,0,0:0:0:0:
328,256,22562,1,2,0:0:0:0:
264,200,22676,1,2,0:0:0:0:
276,208,22790,1,0,0:0:0:0:
264,200,22904,1,2,0:0:0:0:
264,200,22961,1,0,0:0:0:0:
248,144,23018,1,2,0:0:0:0:
112,200,23132,1,2,0:0:0:0:
112,200,23189,1,2,0:0:0:0:
112,200,23246,1,0,0:0:0:0:
112,200,23360,1,2,0:0:0:0:
236,144,23474,1,2,0:0:0:0:
72,216,23531,1,0,0:0:0:0:
72,216,23588,1,2,0:0:0:0:
72,216,23645,1,2,0:0:0:0:
72,216,23702,1,0,0:0:0:0:
72,216,23816,1,2,0:0:0:0:
96,192,23873,1,0,0:0:0:0:
144,208,23930,1,2,0:0:0:0:
184,216,24044,1,2,0:0:0:0:
184,216,24158,1,0,0:0:0:0:
184,216,24215,1,0,0:0:0:0:
184,216,24272,1,2,0:0:0:0:
184,216,24329,1,0,0:0:0:0:
144,192,24387,1,2,0:0:0:0:
276,264,24501,1,2,0:0:0:0:
276,264,24615,1,0,0:0:0:0:
276,264,24672,1,2,0:0:0:0:
276,264,24729,1,2,0:0:0:0:
276,264,24786,1,0,0:0:0:0:
144,200,24843,1,2,0:0:0:0:
288,284,24957,1,2,0:0:0:0:
288,284,25071,1,0,0:0:0:0:
288,284,25128,1,0,0:0:0:0:
288,284,25185,1,2,0:0:0:0:
288,284,25242,1,0,0:0:0:0:
144,200,25299,1,2,0:0:0:0:
248,248,25356,1,0,0:0:0:0:
248,248,25413,1,2,0:0:0:0:
248,248,25470,1,2,0:0:0:0:
248,248,25527,1,0,0:0:0:0:
188,240,25641,1,2,0:0:0:0:
188,240,25698,1,0,0:0:0:0:
424,304,25755,1,2,0:0:0:0:
280,232,25869,1,2,0:0:0:0:
280,232,25983,1,0,0:0:0:0:
280,232,26040,1,2,0:0:0:0:
280,232,26097,1,0,0:0:0:0:
280,232,26154,1,0,0:0:0:0:
424,304,26211,1,2,0:0:0:0:
240,272,26325,1,2,0:0:0:0:
240,272,26439,1,0,0:0:0:0:
240,272,26553,1,2,0:0:0:0:
240,272,26610,1,0,0:0:0:0:
424,256,26667,1,2,0:0:0:0:
128,168,26781,1,2,0:0:0:0:
128,168,26838,1,2,0:0:0:0:
128,168,26895,1,0,0:0:0:0:
128,168,26952,1,2,0:0:0:0:
128,168,27009,1,0,0:0:0:0:
428,248,27123,1,2,0:0:0:0:
56,184,27180,1,0,0:0:0:0:
56,184,27237,1,2,0:0:0:0:
56,184,27351,1,0,0:0:0:0:
56,184,27408,1,0,0:0:0:0:
56,184,27465,1,2,0:0:0:0:
56,184,27522,1,0,0:0:0:0:
428,248,27579,1,2,0:0:0:0:
208,196,27694,1,2,0:0:0:0:
208,196,27808,1,0,0:0:0:0:
208,196,27865,1,2,0:0:0:0:
208,196,27922,1,0,0:0:0:0:
208,196,27979,1,0,0:0:0:0:
428,248,28036,1,2,0:0:0:0:
116,204,28150,1,2,0:0:0:0:
116,204,28264,1,0,0:0:0:0:
116,204,28321,1,0,0:0:0:0:
116,204,28378,1,2,0:0:0:0:
116,204,28435,1,0,0:0:0:0:
428,248,28492,1,2,0:0:0:0:
208,200,28549,1,0,0:0:0:0:
208,200,28606,1,2,0:0:0:0:
208,200,28663,1,2,0:0:0:0:
208,200,28720,1,0,0:0:0:0:
208,200,28777,1,2,0:0:0:0:
208,200,28834,1,0,0:0:0:0:
208,200,28891,1,0,0:0:0:0:
428,248,28948,1,2,0:0:0:0:
264,260,29005,1,0,0:0:0:0:
264,260,29062,1,2,0:0:0:0:
264,260,29119,1,2,0:0:0:0:
96,256,29176,1,0,0:0:0:0:
216,232,29290,1,0,0:0:0:0:
240,192,29404,1,2,0:0:0:0:
332,220,29518,1,0,0:0:0:0:
332,220,29575,1,0,0:0:0:0:
332,220,29632,1,0,0:0:0:0:
332,220,29689,1,0,0:0:0:0:
332,220,29746,1,0,0:0:0:0:
240,192,29860,1,2,0:0:0:0:
216,232,29974,1,0,0:0:0:0:
216,232,30089,1,2,0:0:0:0:
352,336,30203,1,0,0:0:0:0:
216,232,30317,1,2,0:0:0:0:
352,336,30431,1,0,0:0:0:0:
352,336,30488,1,0,0:0:0:0:
352,336,30545,1,0,0:0:0:0:
352,336,30602,1,0,0:0:0:0:
352,336,30659,1,0,0:0:0:0:
352,336,30773,1,2,0:0:0:0:
352,336,30887,1,0,0:0:0:0:
160,296,31001,1,2,0:0:0:0:
200,224,31115,1,0,0:0:0:0:
200,236,31172,1,0,0:0:0:0:
292,296,31229,1,2,0:0:0:0:
220,180,31343,1,0,0:0:0:0:
220,180,31400,1,0,0:0:0:0:
292,296,31457,1,0,0:0:0:0:
220,180,31514,1,0,0:0:0:0:
292,296,31571,1,0,0:0:0:0:
292,296,31685,1,2,0:0:0:0:
292,296,31799,1,0,0:0:0:0:
292,296,31913,1,2,0:0:0:0:
188,232,32027,1,2,0:0:0:0:
188,232,32084,1,0,0:0:0:0:
240,252,32141,1,2,0:0:0:0:
240,252,32255,1,0,0:0:0:0:
240,252,32312,1,0,0:0:0:0:
240,252,32369,1,0,0:0:0:0:
240,252,32426,1,0,0:0:0:0:
240,252,32483,1,0,0:0:0:0:
240,252,32597,1,2,0:0:0:0:
196,248,32711,1,0,0:0:0:0:
360,200,32825,1,2,0:0:0:0:
332,216,32882,1,2,0:0:0:0:
316,184,32939,1,0,0:0:0:0:
316,184,33053,1,2,0:0:0:0:
316,184,33167,1,0,0:0:0:0:
316,184,33224,1,0,0:0:0:0:
316,184,33281,1,0,0:0:0:0:
316,184,33338,1,0,0:0:0:0:
316,184,33396,1,0,0:0:0:0:
316,184,33510,1,2,0:0:0:0:
316,184,33624,1,0,0:0:0:0:
184,236,33738,1,2,0:0:0:0:
288,200,33795,1,0,0:0:0:0:
184,236,33852,1,2,0:0:0:0:
184,236,33966,1,2,0:0:0:0:
184,236,34080,1,0,0:0:0:0:
184,236,34137,1,0,0:0:0:0:
184,236,34194,1,0,0:0:0:0:
184,236,34251,1,0,0:0:0:0:
184,236,34308,1,0,0:0:0:0:
184,236,34422,1,2,0:0:0:0:
200,172,34536,1,0,0:0:0:0:
328,220,34650,1,2,0:0:0:0:
184,248,34707,1,2,0:0:0:0:
184,248,34764,1,0,0:0:0:0:
232,228,34821,1,0,0:0:0:0:
328,220,34878,1,2,0:0:0:0:
232,200,34992,1,0,0:0:0:0:
232,200,35049,1,0,0:0:0:0:
328,220,35106,1,0,0:0:0:0:
232,200,35163,1,0,0:0:0:0:
232,200,35220,1,0,0:0:0:0:
328,220,35334,1,2,0:0:0:0:
232,200,35448,1,0,0:0:0:0:
336,216,35562,1,0,0:0:0:0:
180,200,35619,1,0,0:0:0:0:
44,128,35676,1,0,0:0:0:0:
180,200,35733,1,0,0:0:0:0:
328,212,35790,1,2,0:0:0:0:
232,200,35847,1,0,0:0:0:0:
220,188,35904,1,2,0:0:0:0:
216,184,35961,1,2,0:0:0:0:
216,180,36018,1,0,0:0:0:0:
216,180,36075,1,0,0:0:0:0:
216,180,36132,1,2,0:0:0:0:
40,212,36189,1,0,0:0:0:0:
328,212,36246,1,2,0:0:0:0:
40,212,36303,1,0,0:0:0:0:
40,212,36360,1,2,0:0:0:0:
40,212,36417,1,2,0:0:0:0:
156,196,36474,1,0,0:0:0:0:
216,232,36588,1,0,0:0:0:0:
240,192,36702,1,2,0:0:0:0:
332,220,36816,1,0,0:0:0:0:
332,220,36873,1,0,0:0:0:0:
332,220,36930,1,0,0:0:0:0:
332,220,36987,1,0,0:0:0:0:
332,220,37044,1,0,0:0:0:0:
240,192,37158,1,2,0:0:0:0:
216,232,37272,1,0,0:0:0:0:
216,232,37387,1,2,0:0:0:0:
352,336,37501,1,0,0:0:0:0:
216,232,37615,1,2,0:0:0:0:
352,336,37729,1,0,0:0:0:0:
352,336,37786,1,0,0:0:0:0:
352,336,37843,1,0,0:0:0:0:
352,336,37900,1,0,0:0:0:0:
352,336,37957,1,0,0:0:0:0:
352,336,38071,1,2,0:0:0:0:
352,336,38185,1,0,0:0:0:0:
160,296,38299,1,2,0:0:0:0:
200,224,38413,1,0,0:0:0:0:
200,236,38470,1,0,0:0:0:0:
292,296,38527,1,2,0:0:0:0:
220,180,38641,1,0,0:0:0:0:
220,180,38698,1,0,0:0:0:0:
292,296,38755,1,0,0:0:0:0:
220,180,38812,1,0,0:0:0:0:
292,296,38869,1,0,0:0:0:0:
292,296,38983,1,2,0:0:0:0:
292,296,39097,1,0,0:0:0:0:
292,296,39211,1,2,0:0:0:0:
188,232,39325,1,2,0:0:0:0:
188,232,39382,1,0,0:0:0:0:
240,252,39439,1,2,0:0:0:0:
240,252,39553,1,0,0:0:0:0:
240,252,39610,1,0,0:0:0:0:
240,252,39667,1,0,0:0:0:0:
240,252,39724,1,0,0:0:0:0:
240,252,39781,1,0,0:0:0:0:
240,252,39895,1,2,0:0:0:0:
196,248,40009,1,0,0:0:0:0:
360,200,40123,1,2,0:0:0:0:
332,216,40180,1,2,0:0:0:0:
316,184,40237,1,0,0:0:0:0:
316,184,40351,1,2,0:0:0:0:
316,184,40465,1,0,0:0:0:0:
316,184,40522,1,0,0:0:0:0:
316,184,40579,1,0,0:0:0:0:
316,184,40636,1,0,0:0:0:0:
316,184,40694,1,0,0:0:0:0:
316,184,40808,1,2,0:0:0:0:
316,184,40922,1,0,0:0:0:0:
184,236,41036,1,2,0:0:0:0:
288,200,41093,1,0,0:0:0:0:
184,236,41150,1,2,0:0:0:0:
184,236,41264,1,2,0:0:0:0:
184,236,41378,1,0,0:0:0:0:
184,236,41435,1,0,0:0:0:0:
184,236,41492,1,0,0:0:0:0:
184,236,41549,1,0,0:0:0:0:
184,236,41606,1,0,0:0:0:0:
184,236,41720,1,2,0:0:0:0:
200,172,41834,1,0,0:0:0:0:
252,192,41948,1,0,0:0:0:0:
352,300,42005,1,0,0:0:0:0:
352,300,42062,1,0,0:0:0:0:
352,300,42119,1,0,0:0:0:0:
264,272,42176,1,2,0:0:0:0:
224,192,42233,1,0,0:0:0:0:
224,192,42290,1,2,0:0:0:0:
224,192,42347,1,2,0:0:0:0:
224,192,42404,1,0,0:0:0:0:
224,192,42461,1,2,0:0:0:0:
224,192,42518,1,0,0:0:0:0:
224,192,42575,1,0,0:0:0:0:
264,272,42632,1,2,0:0:0:0:
72,224,42689,1,0,0:0:0:0:
40,204,42746,1,2,0:0:0:0:
88,228,42803,1,2,0:0:0:0:
256,192,42860,12,0,43659,0:0:0:0:
200,216,43773,5,0,0:0:0:0:
88,200,44001,1,0,0:0:0:0:
104,248,44229,1,2,0:0:0:0:
56,184,44457,1,0,0:0:0:0:
56,184,44571,1,2,0:0:0:0:
96,248,44685,1,0,0:0:0:0:
96,248,44913,1,0,0:0:0:0:
96,244,45141,1,2,0:0:0:0:
272,184,45369,1,0,0:0:0:0:
224,256,45483,1,2,0:0:0:0:
432,204,45597,1,0,0:0:0:0:
352,256,45825,1,0,0:0:0:0:
304,260,45939,1,0,0:0:0:0:
432,204,46053,1,2,0:0:0:0:
296,252,46281,1,0,0:0:0:0:
228,240,46396,1,2,0:0:0:0:
424,216,46510,1,0,0:0:0:0:
424,216,46738,1,0,0:0:0:0:
408,208,46966,1,2,0:0:0:0:
212,216,47194,1,0,0:0:0:0:
200,212,47308,1,2,0:0:0:0:
340,204,47422,1,0,0:0:0:0:
232,216,47650,1,0,0:0:0:0:
332,212,47878,1,2,0:0:0:0:
216,196,48106,1,0,0:0:0:0:
264,192,48220,1,2,0:0:0:0:
328,212,48334,1,0,0:0:0:0:
320,204,48562,1,0,0:0:0:0:
320,204,48790,1,2,0:0:0:0:
220,236,49018,1,0,0:0:0:0:
232,240,49132,1,2,0:0:0:0:
320,204,49246,1,0,0:0:0:0:
92,172,49474,1,0,0:0:0:0:
104,176,49588,1,0,0:0:0:0:
320,200,49703,1,2,0:0:0:0:
172,152,49931,1,0,0:0:0:0:
172,152,50045,1,2,0:0:0:0:
320,204,50159,1,0,0:0:0:0:
332,196,50387,1,0,0:0:0:0:
324,200,50615,1,2,0:0:0:0:
288,212,50843,1,0,0:0:0:0:
288,212,50957,1,2,0:0:0:0:
200,216,51071,5,0,0:0:0:0:
256,236,51185,1,0,0:0:0:0:
88,200,51413,1,0,0:0:0:0:
104,248,51527,1,2,0:0:0:0:
56,184,51755,1,0,0:0:0:0:
56,184,51869,1,2,0:0:0:0:
96,248,51983,1,0,0:0:0:0:
96,248,52097,1,0,0:0:0:0:
192,192,52325,1,0,0:0:0:0:
96,244,52439,1,2,0:0:0:0:
272,184,52667,1,0,0:0:0:0:
224,256,52781,1,2,0:0:0:0:
432,204,52895,1,0,0:0:0:0:
392,224,53010,1,2,0:0:0:0:
352,256,53123,1,0,0:0:0:0:
304,260,53237,1,0,0:0:0:0:
432,204,53351,1,2,0:0:0:0:
388,220,53466,1,2,0:0:0:0:
296,252,53579,1,0,0:0:0:0:
228,240,53694,1,2,0:0:0:0:
424,216,53808,1,0,0:0:0:0:
260,240,53922,1,0,0:0:0:0:
424,216,54150,1,0,0:0:0:0:
408,208,54264,1,2,0:0:0:0:
212,216,54492,1,0,0:0:0:0:
200,212,54606,1,2,0:0:0:0:
340,204,54720,1,2,0:0:0:0:
232,216,54834,1,0,0:0:0:0:
276,228,55062,1,0,0:0:0:0:
332,212,55176,1,2,0:0:0:0:
216,196,55404,1,0,0:0:0:0:
264,192,55518,1,2,0:0:0:0:
328,212,55632,1,2,0:0:0:0:
320,204,55746,1,0,0:0:0:0:
152,180,55974,1,0,0:0:0:0:
320,204,56088,1,2,0:0:0:0:
220,236,56316,1,0,0:0:0:0:
232,240,56430,1,2,0:0:0:0:
320,204,56544,1,0,0:0:0:0:
280,280,56659,1,2,0:0:0:0:
92,172,56772,1,0,0:0:0:0:
104,176,56886,1,2,0:0:0:0:
320,200,57001,1,2,0:0:0:0:
280,280,57115,1,0,0:0:0:0:
172,152,57229,1,0,0:0:0:0:
172,152,57343,1,2,0:0:0:0:
320,204,57457,1,2,0:0:0:0:
332,196,57571,1,0,0:0:0:0:
244,192,57799,1,0,0:0:0:0:
324,200,57913,1,2,0:0:0:0:
288,212,58141,1,0,0:0:0:0:
288,212,58255,1,2,0:0:0:0:
200,216,58369,5,2,0:0:0:0:
256,236,58483,1,0,0:0:0:0:
92,132,58597,1,0,0:0:0:0:
88,200,58711,1,0,0:0:0:0:
104,248,58825,1,2,0:0:0:0:
56,184,59053,1,0,0:0:0:0:
56,184,59167,1,2,0:0:0:0:
96,248,59281,1,2,0:0:0:0:
96,248,59395,1,2,0:0:0:0:
204,192,59510,1,0,0:0:0:0:
192,192,59623,1,0,0:0:0:0:
96,244,59737,1,2,0:0:0:0:
272,184,59965,1,0,0:0:0:0:
224,256,60079,1,2,0:0:0:0:
432,204,60193,1,0,0:0:0:0:
392,224,60308,1,2,0:0:0:0:
352,256,60421,1,0,0:0:0:0:
304,260,60535,1,0,0:0:0:0:
432,204,60649,1,2,0:0:0:0:
296,252,60877,1,0,0:0:0:0:
228,240,60992,1,2,0:0:0:0:
424,216,61106,1,0,0:0:0:0:
260,240,61220,1,0,0:0:0:0:
388,220,61334,1,2,0:0:0:0:
424,216,61448,1,0,0:0:0:0:
408,208,61562,1,2,0:0:0:0:
212,216,61790,1,0,0:0:0:0:
200,212,61904,1,2,0:0:0:0:
340,204,62018,1,2,0:0:0:0:
232,216,62132,1,0,0:0:0:0:
356,236,62246,1,0,0:0:0:0:
276,228,62360,1,0,0:0:0:0:
332,212,62474,1,2,0:0:0:0:
216,196,62702,1,0,0:0:0:0:
264,192,62816,1,2,0:0:0:0:
328,212,62930,1,2,0:0:0:0:
320,204,63044,1,2,0:0:0:0:
200,184,63159,1,0,0:0:0:0:
152,180,63272,1,0,0:0:0:0:
320,204,63386,1,2,0:0:0:0:
220,236,63614,1,0,0:0:0:0:
232,240,63728,1,2,0:0:0:0:
320,204,63842,1,0,0:0:0:0:
280,280,63957,1,2,0:0:0:0:
92,172,64070,1,0,0:0:0:0:
104,176,64184,1,0,0:0:0:0:
320,200,64299,1,2,0:0:0:0:
172,152,64527,1,0,0:0:0:0:
172,152,64641,1,2,0:0:0:0:
332,196,64755,1,0,0:0:0:0:
280,280,64869,1,0,0:0:0:0:
320,204,64983,1,2,0:0:0:0:
244,192,65097,1,0,0:0:0:0:
324,200,65211,1,2,0:0:0:0:
288,212,65439,1,0,0:0:0:0:
288,212,65553,1,2,0:0:0:0:
200,216,65667,5,2,0:0:0:0:
256,236,65781,1,0,0:0:0:0:
88,180,65838,1,0,0:0:0:0:
92,132,65895,1,0,0:0:0:0:
88,200,66009,1,0,0:0:0:0:
104,248,66123,1,2,0:0:0:0:
112,180,66238,1,0,0:0:0:0:
56,184,66351,1,0,0:0:0:0:
56,184,66465,1,2,0:0:0:0:
96,248,66579,1,2,0:0:0:0:
96,248,66693,1,2,0:0:0:0:
112,176,66751,1,0,0:0:0:0:
204,192,66808,1,0,0:0:0:0:
192,192,66921,1,0,0:0:0:0:
96,244,67035,1,2,0:0:0:0:
116,176,67150,1,0,0:0:0:0:
272,184,67263,1,0,0:0:0:0:
224,256,67377,1,2,0:0:0:0:
432,204,67491,1,0,0:0:0:0:
392,224,67606,1,2,0:0:0:0:
116,176,67663,1,0,0:0:0:0:
352,256,67719,1,0,0:0:0:0:
304,260,67833,1,0,0:0:0:0:
432,204,67947,1,2,0:0:0:0:
152,160,68062,1,0,0:0:0:0:
296,252,68175,1,0,0:0:0:0:
228,240,68290,1,2,0:0:0:0:
424,216,68404,1,0,0:0:0:0:
260,240,68518,1,0,0:0:0:0:
152,160,68575,1,0,0:0:0:0:
388,220,68632,1,2,0:0:0:0:
424,216,68746,1,0,0:0:0:0:
408,208,68860,1,2,0:0:0:0:
196,200,68974,1,0,0:0:0:0:
212,216,69088,1,0,0:0:0:0:
200,212,69202,1,2,0:0:0:0:
340,204,69316,1,2,0:0:0:0:
232,216,69430,1,0,0:0:0:0:
196,200,69488,1,0,0:0:0:0:
356,236,69544,1,0,0:0:0:0:
276,228,69658,1,0,0:0:0:0:
332,212,69772,1,2,0:0:0:0:
196,200,69887,1,0,0:0:0:0:
216,196,70000,1,0,0:0:0:0:
264,192,70114,1,2,0:0:0:0:
328,212,70228,1,2,0:0:0:0:
320,204,70342,1,2,0:0:0:0:
196,200,70400,1,0,0:0:0:0:
200,184,70457,1,0,0:0:0:0:
152,180,70570,1,0,0:0:0:0:
320,204,70684,1,2,0:0:0:0:
196,200,70799,1,0,0:0:0:0:
220,236,70912,1,0,0:0:0:0:
232,240,71026,1,2,0:0:0:0:
320,204,71140,1,0,0:0:0:0:
280,280,71255,1,2,0:0:0:0:
196,200,71312,1,0,0:0:0:0:
92,172,71368,1,0,0:0:0:0:
104,176,71482,1,0,0:0:0:0:
320,200,71597,1,2,0:0:0:0:
196,200,71711,1,0,0:0:0:0:
172,152,71825,1,0,0:0:0:0:
172,152,71939,1,2,0:0:0:0:
332,196,72053,1,0,0:0:0:0:
280,280,72167,1,0,0:0:0:0:
196,200,72224,1,0,0:0:0:0:
320,204,72281,1,2,0:0:0:0:
244,192,72395,1,0,0:0:0:0:
324,200,72509,1,2,0:0:0:0:
380,296,72624,1,0,0:0:0:0:
288,212,72737,1,0,0:0:0:0:
288,212,72851,1,2,0:0:0:0:
200,216,72966,5,2,0:0:0:0:
256,236,73080,1,0,0:0:0:0:
88,180,73137,1,0,0:0:0:0:
92,132,73194,1,0,0:0:0:0:
88,200,73308,1,0,0:0:0:0:
104,248,73422,1,2,0:0:0:0:
112,180,73537,1,0,0:0:0:0:
340,216,73593,1,0,0:0:0:0:
56,184,73650,1,2,0:0:0:0:
340,216,73707,1,0,0:0:0:0:
56,184,73764,1,2,0:0:0:0:
96,248,73878,1,2,0:0:0:0:
96,248,73992,1,2,0:0:0:0:
112,176,74050,1,0,0:0:0:0:
204,192,74107,1,0,0:0:0:0:
192,192,74220,1,0,0:0:0:0:
96,244,74334,1,2,0:0:0:0:
200,144,74391,1,2,0:0:0:0:
116,176,74449,1,0,0:0:0:0:
200,144,74505,1,0,0:0:0:0:
272,184,74562,1,2,0:0:0:0:
224,256,74676,1,2,0:0:0:0:
432,204,74790,1,0,0:0:0:0:
392,224,74905,1,2,0:0:0:0:
116,176,74962,1,0,0:0:0:0:
352,256,75018,1,0,0:0:0:0:
304,260,75132,1,0,0:0:0:0:
432,204,75246,1,2,0:0:0:0:
152,160,75361,1,0,0:0:0:0:
252,160,75417,1,0,0:0:0:0:
296,252,75474,1,2,0:0:0:0:
252,160,75531,1,0,0:0:0:0:
228,240,75589,1,2,0:0:0:0:
296,216,75645,1,0,0:0:0:0:
424,216,75703,1,0,0:0:0:0:
260,240,75817,1,0,0:0:0:0:
152,160,75874,1,0,0:0:0:0:
388,220,75931,1,2,0:0:0:0:
424,216,76045,1,0,0:0:0:0:
408,208,76159,1,2,0:0:0:0:
268,208,76216,1,0,0:0:0:0:
196,200,76273,1,0,0:0:0:0:
268,208,76330,1,0,0:0:0:0:
212,216,76387,1,2,0:0:0:0:
260,208,76444,1,0,0:0:0:0:
200,212,76501,1,2,0:0:0:0:
340,204,76615,1,2,0:0:0:0:
232,216,76729,1,0,0:0:0:0:
196,200,76787,1,0,0:0:0:0:
356,236,76843,1,0,0:0:0:0:
276,228,76957,1,0,0:0:0:0:
332,212,77071,1,2,0:0:0:0:
228,176,77128,1,0,0:0:0:0:
196,200,77186,1,2,0:0:0:0:
228,176,77242,1,0,0:0:0:0:
216,196,77299,1,0,0:0:0:0:
264,192,77413,1,2,0:0:0:0:
328,212,77527,1,2,0:0:0:0:
320,204,77641,1,2,0:0:0:0:
196,200,77699,1,0,0:0:0:0:
200,184,77756,1,0,0:0:0:0:
152,180,77869,1,0,0:0:0:0:
320,204,77983,1,2,0:0:0:0:
196,200,78098,1,0,0:0:0:0:
264,164,78154,1,0,0:0:0:0:
220,236,78211,1,2,0:0:0:0:
264,164,78268,1,0,0:0:0:0:
232,240,78325,1,2,0:0:0:0:
320,204,78439,1,0,0:0:0:0:
280,280,78554,1,2,0:0:0:0:
196,200,78611,1,0,0:0:0:0:
92,172,78667,1,0,0:0:0:0:
104,176,78781,1,0,0:0:0:0:
320,200,78896,1,2,0:0:0:0:
196,200,79010,1,0,0:0:0:0:
304,172,79067,1,0,0:0:0:0:
172,152,79124,1,2,0:0:0:0:
304,172,79181,1,0,0:0:0:0:
172,152,79238,1,2,0:0:0:0:
304,172,79295,1,2,0:0:0:0:
332,196,79352,1,0,0:0:0:0:
280,280,79466,1,0,0:0:0:0:
196,200,79523,1,0,0:0:0:0:
320,204,79580,1,2,0:0:0:0:
244,192,79694,1,0,0:0:0:0:
324,200,79808,1,2,0:0:0:0:
380,296,79923,1,0,0:0:0:0:
292,224,79979,1,0,0:0:0:0:
288,212,80036,1,0,0:0:0:0:
288,212,80150,1,2,0:0:0:0:
260,184,80264,1,0,0:0:0:0:
260,184,80378,1,2,0:0:0:0:
260,184,80435,1,0,0:0:0:0:
260,184,80492,1,0,0:0:0:0:
260,152,80606,1,2,0:0:0:0:
260,184,80720,1,0,0:0:0:0:
260,184,80834,1,2,0:0:0:0:
260,184,80891,1,0,0:0:0:0:
260,184,80948,1,0,0:0:0:0:
260,152,81062,1,2,0:0:0:0:
328,152,81176,1,0,0:0:0:0:
280,184,81289,1,0,0:0:0:0:
396,192,81346,1,0,0:0:0:0:
280,184,81403,1,2,0:0:0:0:
280,184,81516,1,2,0:0:0:0:
280,184,81630,1,0,0:0:0:0:
296,152,81738,1,0,0:0:0:0:
352,200,81793,1,0,0:0:0:0:
276,216,81847,1,2,0:0:0:0:
276,216,81956,1,2,0:0:0:0:
304,200,82064,1,0,0:0:0:0:
304,200,82173,1,0,0:0:0:0:
304,200,82282,1,2,0:0:0:0:
304,200,82392,1,2,0:0:0:0:
304,200,82501,1,0,0:0:0:0:
220,192,82606,1,0,0:0:0:0:
220,192,82712,1,2,0:0:0:0:
220,192,82817,1,0,0:0:0:0:
72,224,82923,1,2,0:0:0:0:
248,176,83788,5,0,0:0:0:0:
304,292,83840,1,0,0:0:0:0:
304,292,83893,1,2,0:0:0:0:
160,164,83998,1,2,0:0:0:0:
304,292,84051,1,0,0:0:0:0:
304,292,84103,1,2,0:0:0:0:
304,292,84156,1,2,0:0:0:0:
304,292,84209,1,0,0:0:0:0:
304,292,84261,1,0,0:0:0:0:
304,292,84314,1,2,0:0:0:0:
304,292,84366,1,0,0:0:0:0:
168,156,84419,1,2,0:0:0:0:
172,192,84524,1,2,0:0:0:0:
172,192,84630,1,2,0:0:0:0:
192,184,84682,1,0,0:0:0:0:
184,184,84735,1,2,0:0:0:0:
168,168,84840,1,2,0:0:0:0:
272,276,84893,1,0,0:0:0:0:
272,276,84945,1,0,0:0:0:0:
272,276,84998,1,2,0:0:0:0:
272,276,85051,1,2,0:0:0:0:
272,276,85103,1,0,0:0:0:0:
272,276,85156,1,2,0:0:0:0:
272,276,85209,1,0,0:0:0:0:
172,172,85261,1,2,0:0:0:0:
212,204,85366,1,2,0:0:0:0:
212,200,85472,1,2,0:0:0:0:
212,200,85524,1,0,0:0:0:0:
212,200,85577,1,2,0:0:0:0:
200,180,85682,1,2,0:0:0:0:
248,252,85735,1,0,0:0:0:0:
248,252,85787,1,0,0:0:0:0:
248,252,85840,1,2,0:0:0:0:
248,252,85893,1,2,0:0:0:0:
248,252,85945,1,0,0:0:0:0:
248,252,85998,1,2,0:0:0:0:
248,252,86051,1,0,0:0:0:0:
200,180,86103,1,2,0:0:0:0:
184,196,86209,1,2,0:0:0:0:
184,196,86314,1,0,0:0:0:0:
184,196,86366,1,0,0:0:0:0:
184,196,86419,1,2,0:0:0:0:
200,180,86524,1,2,0:0:0:0:
188,248,86577,1,2,0:0:0:0:
188,248,86630,1,0,0:0:0:0:
188,248,86682,1,2,0:0:0:0:
188,248,86735,1,0,0:0:0:0:
188,248,86787,1,2,0:0:0:0:
188,248,86840,1,0,0:0:0:0:
188,248,86893,1,0,0:0:0:0:
200,180,86945,1,2,0:0:0:0:
160,188,87051,1,0,0:0:0:0:
160,188,87156,1,2,0:0:0:0:
160,188,87209,1,0,0:0:0:0:
160,188,87261,1,2,0:0:0:0:
216,264,87366,1,2,0:0:0:0:
272,204,87419,1,0,0:0:0:0:
188,232,87472,1,2,0:0:0:0:
272,204,87524,1,2,0:0:0:0:
272,204,87577,1,0,0:0:0:0:
272,204,87630,1,0,0:0:0:0:
272,204,87682,1,2,0:0:0:0:
272,204,87735,1,0,0:0:0:0:
224,244,87787,1,2,0:0:0:0:
256,168,87893,1,2,0:0:0:0:
248,168,87998,1,0,0:0:0:0:
248,168,88051,1,0,0:0:0:0:
248,168,88103,1,2,0:0:0:0:
224,244,88209,1,2,0:0:0:0:
216,224,88261,1,0,0:0:0:0:
216,224,88314,1,2,0:0:0:0:
216,224,88366,1,2,0:0:0:0:
216,224,88419,1,0,0:0:0:0:
216,224,88472,1,0,0:0:0:0:
216,224,88524,1,0,0:0:0:0:
216,224,88577,1,0,0:0:0:0:
224,244,88630,1,2,0:0:0:0:
268,200,88735,1,2,0:0:0:0:
268,200,88840,1,2,0:0:0:0:
260,200,88893,1,2,0:0:0:0:
268,200,88945,1,0,0:0:0:0:
224,244,89051,1,2,0:0:0:0:
160,204,89103,1,0,0:0:0:0:
160,204,89156,1,2,0:0:0:0:
160,204,89209,1,2,0:0:0:0:
160,204,89261,1,2,0:0:0:0:
160,204,89314,1,0,0:0:0:0:
160,204,89366,1,2,0:0:0:0:
160,204,89419,1,0,0:0:0:0:
224,244,89472,1,2,0:0:0:0:
216,176,89577,1,2,0:0:0:0:
216,176,89682,1,0,0:0:0:0:
288,252,89735,1,0,0:0:0:0:
288,252,89787,1,2,0:0:0:0:
288,252,89840,1,0,0:0:0:0:
224,244,89893,1,2,0:0:0:0:
208,192,89945,1,0,0:0:0:0:
208,192,89998,1,2,0:0:0:0:
208,192,90051,1,2,0:0:0:0:
208,192,90103,1,0,0:0:0:0:
208,192,90156,1,0,0:0:0:0:
208,192,90209,1,2,0:0:0:0:
208,192,90261,1,0,0:0:0:0:
224,244,90314,1,2,0:0:0:0:
208,192,90366,1,2,0:0:0:0:
208,192,90419,1,2,0:0:0:0:
232,232,90472,1,0,0:0:0:0:
248,176,90524,1,2,0:0:0:0:
304,292,90630,1,0,0:0:0:0:
304,292,90681,1,0,0:0:0:0:
160,164,90734,1,2,0:0:0:0:
304,292,90839,1,2,0:0:0:0:
304,292,90892,1,2,0:0:0:0:
304,292,90945,1,0,0:0:0:0:
304,292,90997,1,0,0:0:0:0:
304,292,91050,1,2,0:0:0:0:
304,292,91102,1,0,0:0:0:0:
168,156,91155,1,2,0:0:0:0:
172,192,91260,1,2,0:0:0:0:
172,192,91366,1,2,0:0:0:0:
192,184,91418,1,0,0:0:0:0:
184,184,91471,1,2,0:0:0:0:
168,168,91576,1,2,0:0:0:0:
272,276,91629,1,0,0:0:0:0:
272,276,91681,1,0,0:0:0:0:
272,276,91734,1,2,0:0:0:0:
272,276,91787,1,2,0:0:0:0:
272,276,91839,1,0,0:0:0:0:
272,276,91892,1,2,0:0:0:0:
272,276,91945,1,0,0:0:0:0:
172,172,91997,1,2,0:0:0:0:
212,204,92102,1,2,0:0:0:0:
212,200,92208,1,2,0:0:0:0:
212,200,92260,1,0,0:0:0:0:
212,200,92313,1,2,0:0:0:0:
200,180,92418,1,2,0:0:0:0:
248,252,92471,1,0,0:0:0:0:
248,252,92523,1,0,0:0:0:0:
248,252,92576,1,2,0:0:0:0:
248,252,92629,1,2,0:0:0:0:
248,252,92681,1,0,0:0:0:0:
248,252,92734,1,2,0:0:0:0:
248,252,92787,1,0,0:0:0:0:
200,180,92839,1,2,0:0:0:0:
184,196,92945,1,2,0:0:0:0:
184,196,93050,1,0,0:0:0:0:
184,196,93102,1,0,0:0:0:0:
184,196,93155,1,2,0:0:0:0:
200,180,93260,1,2,0:0:0:0:
188,248,93313,1,2,0:0:0:0:
188,248,93366,1,0,0:0:0:0:
188,248,93418,1,2,0:0:0:0:
188,248,93471,1,0,0:0:0:0:
188,248,93523,1,2,0:0:0:0:
188,248,93576,1,0,0:0:0:0:
188,248,93629,1,0,0:0:0:0:
200,180,93681,1,2,0:0:0:0:
160,188,93787,1,0,0:0:0:0:
160,188,93892,1,2,0:0:0:0:
160,188,93945,1,0,0:0:0:0:
160,188,93997,1,2,0:0:0:0:
216,264,94102,1,2,0:0:0:0:
272,204,94155,1,0,0:0:0:0:
188,232,94208,1,2,0:0:0:0:
272,204,94260,1,2,0:0:0:0:
272,204,94313,1,0,0:0:0:0:
272,204,94366,1,0,0:0:0:0:
272,204,94418,1,2,0:0:0:0:
272,204,94471,1,0,0:0:0:0:
224,244,94523,1,2,0:0:0:0:
256,168,94629,1,2,0:0:0:0:
248,168,94734,1,0,0:0:0:0:
248,168,94787,1,0,0:0:0:0:
248,168,94839,1,2,0:0:0:0:
224,244,94945,1,2,0:0:0:0:
216,224,94997,1,0,0:0:0:0:
216,224,95050,1,2,0:0:0:0:
216,224,95102,1,2,0:0:0:0:
216,224,95155,1,0,0:0:0:0:
216,224,95208,1,0,0:0:0:0:
216,224,95260,1,0,0:0:0:0:
216,224,95313,1,0,0:0:0:0:
224,244,95366,1,2,0:0:0:0:
268,200,95471,1,2,0:0:0:0:
268,200,95576,1,2,0:0:0:0:
260,200,95629,1,2,0:0:0:0:
268,200,95681,1,0,0:0:0:0:
268,200,95734,1,0,0:0:0:0:
224,244,95787,1,2,0:0:0:0:
160,204,95839,1,0,0:0:0:0:
160,204,95892,1,2,0:0:0:0:
160,204,95945,1,2,0:0:0:0:
160,204,95997,1,2,0:0:0:0:
160,204,96050,1,0,0:0:0:0:
160,204,96102,1,2,0:0:0:0:
160,204,96155,1,0,0:0:0:0:
224,244,96208,1,2,0:0:0:0:
216,176,96260,1,0,0:0:0:0:
216,176,96313,1,2,0:0:0:0:
216,176,96366,1,2,0:0:0:0:
216,176,96418,1,0,0:0:0:0:
288,252,96471,1,0,0:0:0:0:
288,252,96523,1,2,0:0:0:0:
288,252,96576,1,0,0:0:0:0:
224,244,96629,1,2,0:0:0:0:
208,192,96681,1,0,0:0:0:0:
208,192,96734,1,2,0:0:0:0:
208,192,96787,1,2,0:0:0:0:
208,192,96839,1,0,0:0:0:0:
208,192,96892,1,0,0:0:0:0:
208,192,96945,1,2,0:0:0:0:
208,192,96997,1,0,0:0:0:0:
224,244,97050,1,2,0:0:0:0:
208,192,97102,1,2,0:0:0:0:
208,192,97155,1,2,0:0:0:0:
184,196,97209,1,2,0:0:0:0:
248,176,97261,1,0,0:0:0:0:
304,292,97366,1,2,0:0:0:0:
304,292,97418,1,0,0:0:0:0:
160,164,97471,1,2,0:0:0:0:
304,292,97576,1,0,0:0:0:0:
304,292,97629,1,2,0:0:0:0:
304,292,97682,1,0,0:0:0:0:
304,292,97734,1,0,0:0:0:0:
304,292,97787,1,2,0:0:0:0:
304,292,97839,1,0,0:0:0:0:
168,156,97892,1,2,0:0:0:0:
172,192,97997,1,2,0:0:0:0:
172,192,98103,1,2,0:0:0:0:
192,184,98155,1,0,0:0:0:0:
184,184,98208,1,2,0:0:0:0:
168,168,98313,1,2,0:0:0:0:
272,276,98366,1,0,0:0:0:0:
272,276,98418,1,0,0:0:0:0:
272,276,98471,1,0,0:0:0:0:
272,276,98524,1,2,0:0:0:0:
272,276,98576,1,0,0:0:0:0:
272,276,98629,1,2,0:0:0:0:
272,276,98682,1,0,0:0:0:0:
172,172,98734,1,2,0:0:0:0:
212,204,98839,1,2,0:0:0:0:
212,200,98945,1,2,0:0:0:0:
212,200,98997,1,0,0:0:0:0:
212,200,99050,1,2,0:0:0:0:
200,180,99155,1,2,0:0:0:0:
248,252,99208,1,0,0:0:0:0:
248,252,99260,1,0,0:0:0:0:
248,252,99313,1,2,0:0:0:0:
248,252,99366,1,2,0:0:0:0:
248,252,99418,1,0,0:0:0:0:
248,252,99471,1,0,0:0:0:0:
248,252,99524,1,0,0:0:0:0:
200,180,99576,1,2,0:0:0:0:
184,196,99682,1,2,0:0:0:0:
184,196,99787,1,0,0:0:0:0:
184,196,99839,1,0,0:0:0:0:
184,196,99892,1,2,0:0:0:0:
200,180,99997,1,2,0:0:0:0:
188,248,100050,1,2,0:0:0:0:
188,248,100103,1,0,0:0:0:0:
188,248,100155,1,2,0:0:0:0:
188,248,100208,1,0,0:0:0:0:
188,248,100260,1,2,0:0:0:0:
188,248,100313,1,0,0:0:0:0:
188,248,100366,1,0,0:0:0:0:
200,180,100418,1,2,0:0:0:0:
160,188,100524,1,0,0:0:0:0:
160,188,100629,1,2,0:0:0:0:
160,188,100682,1,0,0:0:0:0:
160,188,100734,1,2,0:0:0:0:
216,264,100839,1,2,0:0:0:0:
272,204,100892,1,0,0:0:0:0:
188,232,100945,1,2,0:0:0:0:
272,204,100997,1,0,0:0:0:0:
272,204,101050,1,0,0:0:0:0:
272,204,101103,1,0,0:0:0:0:
272,204,101155,1,2,0:0:0:0:
272,204,101208,1,0,0:0:0:0:
224,244,101260,1,2,0:0:0:0:
256,168,101366,1,2,0:0:0:0:
248,168,101471,1,0,0:0:0:0:
248,168,101524,1,0,0:0:0:0:
248,168,101576,1,2,0:0:0:0:
224,244,101682,1,2,0:0:0:0:
216,224,101734,1,0,0:0:0:0:
216,224,101787,1,2,0:0:0:0:
216,224,101839,1,2,0:0:0:0:
216,224,101892,1,0,0:0:0:0:
216,224,101945,1,0,0:0:0:0:
216,224,101997,1,0,0:0:0:0:
216,224,102050,1,0,0:0:0:0:
224,244,102103,1,2,0:0:0:0:
268,200,102208,1,2,0:0:0:0:
268,200,102313,1,2,0:0:0:0:
260,200,102366,1,2,0:0:0:0:
268,200,102418,1,0,0:0:0:0:
224,244,102524,1,2,0:0:0:0:
160,204,102576,1,0,0:0:0:0:
160,204,102629,1,0,0:0:0:0:
160,204,102682,1,0,0:0:0:0:
160,204,102734,1,2,0:0:0:0:
160,204,102787,1,0,0:0:0:0:
160,204,102840,1,2,0:0:0:0:
160,204,102892,1,0,0:0:0:0:
224,244,102945,1,2,0:0:0:0:
216,176,103050,1,2,0:0:0:0:
216,176,103155,1,0,0:0:0:0:
288,252,103208,1,0,0:0:0:0:
288,252,103260,1,2,0:0:0:0:
288,252,103313,1,0,0:0:0:0:
224,244,103366,1,2,0:0:0:0:
208,192,103418,1,0,0:0:0:0:
208,192,103471,1,0,0:0:0:0:
208,192,103524,1,2,0:0:0:0:
208,192,103576,1,0,0:0:0:0:
208,192,103629,1,0,0:0:0:0:
208,192,103682,1,2,0:0:0:0:
208,192,103734,1,0,0:0:0:0:
224,244,103787,1,2,0:0:0:0:
208,192,103839,1,2,0:0:0:0:
208,192,103892,1,2,0:0:0:0:
232,208,103945,1,0,0:0:0:0:
248,176,103998,1,2,0:0:0:0:
304,292,104103,1,0,0:0:0:0:
304,292,104155,1,0,0:0:0:0:
160,164,104208,1,2,0:0:0:0:
304,292,104313,1,0,0:0:0:0:
304,292,104366,1,2,0:0:0:0:
304,292,104419,1,0,0:0:0:0:
304,292,104471,1,0,0:0:0:0:
304,292,104524,1,2,0:0:0:0:
304,292,104576,1,0,0:0:0:0:
168,156,104629,1,2,0:0:0:0:
172,192,104734,1,2,0:0:0:0:
172,192,104840,1,2,0:0:0:0:
192,184,104892,1,0,0:0:0:0:
184,184,104945,1,2,0:0:0:0:
168,168,105050,1,2,0:0:0:0:
272,276,105103,1,0,0:0:0:0:
272,276,105155,1,0,0:0:0:0:
272,276,105208,1,0,0:0:0:0:
272,276,105261,1,2,0:0:0:0:
272,276,105313,1,0,0:0:0:0:
272,276,105366,1,2,0:0:0:0:
272,276,105419,1,0,0:0:0:0:
172,172,105471,1,2,0:0:0:0:
212,204,105576,1,2,0:0:0:0:
212,200,105682,1,2,0:0:0:0:
212,200,105734,1,0,0:0:0:0:
212,200,105787,1,2,0:0:0:0:
200,180,105892,1,2,0:0:0:0:
248,252,105945,1,0,0:0:0:0:
248,252,105997,1,0,0:0:0:0:
248,252,106050,1,2,0:0:0:0:
248,252,106103,1,2,0:0:0:0:
248,252,106155,1,0,0:0:0:0:
248,252,106208,1,0,0:0:0:0:
248,252,106261,1,0,0:0:0:0:
200,180,106313,1,2,0:0:0:0:
184,196,106419,1,2,0:0:0:0:
184,196,106524,1,0,0:0:0:0:
184,196,106576,1,0,0:0:0:0:
184,196,106629,1,2,0:0:0:0:
200,180,106734,1,2,0:0:0:0:
188,248,106787,1,2,0:0:0:0:
188,248,106840,1,0,0:0:0:0:
188,248,106892,1,2,0:0:0:0:
188,248,106945,1,0,0:0:0:0:
188,248,106997,1,2,0:0:0:0:
188,248,107050,1,0,0:0:0:0:
188,248,107103,1,0,0:0:0:0:
200,180,107155,1,2,0:0:0:0:
160,188,107261,1,0,0:0:0:0:
160,188,107366,1,2,0:0:0:0:
160,188,107419,1,0,0:0:0:0:
160,188,107471,1,2,0:0:0:0:
216,264,107576,1,2,0:0:0:0:
272,204,107629,1,0,0:0:0:0:
188,232,107682,1,2,0:0:0:0:
272,204,107734,1,0,0:0:0:0:
272,204,107787,1,0,0:0:0:0:
272,204,107840,1,0,0:0:0:0:
272,204,107892,1,2,0:0:0:0:
272,204,107945,1,0,0:0:0:0:
224,244,107997,1,2,0:0:0:0:
256,168,108103,1,2,0:0:0:0:
248,168,108208,1,0,0:0:0:0:
248,168,108261,1,0,0:0:0:0:
248,168,108313,1,2,0:0:0:0:
224,244,108419,1,2,0:0:0:0:
216,224,108471,1,0,0:0:0:0:
216,224,108524,1,2,0:0:0:0:
216,224,108576,1,2,0:0:0:0:
216,224,108629,1,0,0:0:0:0:
216,224,108682,1,0,0:0:0:0:
216,224,108734,1,0,0:0:0:0:
216,224,108787,1,0,0:0:0:0:
224,244,108840,1,2,0:0:0:0:
268,200,108945,1,2,0:0:0:0:
268,200,109050,1,2,0:0:0:0:
260,200,109103,1,2,0:0:0:0:
268,200,109155,1,0,0:0:0:0:
268,200,109208,1,0,0:0:0:0:
224,244,109261,1,2,0:0:0:0:
160,204,109313,1,0,0:0:0:0:
160,204,109366,1,0,0:0:0:0:
160,204,109419,1,0,0:0:0:0:
160,204,109471,1,2,0:0:0:0:
160,204,109524,1,0,0:0:0:0:
160,204,109577,1,2,0:0:0:0:
160,204,109629,1,0,0:0:0:0:
224,244,109682,1,2,0:0:0:0:
216,176,109734,1,0,0:0:0:0:
216,176,109787,1,2,0:0:0:0:
216,176,109840,1,2,0:0:0:0:
216,176,109892,1,0,0:0:0:0:
288,252,109945,1,0,0:0:0:0:
288,252,109997,1,2,0:0:0:0:
288,252,110050,1,0,0:0:0:0:
224,244,110103,1,2,0:0:0:0:
208,192,110155,1,0,0:0:0:0:
208,192,110208,1,0,0:0:0:0:
208,192,110261,1,2,0:0:0:0:
208,192,110313,1,0,0:0:0:0:
208,192,110366,1,0,0:0:0:0:
208,192,110419,1,2,0:0:0:0:
208,192,110471,1,0,0:0:0:0:
224,244,110524,1,2,0:0:0:0:
208,192,110576,1,2,0:0:0:0:
208,192,110629,1,2,0:0:0:0:
208,192,110682,1,0,0:0:0:0:
396,184,110736,1,2,0:0:0:0:
184,144,110842,1,0,0:0:0:0:
184,144,110895,1,2,0:0:0:0:
184,144,110948,1,0,0:0:0:0:
184,144,111054,1,2,0:0:0:0:
280,184,111160,1,2,0:0:0:0:
184,144,111266,1,0,0:0:0:0:
184,144,111319,1,0,0:0:0:0:
184,144,111372,1,2,0:0:0:0:
184,144,111478,1,0,0:0:0:0:
232,192,111584,1,0,0:0:0:0:
232,192,111691,1,0,0:0:0:0:
232,192,111744,1,2,0:0:0:0:
232,192,111798,1,0,0:0:0:0:
232,192,111905,1,0,0:0:0:0:
232,192,112012,1,2,0:0:0:0:
232,192,112119,1,2,0:0:0:0:
232,192,112173,1,0,0:0:0:0:
224,180,112227,1,2,0:0:0:0:
224,180,112335,1,2,0:0:0:0:
224,208,112444,1,0,0:0:0:0:
224,208,112552,1,2,0:0:0:0:
224,208,112607,1,2,0:0:0:0:
224,208,112661,1,0,0:0:0:0:
224,208,112771,1,0,0:0:0:0:
224,208,112880,1,2,0:0:0:0:
224,208,112989,1,0,0:0:0:0:
224,208,113043,1,2,0:0:0:0:
224,208,113098,1,0,0:0:0:0:
224,208,113207,1,2,0:0:0:0:
176,196,113317,1,0,0:0:0:0:
184,192,113427,1,0,0:0:0:0:
184,192,113482,1,0,0:0:0:0:
184,192,113537,1,2,0:0:0:0:
184,192,113647,1,0,0:0:0:0:
184,192,113758,1,2,0:0:0:0:
176,188,113869,1,0,0:0:0:0:
172,176,113924,1,2,0:0:0:0:
168,176,113979,1,0,0:0:0:0:
168,176,114090,1,0,0:0:0:0:
152,200,114202,1,0,0:0:0:0:
152,200,114313,1,0,0:0:0:0:
152,200,114369,1,0,0:0:0:0:
152,200,114425,1,0,0:0:0:0:
152,200,114537,1,2,0:0:0:0:
152,200,114649,1,2,0:0:0:0:
152,200,114761,1,2,0:0:0:0:
152,200,114818,1,0,0:0:0:0:
152,200,114874,1,2,0:0:0:0:
152,200,114986,1,2,0:0:0:0:
296,164,115099,1,0,0:0:0:0:
284,164,115212,1,0,0:0:0:0:
284,164,115269,1,2,0:0:0:0:
284,164,115326,1,0,0:0:0:0:
284,164,115440,1,0,0:0:0:0:
280,168,115554,1,2,0:0:0:0:
280,168,115668,1,0,0:0:0:0:
280,168,115725,1,0,0:0:0:0:
280,168,115783,1,2,0:0:0:0:
280,168,115897,1,2,0:0:0:0:
272,260,116012,1,0,0:0:0:0:
316,240,116127,1,2,0:0:0:0:
316,240,116185,1,2,0:0:0:0:
316,240,116242,1,0,0:0:0:0:
316,240,116357,1,2,0:0:0:0:
316,240,116473,1,2,0:0:0:0:
316,240,116589,1,2,0:0:0:0:
316,240,116647,1,0,0:0:0:0:
316,240,116705,1,0,0:0:0:0:
316,240,116822,1,2,0:0:0:0:
224,256,116939,1,0,0:0:0:0:
208,248,117056,1,2,0:0:0:0:
208,244,117114,1,0,0:0:0:0:
208,244,117173,1,2,0:0:0:0:
304,304,117290,1,0,0:0:0:0:
288,296,117408,1,2,0:0:0:0:
288,288,117526,1,0,0:0:0:0:
288,288,117585,1,2,0:0:0:0:
288,232,117644,1,0,0:0:0:0:
284,212,117762,1,2,0:0:0:0:
156,176,117881,1,0,0:0:0:0:
168,184,118000,1,0,0:0:0:0:
168,184,118119,1,2,0:0:0:0:
168,184,118238,1,0,0:0:0:0:
168,184,118358,1,2,0:0:0:0:
168,184,118478,1,0,0:0:0:0:
168,184,118538,1,0,0:0:0:0:
168,184,118598,1,2,0:0:0:0:
168,184,118718,1,0,0:0:0:0:
304,212,118838,1,2,0:0:0:0:
300,208,118958,1,0,0:0:0:0:
296,208,119079,1,0,0:0:0:0:
296,208,119200,1,2,0:0:0:0:
296,208,119322,1,2,0:0:0:0:
296,208,119444,1,0,0:0:0:0:
296,204,119505,1,0,0:0:0:0:
296,204,119566,1,2,0:0:0:0:
292,204,119688,1,0,0:0:0:0:
252,236,119810,1,0,0:0:0:0:
252,236,119933,1,2,0:0:0:0:
244,228,120056,1,2,0:0:0:0:
244,228,120180,1,0,0:0:0:0:
244,228,120303,1,2,0:0:0:0:
280,176,120426,1,2,0:0:0:0:
280,176,120488,1,0,0:0:0:0:
280,176,120550,1,2,0:0:0:0:
280,176,120674,1,2,0:0:0:0:
296,244,120799,1,0,0:0:0:0:
296,244,120924,1,0,0:0:0:0:
288,236,121049,1,2,0:0:0:0:
288,236,121175,1,2,0:0:0:0:
288,236,121301,1,2,0:0:0:0:
288,236,121427,1,0,0:0:0:0:
288,236,121490,1,2,0:0:0:0:
284,232,121553,1,0,0:0:0:0:
284,232,121679,1,2,0:0:0:0:
276,240,121814,1,0,0:0:0:0:
120,152,121941,1,0,0:0:0:0:
120,152,122068,1,2,0:0:0:0:
120,152,122195,1,0,0:0:0:0:
120,152,122323,1,2,0:0:0:0:
120,152,122451,1,0,0:0:0:0:
120,152,122516,1,0,0:0:0:0:
120,152,122580,1,0,0:0:0:0:
120,152,122709,1,2,0:0:0:0:
292,224,122838,1,0,0:0:0:0:
292,224,122967,1,0,0:0:0:0:
288,224,123097,1,2,0:0:0:0:
288,224,123227,1,2,0:0:0:0:
288,224,123357,1,2,0:0:0:0:
292,224,123488,1,0,0:0:0:0:
292,224,123553,1,0,0:0:0:0:
292,224,123619,1,2,0:0:0:0:
292,224,123750,1,2,0:0:0:0:
272,192,123881,1,0,0:0:0:0:
264,180,124013,1,0,0:0:0:0:
244,172,124145,1,0,0:0:0:0:
264,180,124277,1,2,0:0:0:0:
244,172,124409,1,2,0:0:0:0:
244,172,124542,1,0,0:0:0:0:
244,172,124608,1,0,0:0:0:0:
244,172,124675,1,2,0:0:0:0:
244,172,124808,1,2,0:0:0:0:
220,224,124942,1,0,0:0:0:0:
220,224,125076,1,0,0:0:0:0:
220,224,125211,1,2,0:0:0:0:
220,224,125345,1,0,0:0:0:0:
220,224,125480,1,2,0:0:0:0:
220,224,125615,1,0,0:0:0:0:
220,224,125683,1,0,0:0:0:0:
220,224,125751,1,2,0:0:0:0:
220,224,125887,1,2,0:0:0:0:
