osu file format v14

[General]
AudioFilename: anosci - it's not -good- but u cn trip ovr it - 12 polynomic funk.mp3
AudioLeadIn: 0
PreviewTime: 26691
Countdown: 0
SampleSet: None
StackLeniency: 0.2
Mode: 0
LetterboxInBreaks: 0
WidescreenStoryboard: 0

[Editor]
DistanceSpacing: 1.1
BeatDivisor: 4
GridSize: 4
TimelineZoom: 1

[Metadata]
Title:polynomic funk
TitleUnicode:polynomic funk
Artist:anosci
ArtistUnicode:anosci
Creator:UndeadCapulet
Version:easy
Source:
Tags:anosa it's not "good" but u cn trip ovr it
BeatmapID:659430
BeatmapSetID:292974

[Difficulty]
HPDrainRate:2
CircleSize:3
OverallDifficulty:2
ApproachRate:3
SliderMultiplier:0.799999999999999
SliderTickRate:2

[Events]
//Background and Video events
0,0,"JohnHathway.full.664463.jpg",0,0
//Break Periods
//Storyboard Layer 0 (Background)
//Storyboard Layer 1 (Fail)
//Storyboard Layer 2 (Pass)
//Storyboard Layer 3 (Foreground)
//Storyboard Sound Samples

[TimingPoints]
-20,461.538461538462,4,2,1,50,1,0
52133,-100,4,2,1,50,0,1
53518,-100,4,2,1,50,0,0
70133,-100,4,2,1,50,0,1
84441,-100,4,2,1,50,0,0

[Colours]
Combo1 : 251,98,167
Combo2 : 174,94,255
Combo3 : 0,198,99
Combo4 : 255,189,89

[HitObjects]
140,164,441,5,0,0:0:0:0:
316,136,1364,1,0,0:0:0:0:
160,216,2287,1,0,0:0:0:0:
332,248,3210,1,0,0:0:0:0:
156,264,4133,5,0,0:0:0:0:
324,216,5056,1,0,0:0:0:0:
368,140,5518,6,0,P|312:128|284:136,2,79.9999999999999
360,316,7364,6,0,L|288:308,2,59.9999999999999
396,188,8749,1,0,0:0:0:0:
272,64,9672,6,0,B|204:108|204:108|236:188,1,160
224,268,11056,6,0,L|212:344,2,59.9999999999999
216,136,12441,2,0,L|228:60,2,59.9999999999999
100,200,13826,6,0,L|52:208,2,40
188,204,14749,6,0,B|260:240|260:240|328:200|328:200|412:228,1,240
472,168,16595,6,0,P|428:140|404:140,2,59.9999999999999
472,300,17980,1,0,0:0:0:0:
300,328,18903,6,0,B|312:248|312:248|276:168,1,160
192,168,20287,6,0,L|120:156,2,59.9999999999999
324,156,21672,2,0,L|396:168,2,59.9999999999999
240,256,23056,6,0,P|244:276|240:300,2,40
236,168,23980,6,0,B|300:120|300:120|376:140|376:140|440:92|440:92|484:160|484:160|468:248,1,400
216,308,27672,6,0,P|176:268|216:104,1,240
280,52,29518,6,0,P|344:48|448:184,1,240
411,252,31364,6,0,P|308:255|335:156,1,240
248,148,33210,6,0,L|160:136,1,79.9999999999999
84,164,34133,1,0,0:0:0:0:
104,80,34595,1,0,0:0:0:0:
188,52,35056,6,0,P|248:48|432:112,1,240
400,188,36903,6,0,P|344:168|160:200,1,240
104,256,38749,6,0,P|52:220|92:60,1,240
168,76,40595,6,0,L|264:92,1,79.9999999999999
268,176,41518,1,0,0:0:0:0:
256,264,41980,1,0,0:0:0:0:
292,344,42441,6,0,P|324:320|340:284,1,79.9999999999999
344,196,43364,1,0,0:0:0:0:
320,112,43826,1,0,0:0:0:0:
280,32,44287,6,0,P|240:72|232:100,1,79.9999999999999
256,180,45210,1,0,0:0:0:0:
204,252,45672,1,0,0:0:0:0:
164,172,46133,6,0,P|128:200|116:236,1,79.9999999999999
140,316,47056,1,0,0:0:0:0:
224,340,47518,1,0,0:0:0:0:
312,340,47980,6,0,L|328:256,1,79.9999999999999
260,204,48903,2,0,L|248:108,1,79.9999999999999
168,92,49826,5,0,0:0:0:0:
164,180,50287,2,0,L|156:232,1,40
232,272,50980,2,0,L|248:320,1,40
420,292,52133,6,0,B|440:212|440:212|416:136,1,160
332,108,53518,6,0,L|256:96,2,59.9999999999999
280,228,54903,2,0,L|204:216,2,59.9999999999999
168,300,56287,6,0,L|116:312,2,40
248,332,57210,6,0,B|264:256|264:256|248:176|248:176|260:96,1,240
344,72,59056,6,0,L|376:136,2,59.9999999999999
212,76,60441,1,0,0:0:0:0:
72,184,61364,6,0,B|148:212|148:212|232:192,1,160
272,268,62749,6,0,L|336:280,2,59.9999999999999
140,284,64133,2,0,L|76:272,2,59.9999999999999
212,172,65518,6,0,P|220:148|220:124,2,40
164,248,66441,6,0,B|232:292|232:292|308:272|308:272|396:292,2,240
168,72,70133,6,0,P|232:72|404:136,1,240
448,204,71980,6,0,B|476:228|476:356|476:356|452:332|392:324,1,240
312,328,73826,6,0,P|196:328|104:240,1,240
168,184,75672,6,0,L|160:96,1,79.9999999999999
248,116,76595,2,0,L|256:24,1,79.9999999999999
340,56,77518,6,0,P|400:80|448:252,1,240
368,236,79364,6,0,B|256:176|256:272|120:208,1,240
52,244,81210,6,0,P|8:188|100:64,1,240
168,100,83056,6,0,L|200:192,1,79.9999999999999
280,188,83980,2,0,L|268:272,1,79.9999999999999
352,296,84903,5,0,0:0:0:0:
388,216,85364,1,0,0:0:0:0:
348,136,85826,1,0,0:0:0:0:
380,52,86287,1,0,0:0:0:0:
296,28,86749,5,0,0:0:0:0:
152,128,87672,6,0,B|124:204|124:204|172:264|172:264|256:244,1,240
340,248,89518,5,0,0:0:0:0:
452,112,90441,6,0,L|364:124,1,79.9999999999999
284,136,91364,5,0,0:0:0:0:
168,268,92287,6,0,L|216:256,1,40
256,192,93210,12,0,96672,0:0:0:0:
