osu file format v14

[General]
AudioFilename: a.mp3
AudioLeadIn: 1500
PreviewTime: 16754
Countdown: 0
SampleSet: Soft
StackLeniency: 0.7
Mode: 0
LetterboxInBreaks: 0
WidescreenStoryboard: 1

[Editor]
Bookmarks: 39386
DistanceSpacing: 1
BeatDivisor: 4
GridSize: 4
TimelineZoom: 1

[Metadata]
Title:Light up my LOVE
TitleUnicode:Light up my LOVE
Artist:ani feat. moco
ArtistUnicode:ani feat. moco
Creator:Mako Sakata
Version:Hyper
Source:Cytus
Tags:onoken rayark chapter 1 one operators niva nivalis Testimony Claire Wang
BeatmapID:682011
BeatmapSetID:87594

[Difficulty]
HPDrainRate:6
CircleSize:4
OverallDifficulty:6
ApproachRate:8
SliderMultiplier:1.50000000596046
SliderTickRate:1

[Events]
//Background and Video events
0,0,"Lightupmylovebg.png",0,0
//Break Periods
//Storyboard Layer 0 (Background)
//Storyboard Layer 1 (Fail)
//Storyboard Layer 2 (Pass)
//Storyboard Layer 3 (Foreground)
//Storyboard Sound Samples

[TimingPoints]
2895,350.877192982456,4,2,1,30,1,0
2895,-125,4,2,1,30,0,0
16930,-100,4,2,1,50,0,0
61842,-125,4,2,1,50,0,0
77982,-111.111111111111,4,2,1,50,0,0
78684,-100,4,2,1,50,0,0
95526,-90.9090909090909,4,2,1,60,0,1
106579,-100,4,2,1,50,0,0

[Colours]
Combo1 : 147,255,204
Combo2 : 172,255,255
Combo3 : 149,200,255
Combo4 : 223,149,255
Combo5 : 255,168,201
Combo6 : 255,227,145
Combo7 : 194,255,157

[HitObjects]
256,192,1491,12,2,2894,0:0:0:0:
172,144,3245,5,0,0:0:0:0:
176,156,3596,1,2,0:0:0:0:
180,168,3947,1,0,0:0:0:0:
184,180,4298,2,0,B|240:160|240:160|300:180,1,120.000000476837,2|0,0:0|0:0,0:0:0:0:
404,276,5000,2,0,L|396:336,1,60.0000002384184,2|0,0:0|0:0,0:0:0:0:
464,236,5351,2,0,L|456:176,1,60.0000002384184,2|0,0:0|0:0,0:0:0:0:
448,104,5702,5,2,0:0:0:0:
436,108,6052,1,0,0:0:0:0:
424,112,6403,1,2,0:0:0:0:
412,116,6754,2,0,L|292:116,2,120.000000476837,0|2|0,0:0|0:0|0:0,0:0:0:0:
428,260,7807,2,0,L|488:260,1,60.0000002384184,2|0,0:0|0:0,0:0:0:0:
388,320,8158,2,0,L|328:320,1,60.0000002384184,2|0,0:0|0:0,0:0:0:0:
260,344,8509,5,2,0:0:0:0:
248,340,8859,1,0,0:0:0:0:
236,336,9210,1,2,0:0:0:0:
224,332,9561,2,0,L|104:332,2,120.000000476837,0|2|0,0:0|0:0|0:0,0:0:0:0:
344,252,10614,2,0,L|352:192,1,60.0000002384184,2|0,0:0|0:0,0:0:0:0:
300,92,10965,2,0,L|292:152,1,60.0000002384184,2|0,0:0|0:0,0:0:0:0:
224,176,11316,6,0,P|168:180|108:160,1,120.000000476837,2|2,0:0|0:0,0:0:0:0:
184,40,12017,1,0,0:0:0:0:
184,40,12193,2,0,P|239:35|299:55,2,120.000000476837,2|2|0,0:0|0:0|0:0,0:0:0:0:
116,64,13070,1,2,0:0:0:0:
116,64,13421,1,2,0:0:0:0:
256,192,13596,12,8,16579,0:0:0:0:
168,136,16930,6,0,L|172:216,1,75.000000298023,6|0,1:2|0:0,0:0:0:0:
212,272,17280,1,10,0:0:0:0:
288,260,17456,1,0,0:0:0:0:
360,284,17631,1,2,0:0:0:0:
404,344,17807,1,0,1:0:0:0:
452,284,17982,2,0,P|468:212|452:136,1,150.000000596046,10|2,0:0|1:2,0:0:0:0:
416,72,18509,5,0,0:0:0:0:
348,104,18684,2,0,P|311:108|276:97,1,75.000000298023,8|0,0:0|0:0,0:0:0:0:
208,64,19035,2,0,P|200:100|200:140,1,75.000000298023,2|0,0:0|1:0,0:0:0:0:
178,211,19386,2,0,P|142:203|106:211,1,75.000000298023,10|0,0:0|1:0,0:0:0:0:
80,140,19737,6,0,P|80:100|72:65,1,75.000000298023,2|0,1:2|0:0,0:0:0:0:
128,16,20087,1,10,0:0:0:0:
192,56,20263,1,0,0:0:0:0:
268,56,20438,1,2,0:0:0:0:
332,16,20614,1,0,1:0:0:0:
364,84,20789,2,0,P|378:156|364:232,1,150.000000596046,10|2,0:0|1:2,0:0:0:0:
336,300,21316,5,0,0:0:0:0:
376,364,21491,2,0,L|452:364,1,75.000000298023,8|0,0:0|0:0,0:0:0:0:
336,300,21842,2,0,L|260:300,1,75.000000298023,2|0,0:0|1:0,0:0:0:0:
196,336,22193,2,0,B|204:300|204:300|196:260,1,75.000000298023,10|0,0:0|1:0,0:0:0:0:
259,150,22544,6,0,B|252:188|252:188|260:224,1,75.000000298023,2|0,1:2|0:0,0:0:0:0:
196,262,22894,1,10,0:0:0:0:
124,284,23070,1,0,0:0:0:0:
52,264,23245,1,2,0:0:0:0:
20,196,23421,1,0,1:0:0:0:
40,124,23596,2,0,P|112:140|188:124,1,150.000000596046,10|2,0:0|1:2,0:0:0:0:
252,88,24123,5,0,0:0:0:0:
320,52,24298,2,0,P|357:48|392:59,1,75.000000298023,8|0,0:0|0:0,0:0:0:0:
447,7,24649,2,0,P|463:40|465:77,1,75.000000298023,2|0,0:0|1:0,0:0:0:0:
506,140,25000,2,0,P|470:150|433:145,1,75.000000298023,10|0,0:0|1:0,0:0:0:0:
372,188,25351,6,0,P|344:256|372:324,1,150.000000596046,2|10,1:2|0:0,0:0:0:0:
504,256,26052,2,0,P|467:264|431:255,1,75.000000298023,0|10,1:0|0:0,0:0:0:0:
292,316,26579,6,0,P|220:300|144:316,1,150.000000596046,2|0,1:2|1:0,0:0:0:0:
84,356,27105,1,10,0:0:0:0:
20,316,27280,2,0,L|16:278,2,37.5000001490115,0|0|10,1:0|0:0|0:0,0:0:0:0:
88,256,27631,2,0,L|84:218,2,37.5000001490115,0|0|10,1:0|0:0|0:0,0:0:0:0:
156,196,27982,1,0,1:0:0:0:
156,196,28070,1,0,0:0:0:0:
156,196,28158,6,0,L|232:196,1,75.000000298023,6|0,1:2|0:0,0:0:0:0:
292,240,28509,2,0,B|284:276|284:276|292:313,1,75.000000298023,10|0,0:0|0:0,0:0:0:0:
352,196,28859,2,0,B|360:158|360:158|352:122,1,75.000000298023,2|0,0:0|1:0,0:0:0:0:
324,52,29210,2,0,P|392:80|460:52,1,150.000000596046,10|2,0:0|1:2,0:0:0:0:
500,116,29737,5,0,0:0:0:0:
480,188,29912,2,0,L|476:262,1,75.000000298023,8|0,0:0|0:0,0:0:0:0:
416,148,30263,2,0,L|419:73,1,75.000000298023,2|0,0:0|1:0,0:0:0:0:
348,180,30614,2,0,L|344:254,1,75.000000298023,10|0,0:0|1:0,0:0:0:0:
284,300,30965,6,0,L|208:308,1,75.000000298023,2|0,1:2|0:0,0:0:0:0:
163,367,31316,2,0,P|141:336|133:301,1,75.000000298023,10|0,0:0|0:0,0:0:0:0:
60,279,31667,2,0,P|80:248|111:228,1,75.000000298023,2|0,0:0|1:0,0:0:0:0:
188,232,32017,2,0,B|192:180|144:156|144:156|152:100,1,150.000000596046,10|2,0:0|1:2,0:0:0:0:
192,36,32544,5,0,0:0:0:0:
260,68,32719,2,0,P|296:76|332:68,1,75.000000298023,8|0,0:0|0:0,0:0:0:0:
400,36,33070,1,2,0:0:0:0:
472,56,33245,1,0,1:0:0:0:
484,132,33421,1,10,0:0:0:0:
444,196,33596,1,0,1:0:0:0:
472,268,33772,6,0,P|480:304|472:340,1,75.000000298023,2|0,1:2|0:0,0:0:0:0:
404,304,34123,2,0,L|328:304,1,75.000000298023,10|0,0:0|0:0,0:0:0:0:
208,364,34473,2,0,L|284:364,1,75.000000298023,2|0,0:0|1:0,0:0:0:0:
324,228,34824,2,0,L|172:228,1,150.000000596046,10|2,0:0|1:2,0:0:0:0:
104,256,35351,5,0,0:0:0:0:
36,219,35526,2,0,P|28:256|36:292,1,75.000000298023,8|0,0:0|0:0,0:0:0:0:
104,184,35877,2,0,P|112:148|104:112,1,75.000000298023,2|0,0:0|1:0,0:0:0:0:
68,44,36228,2,0,B|104:52|104:52|142:44,1,75.000000298023,10|0,0:0|1:0,0:0:0:0:
212,20,36579,6,0,P|184:88|212:156,1,150.000000596046,2|10,1:2|0:2,0:0:0:0:
104,256,37280,2,0,P|112:292|104:328,1,75.000000298023,0|10,1:0|0:0,0:0:0:0:
256,328,37807,6,0,P|328:312|404:328,1,150.000000596046,2|0,1:2|1:0,0:0:0:0:
468,360,38333,1,10,0:0:0:0:
500,292,38508,2,0,L|504:254,2,37.5000001490115,0|0|10,1:0|0:0|0:0,0:0:0:0:
432,232,38859,2,0,L|436:194,2,37.5000001490115,0|0|10,1:0|0:0|0:0,0:0:0:0:
360,208,39210,2,0,P|288:224|212:208,1,150.000000596046,4|0,1:0|1:0,0:0:0:0:
148,172,39737,5,10,0:0:0:0:
72,172,39912,1,0,0:0:0:0:
32,236,40087,1,2,0:1:0:0:
108,240,40263,1,0,1:0:0:0:
108,240,40614,1,0,1:0:0:0:
152,72,40965,5,0,1:0:0:0:
224,92,41140,1,10,0:0:0:0:
296,72,41316,1,0,0:0:0:0:
368,92,41491,1,2,0:1:0:0:
316,144,41666,1,0,1:0:0:0:
316,144,42017,1,0,1:0:0:0:
472,228,42368,5,0,1:0:0:0:
400,252,42544,1,10,0:0:0:0:
324,252,42719,1,0,0:0:0:0:
252,228,42894,1,2,0:1:0:0:
268,300,43070,1,0,1:0:0:0:
268,300,43421,1,0,1:0:0:0:
220,156,43772,2,0,P|212:120|220:84,1,75.000000298023,0|10,1:0|0:0,0:0:0:0:
280,36,44123,1,0,0:0:0:0:
352,52,44298,5,2,1:2:0:0:
360,52,44473,1,0,1:0:0:0:
368,52,44649,1,10,0:0:0:0:
376,52,44824,6,0,P|348:120|376:188,1,150.000000596046,4|0,1:0|1:0,0:0:0:0:
432,236,45351,1,10,0:0:0:0:
444,312,45526,1,0,0:0:0:0:
384,356,45702,1,2,0:1:0:0:
320,316,45877,1,0,1:0:0:0:
320,316,46228,2,0,P|252:288|184:316,1,150.000000596046,0|0,1:0|1:0,0:0:0:0:
140,376,46754,5,10,0:0:0:0:
214,384,46930,1,0,0:0:0:0:
184,315,47105,1,2,0:1:0:0:
112,304,47280,1,0,1:0:0:0:
112,304,47631,2,0,B|121:252|176:241|176:241|168:188,1,150.000000596046,0|0,1:0|1:0,0:0:0:0:
160,112,48158,5,10,0:0:0:0:
232,132,48333,1,0,0:0:0:0:
304,112,48509,1,2,0:1:0:0:
376,132,48684,1,0,1:0:0:0:
376,132,49035,2,0,B|384:184|384:184|368:224|368:224|376:280,1,150.000000596046,0|0,1:0|1:0,0:0:0:0:
448,300,49561,6,0,B|376:280|376:280|304:300,1,150.000000596046,10|2,0:0|1:2,0:0:0:0:
232,320,50087,1,0,1:0:0:0:
160,340,50263,1,10,0:0:0:0:
88,320,50438,6,0,P|72:248|88:172,1,150.000000596046,4|0,1:0|1:0,0:0:0:0:
112,96,50965,1,10,0:0:0:0:
188,124,51140,1,0,0:0:0:0:
188,124,51228,1,0,0:0:0:0:
188,124,51316,2,0,P|224:132|260:124,1,75.000000298023,2|0,0:0|1:0,0:0:0:0:
328,92,51666,1,10,0:0:0:0:
368,156,51842,6,0,P|384:228|368:304,1,150.000000596046,0|0,1:0|1:0,0:0:0:0:
344,372,52368,1,10,0:0:0:0:
420,372,52544,1,0,0:0:0:0:
420,372,52631,1,0,0:0:0:0:
420,372,52719,2,0,L|496:372,1,75.000000298023,2|0,0:0|1:0,0:0:0:0:
369,301,53070,2,0,L|293:301,1,75.000000298023,10|0,0:0|1:0,0:0:0:0:
224,328,53421,5,0,0:0:0:0:
156,300,53596,1,0,1:0:0:0:
108,360,53772,1,10,0:0:0:0:
108,360,53947,2,0,P|86:329|78:294,1,75.000000298023,0|2,0:0|0:0,0:0:0:0:
5,272,54298,2,0,P|25:241|56:221,1,75.000000298023,0|10,1:0|0:0,0:0:0:0:
133,225,54649,2,0,B|137:173|89:149|89:149|96:92,1,150.000000596046,0|0,1:0|1:0,0:0:0:0:
188,284,55351,2,0,P|256:312|324:284,1,150.000000596046,0|0,1:0|1:0,0:0:0:0:
416,93,56052,6,0,B|423:149|423:149|375:173|379:225,1,150.000000596046,0|0,1:0|1:0,0:0:0:0:
388,300,56579,1,10,0:0:0:0:
320,332,56754,1,0,0:0:0:0:
320,332,56842,1,0,0:0:0:0:
320,332,56930,2,0,P|284:340|248:332,1,75.000000298023,2|0,0:0|1:0,0:0:0:0:
188,284,57280,1,10,0:0:0:0:
228,220,57456,6,0,P|240:148|204:80,1,150.000000596046,0|0,1:0|1:0,0:0:0:0:
152,28,57982,1,10,0:0:0:0:
88,68,58158,1,0,0:0:0:0:
88,68,58245,1,0,0:0:0:0:
88,68,58333,2,0,L|12:68,1,75.000000298023,2|0,0:0|1:0,0:0:0:0:
152,28,58684,2,0,L|228:28,1,75.000000298023,10|0,0:0|1:0,0:0:0:0:
288,72,59035,5,0,0:0:0:0:
356,100,59210,1,0,1:0:0:0:
404,40,59386,1,10,0:0:0:0:
404,40,59561,2,0,P|426:71|434:106,1,75.000000298023,0|2,0:0|0:0,0:0:0:0:
507,128,59912,2,0,P|487:159|456:179,1,75.000000298023,0|10,1:0|0:0,0:0:0:0:
379,175,60263,6,0,B|375:227|423:251|423:251|416:308,1,150.000000596046,0|0,1:0|1:0,0:0:0:0:
256,348,60789,1,10,0:0:0:0:
95,306,60965,2,0,B|89:251|89:251|137:227|132:172,1,150.000000596046,0|0,1:0|1:0,0:0:0:0:
56,179,61491,1,10,0:0:0:0:
52,104,61666,1,0,1:0:0:0:
52,104,61842,6,0,P|132:72|216:104,1,180.000000715255,4|0,1:2|1:0,0:0:0:0:
264,140,62544,2,0,L|268:20,1,120.000000476837,0|8,1:0|0:0,0:0:0:0:
320,48,63070,2,0,P|376:64|436:48,2,120.000000476837,0|0|0,1:0|1:0|1:0,0:0:0:0:
268,20,63947,2,0,L|264:140,1,120.000000476837,0|8,1:0|0:0,0:0:0:0:
316,248,64649,6,0,P|398:223|479:262,1,180.000000715255,0|0,1:0|1:0,0:0:0:0:
464,204,65351,2,0,P|448:148|464:88,1,120.000000476837,0|8,1:0|0:0,0:0:0:0:
404,100,65877,2,0,L|284:104,2,120.000000476837,0|0|0,1:0|1:0|1:0,0:0:0:0:
463,89,66754,2,0,P|447:146|464:204,1,120.000000476837,0|8,1:0|0:0,0:0:0:0:
404,308,67456,6,0,P|322:333|241:294,1,180.000000715255,0|0,1:0|1:0,0:0:0:0:
196,252,68158,2,0,P|141:231|80:241,1,120.000000476837,0|8,1:0|0:0,0:0:0:0:
48,192,68684,2,0,L|52:72,2,120.000000476837,0|0|0,1:0|1:0|1:0,0:0:0:0:
82,241,69561,2,0,P|140:231|196:252,1,120.000000476837,0|8,1:0|0:0,0:0:0:0:
288,328,70263,6,0,B|280:268|280:268|300:212|300:212|288:152,1,180.000000715255,0|0,1:0|1:0,0:0:0:0:
316,100,70965,2,0,L|340:220,1,120.000000476837,0|8,1:0|0:0,0:0:0:0:
368,164,71491,2,0,L|344:46,1,120.000000476837,0|0,1:0|1:0,0:0:0:0:
288,68,72017,1,2,0:0:0:0:
228,76,72193,1,0,1:0:0:0:
168,68,72368,1,2,1:2:0:0:
111,46,72544,1,0,0:0:0:0:
68,88,72719,2,0,B|64:132|64:132|72:160|72:160|68:208,1,120.000000476837,10|4,0:0|1:0,0:0:0:0:
224,308,73596,5,0,1:0:0:0:
224,308,73772,2,0,P|284:300|340:320,1,120.000000476837,0|8,1:0|0:0,0:0:0:0:
392,348,74298,2,0,L|400:228,2,120.000000476837,0|0|0,1:0|1:0|1:0,0:0:0:0:
339,319,75175,2,0,P|282:299|224:308,1,120.000000476837,0|8,1:0|0:0,0:0:0:0:
112,352,75877,6,0,B|120:292|120:292|100:236|100:236|112:176,1,180.000000715255,0|0,1:0|1:0,0:0:0:0:
128,120,76579,2,0,P|188:128|244:108,1,120.000000476837,0|8,1:0|0:0,0:0:0:0:
300,128,77105,2,0,L|292:248,2,120.000000476837,0|0|0,1:0|1:0|1:0,0:0:0:0:
341,83,77982,2,0,L|333:219,1,134.999996416568,0|8,1:0|0:0,0:0:0:0:
260,348,78684,6,0,L|184:340,1,75.000000298023,4|0,1:0|1:0,0:0:0:0:
144,260,79035,2,0,L|218:252,1,75.000000298023,10|0,0:0|1:0,0:0:0:0:
185,340,79386,2,0,L|109:332,1,75.000000298023,2|8,1:2|0:0,0:0:0:0:
48,196,79912,6,0,P|55:121|22:54,1,150.000000596046,4|0,1:0|1:0,0:0:0:0:
92,24,80438,1,10,0:0:0:0:
164,44,80614,1,0,1:0:0:0:
240,44,80789,1,2,1:2:0:0:
312,24,80965,1,8,0:0:0:0:
312,24,81316,6,0,P|284:92|312:160,1,150.000000596046,4|0,1:0|1:0,0:0:0:0:
355,220,81842,2,0,P|363:256|355:292,1,75.000000298023,10|0,0:0|1:0,0:0:0:0:
396,356,82193,2,0,L|472:356,1,75.000000298023,2|0,1:2|1:0,0:0:0:0:
288,256,82544,2,0,L|212:256,1,75.000000298023,10|0,0:0|1:0,0:0:0:0:
256,192,82894,12,8,83947,0:0:0:0:
352,252,84298,6,0,L|348:172,1,75.000000298023,6|0,1:2|0:0,0:0:0:0:
312,112,84648,1,10,0:0:0:0:
240,132,84824,1,0,0:0:0:0:
172,100,84999,1,2,0:0:0:0:
100,120,85175,1,0,1:0:0:0:
120,192,85351,2,0,P|136:264|120:340,1,150.000000596046,10|2,0:0|1:2,0:0:0:0:
192,364,85877,5,0,0:0:0:0:
264,344,86052,2,0,P|301:340|336:351,1,75.000000298023,8|0,0:0|0:0,0:0:0:0:
408,328,86403,2,0,P|443:339|480:335,1,75.000000298023,2|0,0:0|1:0,0:0:0:0:
452,264,86754,2,0,P|416:252|379:256,1,75.000000298023,10|0,0:0|1:0,0:0:0:0:
336,196,87105,6,0,L|344:120,1,75.000000298023,2|0,1:2|0:0,0:0:0:0:
392,64,87456,2,0,L|468:72,1,75.000000298023,10|0,0:0|0:0,0:0:0:0:
343,121,87807,2,0,L|267:113,1,75.000000298023,2|0,0:0|1:0,0:0:0:0:
204,152,88158,2,0,P|218:224|204:300,1,150.000000596046,10|2,0:0|1:2,0:0:0:0:
168,364,88684,5,0,0:0:0:0:
96,348,88859,2,0,L|20:348,1,75.000000298023,8|0,0:0|0:0,0:0:0:0:
128,280,89210,2,0,L|204:280,1,75.000000298023,2|0,0:0|1:0,0:0:0:0:
96,212,89561,2,0,B|48:220|48:220|20:212,1,75.000000298023,10|0,0:0|1:0,0:0:0:0:
128,144,89912,6,0,B|176:152|176:152|204:144,1,75.000000298023,2|0,1:2|0:0,0:0:0:0:
268,108,90262,1,10,0:0:0:0:
340,132,90438,1,0,0:0:0:0:
400,88,90614,1,2,0:0:0:0:
472,104,90789,1,0,1:0:0:0:
468,180,90965,2,0,P|452:252|468:328,1,150.000000596046,10|2,0:0|1:2,0:0:0:0:
400,360,91491,5,0,0:0:0:0:
328,340,91666,2,0,P|291:336|256:347,1,75.000000298023,8|0,0:0|0:0,0:0:0:0:
184,324,92017,2,0,P|148:335|111:331,1,75.000000298023,2|0,0:0|1:0,0:0:0:0:
140,260,92368,2,0,P|175:248|212:252,1,75.000000298023,10|0,0:0|1:0,0:0:0:0:
284,280,92719,6,0,B|296:236|272:204|272:204|292:176|284:136,1,150.000000596046,2|10,1:2|0:0,0:0:0:0:
160,52,93421,1,0,1:0:0:0:
160,52,93596,1,10,0:0:0:0:
60,164,93947,6,0,B|76:216|76:216|48:264|78:305,1,150.000000596046,2|0,1:2|1:0,0:0:0:0:
140,260,94473,1,10,0:0:0:0:
212,284,94649,2,0,L|216:328,2,37.5000001490115,0|0|10,1:0|0:0|0:0,0:0:0:0:
276,232,95000,2,0,L|280:188,2,37.5000001490115,0|0|10,1:0|0:0|0:0,0:0:0:0:
336,288,95350,1,0,1:0:0:0:
336,288,95438,1,0,0:0:0:0:
336,288,95526,6,0,L|420:288,1,82.5000028455256,6|0,1:2|0:0,0:0:0:0:
484,224,95877,2,0,B|476:184|476:184|484:144,1,82.5000028455256,2|0,1:2|0:0,0:0:0:0:
428,72,96227,2,0,B|344:72,1,82.5000028455256,2|0,1:2|0:0,0:0:0:0:
268,24,96579,2,0,P|300:96|268:172,1,165.000005691051,2|2,1:2|1:2,0:0:0:0:
192,220,97105,5,0,0:0:0:0:
112,258,97280,2,0,P|100:220|112:180,1,82.5000028455256,0|0,1:0|0:0,0:0:0:0:
162,96,97631,2,0,L|80:96,1,82.5000028455256,2|0,1:2|1:0,0:0:0:0:
192,220,97982,2,0,L|274:220,1,82.5000028455256,2|0,1:2|1:0,0:0:0:0:
192,348,98333,6,0,L|109:348,1,82.5000028455256,2|0,1:2|0:0,0:0:0:0:
112,258,98684,2,0,P|100:220|112:180,1,82.5000028455256,2|0,1:2|0:0,0:0:0:0:
192,220,99035,2,0,P|216:184|252:172,1,82.5000028455256,2|0,1:2|0:0,0:0:0:0:
272,260,99386,2,0,B|332:260|356:308|356:308|416:292,1,165.000005691051,2|2,1:2|1:2,0:0:0:0:
492,240,99912,5,0,0:0:0:0:
460,156,100087,2,0,P|452:116|460:76,1,82.5000028455256,0|0,1:0|0:0,0:0:0:0:
380,32,100438,1,2,1:2:0:0:
304,80,100613,1,0,1:0:0:0:
380,128,100789,1,2,1:2:0:0:
304,176,100964,1,0,1:0:0:0:
380,228,101140,6,0,P|388:268|380:308,1,82.5000028455256,6|0,1:2|0:0,0:0:0:0:
296,268,101491,2,0,L|213:268,1,82.5000028455256,2|0,1:2|0:0,0:0:0:0:
240,356,101842,2,0,L|324:356,1,82.5000028455256,2|0,1:2|0:0,0:0:0:0:
304,176,102193,2,0,L|136:176,1,165.000005691051,2|2,1:2|1:2,0:0:0:0:
56,216,102719,5,0,0:0:0:0:
96,296,102894,2,0,P|104:336|96:376,1,82.5000028455256,0|0,1:0|0:0,0:0:0:0:
56,216,103245,2,0,P|48:176|56:136,1,82.5000028455256,2|0,1:2|1:0,0:0:0:0:
104,56,103596,2,0,B|144:64|144:64|184:56,1,82.5000028455256,2|0,1:2|1:0,0:0:0:0:
260,108,103947,6,0,P|288:184|260:260,1,165.000005691051,2|10,1:2|0:0,0:0:0:0:
96,184,104649,1,0,1:0:0:0:
96,184,104824,1,10,0:0:0:0:
184,344,105175,6,0,P|260:372|336:344,1,165.000005691051,2|0,1:2|1:0,0:0:0:0:
400,280,105701,1,10,0:0:0:0:
492,276,105877,1,0,1:0:0:0:
492,276,105965,1,0,0:0:0:0:
492,276,106052,1,10,0:0:0:0:
492,184,106228,1,0,1:0:0:0:
492,184,106316,1,0,0:0:0:0:
492,184,106403,1,10,0:0:0:0:
412,164,106579,2,0,B|360:156|360:156|316:176|316:176|264:164,1,150.000000596046,4|0,1:0|1:0,0:0:0:0:
192,132,107105,5,10,0:0:0:0:
116,132,107280,1,0,0:0:0:0:
76,196,107455,1,2,0:1:0:0:
152,200,107631,1,0,1:0:0:0:
152,200,107982,1,0,1:0:0:0:
312,272,108333,5,0,1:0:0:0:
332,200,108508,1,10,0:0:0:0:
312,128,108684,1,0,0:0:0:0:
332,56,108859,1,2,0:1:0:0:
384,108,109034,1,4,1:0:0:0:
384,108,109385,1,4,1:0:0:0:
312,272,109736,5,0,1:0:0:0:
240,296,109912,1,10,0:0:0:0:
164,296,110087,1,0,0:0:0:0:
92,272,110262,1,2,0:1:0:0:
108,344,110438,1,0,1:0:0:0:
108,344,110789,1,0,1:0:0:0:
60,200,111140,2,0,P|52:164|60:128,1,75.000000298023,0|10,1:0|0:0,0:0:0:0:
108,68,111491,1,0,0:0:0:0:
180,88,111666,5,2,1:2:0:0:
180,96,111841,1,0,1:0:0:0:
180,104,112017,1,10,0:0:0:0:
180,112,112193,6,0,P|248:84|316:112,1,150.000000596046,4|0,1:0|1:0,0:0:0:0:
368,164,112719,1,10,0:0:0:0:
440,184,112894,1,0,0:0:0:0:
420,112,113070,1,2,0:1:0:0:
368,164,113245,1,0,1:0:0:0:
368,164,113596,2,0,P|340:232|368:300,1,150.000000596046,0|0,1:0|1:0,0:0:0:0:
424,348,114122,5,10,0:0:0:0:
440,276,114298,1,0,0:0:0:0:
367,299,114473,1,2,0:1:0:0:
296,320,114648,1,4,1:0:0:0:
296,320,115000,2,0,B|248:328|248:328|200:312|200:312|148:320,1,150.000000596046,4|0,1:0|1:0,0:0:0:0:
80,292,115526,5,10,0:0:0:0:
112,224,115701,1,0,0:0:0:0:
112,148,115877,1,2,0:1:0:0:
80,80,116052,1,0,1:0:0:0:
80,80,116403,2,0,B|130:72|130:72|178:88|178:88|226:80,1,150.000000596046,0|0,1:0|1:0,0:0:0:0:
292,44,116929,6,0,P|260:108|292:176,1,150.000000596046,10|2,0:0|1:2,0:0:0:0:
352,220,117455,1,0,1:0:0:0:
396,160,117631,1,10,0:0:0:0:
340,108,117807,1,4,1:0:0:0:
