osu file format v12

[General]
AudioFilename: COP.mp3
AudioLeadIn: 0
PreviewTime: 27330
Countdown: 0
SampleSet: Soft
StackLeniency: 0.7
Mode: 0
LetterboxInBreaks: 0
WidescreenStoryboard: 0

[Editor]
DistanceSpacing: 1.4
BeatDivisor: 4
GridSize: 4

[Metadata]
Title:Tooku Made (TV Size)
TitleUnicode:遠くまで (TV Size)
Artist:angela
ArtistUnicode:angela
Creator:Asgard
Version:Normal
Source:COPPELION
Tags:Sonnyc ending atsuko katsu
BeatmapID:314127
BeatmapSetID:121527

[Difficulty]
HPDrainRate:4
CircleSize:3
OverallDifficulty:3
ApproachRate:4
SliderMultiplier:1.2
SliderTickRate:2

[Events]
//Background and Video events
Video,0,"COP.avi"
0,0,"1231.jpg",0,0
//Break Periods
//Storyboard Layer 0 (Background)
//Storyboard Layer 1 (Fail)
//Storyboard Layer 2 (Pass)
//Storyboard Layer 3 (Foreground)
//Storyboard Sound Samples
//Background Colour Transformations
3,100,163,162,255

[TimingPoints]
381,508.474576271186,3,2,1,70,1,0
27838,-100,3,2,1,70,0,1
29618,-100,3,2,2,70,0,1
29745,-100,3,2,1,70,0,1
44872,-100,3,2,2,70,0,1
44999,-100,3,2,1,70,0,1
47923,-100,3,2,2,70,0,1
48050,-100,3,2,1,70,0,1
50974,-100,3,2,2,70,0,1
51101,-100,3,2,1,70,0,1
58092,-100,3,2,1,70,0,0
58347,-100,3,2,1,70,0,1
69279,-100,3,2,2,70,0,1
69406,-100,3,2,1,70,0,1
75380,-100,3,2,2,70,0,1
75508,-100,3,2,1,70,0,1
78431,-100,3,2,2,70,0,1
78558,-100,3,2,1,70,0,1
82753,-100,3,2,1,70,0,0

[Colours]
Combo1 : 255,255,0
Combo2 : 0,200,0
Combo3 : 170,170,255
Combo4 : 200,0,200

[HitObjects]
44,120,3431,2,0,P|92:160|116:228,1,120,4|0,0:0|0:0,0:0:0:0:
172,272,4194,1,8,0:0:0:0:
172,272,4703,5,4,0:0:0:0:
231,212,4957,2,0,L|364:224,1,120,4|0,0:0|0:0,0:0:0:0:
432,208,5719,1,8,0:0:0:0:
432,208,6228,5,0,0:0:0:0:
432,124,6482,2,0,P|376:96|320:116,1,120,4|0,0:0|0:0,0:0:0:0:
269,177,7245,2,0,P|232:174|198:157,2,60,8|0|4,0:0|0:0|0:0,0:0:0:0:
340,224,8008,6,0,P|376:276|428:300,1,120,4|0,0:0|0:0,0:0:0:0:
510,299,8770,1,8,0:0:0:0:
510,299,9279,5,0,0:0:0:0:
468,228,9533,2,0,P|416:188|385:134,1,120,4|0,0:0|0:0,0:0:0:0:
306,137,10296,2,0,L|260:176,2,60,8|0|4,0:0|0:0|0:0,0:0:0:0:
352,68,11058,6,0,P|277:61|232:96,1,120,4|0,0:0|0:0,0:0:0:0:
181,143,11821,2,0,P|127:168|64:168,1,120,8|0,0:0|0:0,0:0:0:0:
20,240,12584,6,0,L|32:308,2,60,4|0|0,0:0|0:0|0:0,0:0:0:0:
68,168,13347,2,0,L|56:100,2,60,8|0|4,0:0|0:0|0:0,0:0:0:0:
132,224,14109,6,0,P|168:280|220:308,1,120,4|0,0:0|0:0,0:0:0:0:
298,306,14872,2,0,P|349:274|380:224,1,120,8|0,0:0|0:0,0:0:0:0:
379,139,15635,1,4,0:0:0:0:
256,232,16143,5,0,0:0:0:0:
213,158,16397,2,0,P|222:129|239:104,1,60,8|0,0:0|0:0,0:0:0:0:
319,79,16906,1,4,0:0:0:0:
400,56,17160,2,0,P|456:100|456:168,1,120,4|0,0:0|0:0,0:0:0:0:
403,204,17923,2,0,P|406:264|448:316,1,120,8|0,0:0|0:0,0:0:0:0:
368,352,18686,6,0,L|304:352,2,60,4|0|0,0:0|0:0|0:0,0:0:0:0:
440,312,19448,1,8,0:0:0:0:
324,188,19957,1,4,0:0:0:0:
256,236,20211,2,0,P|200:256|160:300,1,120,4|0,0:0|0:0,0:0:0:0:
75,299,20974,2,0,L|48:176,1,120,8|0,0:0|0:0,0:0:0:0:
108,122,21736,6,0,P|100:86|84:58,2,60,4|0|0,0:0|0:0|0:0,0:0:0:0:
144,196,22499,2,0,P|176:204|212:196,1,60,8|0,0:0|0:0,0:0:0:0:
261,140,23008,1,4,0:0:0:0:
320,199,23262,2,0,P|308:260|324:320,1,120,4|0,0:0|0:0,0:0:0:0:
405,315,24025,2,0,P|418:257|406:198,1,120,8|0,0:0|0:0,0:0:0:0:
364,128,24787,6,0,L|336:68,2,60,4|0|0,0:0|0:0|0:0,0:0:0:0:
448,128,25550,2,0,L|472:72,2,60,8|0|4,0:0|0:0|0:0,0:0:0:0:
404,200,26313,6,0,L|362:242,1,60,4|0,0:0|0:0,0:0:0:0:
284,272,26821,1,4,0:0:0:0:
224,331,27075,2,0,L|165:316,2,60,12|0|0,0:0|0:0|0:0,0:0:0:0:
284,272,27838,6,0,P|240:212|176:188,1,120,4|0,0:0|0:0,0:0:0:0:
152,124,28601,2,0,L|128:56,2,60,8|0|0,0:0|0:0|0:0,0:0:0:0:
116,200,29364,6,0,P|88:252|80:320,1,120,4|0,0:0|0:0,0:0:0:0:
164,304,30126,2,0,L|244:304,1,60,8|0,0:0|0:0,0:0:0:0:
283,244,30635,1,0,0:0:0:0:
342,184,30889,6,0,P|330:123|346:63,1,120,4|0,0:0|0:0,0:0:0:0:
427,68,31652,2,0,P|440:126|428:185,1,120,8|0,0:0|0:0,0:0:0:0:
388,256,32414,2,0,L|412:320,2,60,4|4|0,0:0|0:0|0:0,0:0:0:0:
344,184,33177,2,0,L|276:168,2,60,8|0|0,0:0|0:0|0:0,0:0:0:0:
300,256,33940,6,0,P|244:280|204:336,1,120,4|0,0:0|0:0,0:0:0:0:
128,356,34703,2,0,L|80:304,1,60,8|0,0:0|0:0,0:0:0:0:
87,227,35211,1,0,0:0:0:0:
132,156,35465,6,0,L|184:112,2,60,4|4|0,0:0|0:0|0:0,0:0:0:0:
87,227,36228,2,0,P|52:176|72:96,1,120,8|0,0:0|0:0,0:0:0:0:
120,60,36991,6,0,L|56:24,2,60,4|0|0,0:0|0:0|0:0,0:0:0:0:
148,140,37753,2,0,P|184:172|264:188,1,120,8|0,0:0|0:0,0:0:0:0:
312,129,38516,2,0,L|376:112,1,60,4|4,0:0|0:0,0:0:0:0:
429,173,39025,2,0,L|493:190,2,60,0|8|0,0:0|0:0|0:0,0:0:0:0:
352,204,39787,1,0,0:0:0:0:
304,272,40042,6,0,P|256:308|188:304,1,120,4|0,0:0|0:0,0:0:0:0:
124,268,40804,2,0,P|172:232|240:236,1,120,8|0,0:0|0:0,0:0:0:0:
276,160,41567,2,0,L|217:132,2,60,4|4|0,0:0|0:0|0:0,0:0:0:0:
335,219,42330,2,0,P|356:176|336:104,1,120,8|0,0:0|0:0,0:0:0:0:
268,64,43092,6,0,P|221:53|155:88,1,120,4|0,0:0|0:0,2:0:0:0:
92,136,43855,2,0,P|76:157|62:187,2,60,8|0|0,0:0|0:0|0:0,0:0:0:0:
144,204,44618,6,0,P|120:256|120:336,1,120,4|0,0:0|0:0,0:0:0:0:
200,336,45380,2,0,L|200:272,2,60,8|0|0,0:0|0:0|0:0,0:0:0:0:
284,352,46143,6,0,L|284:228,1,120,4|0,0:0|0:0,0:0:0:0:
343,172,46906,2,0,L|372:224,2,60,8|0|0,0:0|0:0|0:0,0:0:0:0:
292,104,47669,6,0,P|348:88|412:128,1,120,4|0,0:0|0:0,0:0:0:0:
444,184,48431,2,0,L|452:248,2,60,8|0|0,0:0|0:0|0:0,0:0:0:0:
401,113,49194,6,0,L|428:60,2,60,4|0|0,0:0|0:0|0:0,0:0:0:0:
352,180,49957,2,0,P|296:208|272:264,1,120,8|0,0:0|0:0,0:0:0:0:
213,317,50719,2,0,L|141:217,1,120,4|0,0:0|0:0,0:0:0:0:
72,176,51482,2,0,L|8:176,2,60,8|0|0,0:0|0:0|0:0,0:0:0:0:
144,136,52245,6,0,P|196:96|212:32,1,120,4|0,0:0|0:0,0:0:0:0:
299,46,53008,2,0,P|319:101|368:136,1,120,8|0,0:0|0:0,0:0:0:0:
448,164,53770,2,0,L|481:217,2,60,4|4|0,0:0|0:0|0:0,0:0:0:0:
380,216,54533,2,0,L|376:284,1,60,8|0,0:0|0:0,0:0:0:0:
316,335,55042,1,0,0:0:0:0:
256,192,55296,12,4,58347,0:0:0:0:
256,288,58855,5,0,0:0:0:0:
196,232,59109,2,0,P|136:204|100:152,1,120,8|0,0:0|0:0,0:0:0:0:
96,76,59872,2,0,P|64:56|20:56,2,60,4|4|0,0:0|0:0|0:0,0:0:0:0:
172,116,60635,2,0,L|240:96,2,60,8|0|0,0:0|0:0|0:0,0:0:0:0:
104,164,61397,6,0,P|127:213|122:301,1,120,4|0,0:0|0:0,0:0:0:0:
204,316,62160,2,0,P|220:258|259:212,1,120,8|0,0:0|0:0,0:0:0:0:
296,288,62923,2,0,L|352:332,2,60,4|4|0,0:0|0:0|0:0,0:0:0:0:
340,216,63686,2,0,L|376:144,2,60,8|0|0,0:0|0:0|0:0,0:0:0:0:
424,224,64448,6,0,P|448:172|428:100,1,120,4|0,0:0|0:0,0:0:0:0:
356,80,65211,2,0,P|304:105|274:173,1,120,8|0,0:0|0:0,0:0:0:0:
196,184,65974,2,0,L|128:152,2,60,4|4|0,0:0|0:0|0:0,0:0:0:0:
256,240,66736,2,0,P|204:280|136:276,1,120,8|0,0:0|0:0,0:0:0:0:
69,300,67499,6,0,P|26:314|3:331,2,60,4|0|0,0:0|0:0|0:0,0:0:0:0:
96,220,68262,2,0,L|76:100,1,120,8|0,0:0|0:0,0:0:0:0:
152,64,69025,2,0,L|171:182,1,120,4|0,0:0|0:0,0:0:0:0:
248,148,69787,2,0,L|228:29,1,120,8|0,0:0|0:0,0:0:0:0:
312,40,70550,6,0,L|380:56,2,60,4|0|0,0:0|0:0|0:0,0:0:0:0:
324,124,71313,2,0,P|320:192|264:232,1,120,8|0,0:0|0:0,0:0:0:0:
200,216,72075,2,0,L|144:184,2,60,4|4|0,0:0|0:0|0:0,0:0:0:0:
236,292,72838,2,0,P|286:337|351:334,1,120,8|0,0:0|0:0,0:0:0:0:
420,344,73601,6,0,L|488:328,2,60,4|0|0,0:0|0:0|0:0,0:0:0:0:
380,272,74364,2,0,L|400:204,2,60,8|0|0,0:0|0:0|0:0,0:0:0:0:
304,308,75126,6,0,P|264:252|216:236,1,120,4|0,0:0|0:0,0:0:0:0:
148,284,75889,2,0,L|148:352,2,60,8|0|0,0:0|0:0|0:0,0:0:0:0:
72,244,76652,6,0,P|55:173|22:136,1,120,4|0,0:0|0:0,0:0:0:0:
25,54,77414,2,0,L|141:102,1,120,8|0,0:0|0:0,0:0:0:0:
152,184,78177,2,0,L|268:136,1,120,4|0,0:0|0:0,0:0:0:0:
310,68,78940,2,0,L|390:68,2,60,8|0|0,0:0|0:0|0:0,0:0:0:0:
340,148,79703,6,0,P|368:208|360:276,1,120,4|0,0:0|0:0,0:0:0:0:
305,319,80465,2,0,P|240:304|191:255,1,120,8|0,0:0|0:0,0:0:0:0:
212,188,81228,2,0,L|160:128,1,60,4|4,0:0|0:0,0:0:0:0:
120,208,81736,2,0,L|96:272,2,60,0|8|0,0:0|0:0|0:0,0:0:0:0:
52,160,82499,1,0,0:0:0:0:
24,240,82753,6,0,P|36:312|96:344,1,120,4|0,0:0|0:0,0:0:0:0:
152,320,83516,2,0,P|204:296|260:320,1,120,8|0,0:0|0:0,0:0:0:0:
336,352,84279,2,0,L|408:336,2,60,4|4|0,0:0|0:0|0:0,0:0:0:0:
324,268,85042,2,0,L|363:205,2,60,8|0|0,0:0|0:0|0:0,0:0:0:0:
256,192,85804,12,4,87330,0:0:0:0:
