osu file format v12

[General]
AudioFilename: COP.mp3
AudioLeadIn: 0
PreviewTime: 27330
Countdown: 0
SampleSet: Soft
StackLeniency: 0.7
Mode: 0
LetterboxInBreaks: 0
WidescreenStoryboard: 0

[Editor]
DistanceSpacing: 1.2
BeatDivisor: 4
GridSize: 4

[Metadata]
Title:Tooku Made (TV Size)
TitleUnicode:遠くまで (TV Size)
Artist:angela
ArtistUnicode:angela
Creator:Asgard
Version:Hard
Source:COPPELION
Tags:Sonnyc ending atsuko katsu
BeatmapID:311092
BeatmapSetID:121527

[Difficulty]
HPDrainRate:6
CircleSize:4
OverallDifficulty:5
ApproachRate:7
SliderMultiplier:1.4
SliderTickRate:2

[Events]
//Background and Video events
Video,0,"COP.avi"
0,0,"1231.jpg",0,0
//Break Periods
//Storyboard Layer 0 (Background)
//Storyboard Layer 1 (Fail)
//Storyboard Layer 2 (Pass)
//Storyboard Layer 3 (Foreground)
//Storyboard Sound Samples
//Background Colour Transformations
3,100,163,162,255

[TimingPoints]
381,508.474576271186,3,2,1,70,1,0
27838,-76.9230769230769,3,2,1,70,0,1
38770,-76.9230769230769,3,2,2,70,0,1
38897,-76.9230769230769,3,2,1,70,0,1
44872,-76.9230769230769,3,2,2,70,0,1
44999,-76.9230769230769,3,2,1,70,0,1
54025,-76.9230769230769,3,2,2,70,0,1
54152,-76.9230769230769,3,2,1,70,0,1
58092,-76.9230769230769,3,2,1,70,0,0
58347,-76.9230769230769,3,2,1,70,0,1
63177,-76.9230769230769,3,2,2,70,0,1
63304,-76.9230769230769,3,2,1,70,0,1
66228,-76.9230769230769,3,2,2,70,0,1
66355,-76.9230769230769,3,2,1,70,0,1
81482,-76.9230769230769,3,2,2,70,0,1
81609,-76.9230769230769,3,2,1,70,0,1
82753,-76.9230769230769,3,2,1,70,0,0

[Colours]
Combo1 : 255,255,0
Combo2 : 0,200,0
Combo3 : 170,170,255
Combo4 : 200,0,200

[HitObjects]
136,280,3431,2,0,P|188:244|216:164,1,140,4|0,0:0|0:0,0:0:0:0:
156,116,4194,1,8,0:0:0:0:
156,115,4703,1,4,0:0:0:0:
156,115,4957,6,0,B|232:100|232:100|284:60,1,140,4|0,0:0|0:0,0:0:0:0:
365,61,5719,1,8,0:0:0:0:
468,192,6228,1,0,0:0:0:0:
468,192,6482,6,0,P|424:236|432:324,1,140,4|0,0:0|0:0,0:0:0:0:
352,352,7245,2,0,L|272:352,2,70,8|0|4,0:0|0:0|0:0,0:0:0:0:
320,272,8008,2,0,P|256:248|192:272,1,140,4|0,0:0|0:0,0:0:0:0:
132,332,8770,1,8,0:0:0:0:
132,331,9279,1,0,0:0:0:0:
132,331,9533,6,0,P|116:296|88:272,2,70,4|0|0,0:0|0:0|0:0,0:0:0:0:
215,315,10296,2,0,P|187:252|137:204,1,140,8|4,0:0|0:0,0:0:0:0:
176,128,11058,2,0,P|251:120|313:83,1,140,4|0,0:0|0:0,0:0:0:0:
366,149,11821,2,0,L|366:225,1,70,8|0,0:0|0:0,0:0:0:0:
425,278,12330,1,0,0:0:0:0:
364,336,12584,6,0,L|296:353,1,70,4|0,0:0|0:0,0:0:0:0:
237,295,13092,1,0,0:0:0:0:
168,344,13347,2,0,P|156:272|204:216,1,140,8|4,0:0|0:0,0:0:0:0:
227,39,14109,2,0,P|266:95|253:162,1,140,4|0,0:0|0:0,0:0:0:0:
184,112,14872,6,0,L|104:136,2,70,8|0|0,0:0|0:0|0:0,0:0:0:0:
253,162,15635,2,0,P|308:192|332:272,1,140,4|0,0:0|0:0,0:0:0:0:
392,320,16397,1,8,0:0:0:0:
440,252,16652,1,0,0:0:0:0:
424,168,16906,1,4,0:0:0:0:
436,84,17160,6,0,B|360:56|352:112|292:84,1,140,4|0,0:0|0:0,0:0:0:0:
240,27,17923,2,0,P|185:57|161:137,1,140,8|0,0:0|0:0,0:0:0:0:
219,186,18686,2,0,P|228:220|224:256,2,70,4|0|0,0:0|0:0|0:0,0:0:0:0:
278,126,19448,2,0,P|308:143|331:171,2,70,8|0|4,0:0|0:0|0:0,0:0:0:0:
196,100,20211,6,0,P|144:144|144:220,1,140,4|0,0:0|0:0,0:0:0:0:
96,284,20974,2,0,B|172:312|180:256|240:284,1,140,8|0,0:0|0:0,0:0:0:0:
291,340,21736,6,0,L|364:340,2,70,4|0|0,0:0|0:0|0:0,0:0:0:0:
232,280,22499,2,0,P|216:248|192:224,1,70,8|0,0:0|0:0,0:0:0:0:
184,140,23008,1,4,0:0:0:0:
184,140,23262,2,0,B|248:96|320:112,1,140,4|0,0:0|0:0,0:0:0:0:
375,171,24025,2,0,P|333:226|326:295,1,140,8|0,0:0|0:0,0:0:0:0:
388,352,24787,6,0,L|456:320,2,70,4|0|0,0:0|0:0|0:0,0:0:0:0:
328,296,25550,2,0,L|260:264,1,70,8|0,0:0|0:0,0:0:0:0:
200,320,26059,1,4,0:0:0:0:
140,260,26313,2,0,P|120:192|140:128,1,140,4|4,0:0|0:0,0:0:0:0:
199,68,27075,2,0,P|231:55|271:56,1,70,12|0,0:0|0:0,0:0:0:0:
264,188,27584,1,0,0:0:0:0:
186,265,27838,5,4,0:0:0:0:
186,265,27965,1,0,0:0:0:0:
186,265,28092,1,0,0:0:0:0:
284,312,28347,1,0,0:0:0:0:
372,248,28601,2,0,P|416:260|460:248,1,90.9999958343508,8|0,0:0|0:0,0:0:0:0:
456,140,29109,1,0,0:0:0:0:
348,140,29364,5,4,0:0:0:0:
348,140,29491,1,0,0:0:0:0:
348,140,29618,1,4,0:0:0:0:
268,212,29872,2,0,P|214:213|174:233,1,90.9999958343508,0|8,0:0|0:0,0:0:0:0:
72,212,30380,2,0,L|24:133,1,90.9999958343508
117,76,30889,6,0,P|198:103|284:57,1,181.999991668702,4|0,0:0|0:0,0:0:0:0:
389,62,31652,2,0,P|434:135|408:228,1,181.999991668702,8|0,0:0|0:0,0:0:0:0:
336,148,32414,2,0,L|244:172,2,90.9999958343508,4|4|0,0:0|0:0|0:0,0:0:0:0:
413,225,33177,2,0,P|328:260|268:344,1,181.999991668702,8|0,0:0|0:0,0:0:0:0:
164,332,33940,5,4,0:0:0:0:
140,320,34067,1,0,0:0:0:0:
112,308,34194,2,0,P|76:276|32:268,1,90.9999958343508,0|0,0:0|0:0,0:0:0:0:
68,164,34703,2,0,P|100:124|104:80,1,90.9999958343508,8|0,0:0|0:0,0:0:0:0:
212,68,35211,1,0,0:0:0:0:
292,148,35465,5,4,0:0:0:0:
280,172,35592,1,0,0:0:0:0:
272,196,35719,2,0,P|273:247|298:283,1,90.9999958343508,4|0,0:0|0:0,0:0:0:0:
396,240,36228,2,0,P|388:194|361:158,2,90.9999958343508,8|0|0,0:0|0:0|0:0,0:0:0:0:
372,348,36991,6,0,P|287:368|223:280,1,181.999991668702,4|0,0:0|0:0,0:0:0:0:
324,256,37753,1,8,0:0:0:0:
328,148,38008,1,0,0:0:0:0:
236,88,38262,1,0,0:0:0:0:
136,128,38516,6,0,P|73:189|94:273,1,181.999991668702,4|0,0:0|0:0,0:0:0:0:
184,212,39279,2,0,L|276:212,2,90.9999958343508,8|0|0,0:0|0:0|0:0,0:0:0:0:
93,272,40042,6,0,P|169:320|253:288,1,181.999991668702,4|0,0:0|0:0,0:0:0:0:
330,217,40804,2,0,P|413:188|486:236,1,181.999991668702,8|0,0:0|0:0,0:0:0:0:
396,296,41567,2,0,L|316:340,2,90.9999958343508,4|4|0,0:0|0:0|0:0,0:0:0:0:
435,193,42330,2,0,L|403:97,2,90.9999958343508,8|0|0,0:0|0:0|0:0,0:0:0:0:
332,232,43092,5,4,0:0:0:0:
332,232,43219,2,0,P|272:200|272:136,1,136.499993751526,0|0,0:0|0:0,0:0:0:0:
208,48,43855,1,8,0:0:0:0:
132,124,44109,1,0,0:0:0:0:
24,132,44364,1,0,0:0:0:0:
12,240,44618,6,0,P|72:280|88:384,1,181.999991668702,4|0,0:0|0:0,0:0:0:0:
8,340,45380,2,0,P|62:293|167:306,1,181.999991668702,8|0,0:0|0:0,0:0:0:0:
252,372,46143,5,4,0:0:0:0:
256,344,46270,1,0,0:0:0:0:
260,316,46398,2,0,P|252:272|212:228,1,90.9999958343508,0|0,0:0|0:0,0:0:0:0:
160,148,46906,1,8,0:0:0:0:
184,40,47160,6,0,B|232:40|272:67,1,90.9999958343508,0|0,0:0|0:0,0:0:0:0:
300,172,47669,1,4,0:0:0:0:
316,192,47796,1,0,0:0:0:0:
332,208,47923,2,0,P|368:239|416:247,1,90.9999958343508,4|0,0:0|0:0,0:0:0:0:
492,176,48431,2,0,L|492:267,1,90.9999958343508,8|0,0:0|0:0,0:0:0:0:
416,344,48940,1,0,0:0:0:0:
308,336,49194,6,0,P|224:280|136:296,1,181.999991668702,4|0,0:0|0:0,0:0:0:0:
70,212,49957,2,0,P|50:108|102:40,1,181.999991668702,8|0,0:0|0:0,0:0:0:0:
196,72,50719,2,0,P|240:92|292:88,1,90.9999958343508,4|4,0:0|0:0,0:0:0:0:
372,156,51228,1,0,0:0:0:0:
436,245,51482,2,0,L|464:337,2,90.9999958343508,8|0|0,0:0|0:0|0:0,0:0:0:0:
328,248,52245,6,0,P|248:288|168:248,1,181.999991668702,4|0,0:0|0:0,0:0:0:0:
247,173,53008,2,0,P|167:133|87:173,1,181.999991668702,8|0,0:0|0:0,0:0:0:0:
89,279,53770,2,0,P|168:316|246:276,1,181.999991668702,4|0,0:0|0:0,0:0:0:0:
168,200,54533,2,0,L|168:108,2,90.9999958343508,8|0|0,0:0|0:0|0:0,0:0:0:0:
245,277,55296,6,0,P|329:241|412:276,1,181.999991668702,4|0,0:0|0:0,0:0:0:0:
450,204,56058,2,0,P|379:150|368:63,1,181.999991668702,8|0,0:0|0:0,0:0:0:0:
256,192,56821,12,4,58347,0:0:0:0:
164,248,58855,5,0,0:0:0:0:
164,248,59109,2,0,P|120:260|84:288,2,90.9999958343508,8|0|0,0:0|0:0|0:0,0:0:0:0:
240,168,59872,2,0,P|288:172|328:144,1,90.9999958343508,4|4,0:0|0:0,0:0:0:0:
400,72,60380,1,0,0:0:0:0:
477,149,60635,2,0,P|512:188|518:236,2,90.9999958343508,8|0|0,0:0|0:0|0:0,0:0:0:0:
367,149,61397,6,0,P|356:220|408:328,1,181.999991668702,4|0,0:0|0:0,0:0:0:0:
448,220,62160,2,0,P|344:243|272:216,1,181.999991668702,8|0,0:0|0:0,0:0:0:0:
184,156,62923,2,0,P|80:133|8:160,1,181.999991668702,4|0,0:0|0:0,0:0:0:0:
4,268,63686,2,0,L|38:354,2,90.9999958343508,8|0|0,0:0|0:0|0:0,0:0:0:0:
136,192,64448,6,0,P|135:291|197:352,1,181.999991668702,4|0,0:0|0:0,0:0:0:0:
376,192,65211,2,0,P|381:280|323:348,1,181.999991668702,8|0,0:0|0:0,0:0:0:0:
336,112,65974,2,0,P|256:72|176:112,1,181.999991668702,4|0,0:0|0:0,0:0:0:0:
256,184,66736,2,0,L|256:280,2,90.9999958343508,8|0|0,0:0|0:0|0:0,0:0:0:0:
336,112,67499,6,0,B|384:128|384:128|428:132,1,90.9999958343508,4|0,0:0|0:0,0:0:0:0:
501,209,68008,1,0,0:0:0:0:
448,304,68262,2,0,L|400:208,1,90.9999958343508,8|0,0:0|0:0,0:0:0:0:
352,316,68770,2,0,L|264:272,2,90.9999958343508,0|4|4,0:0|0:0|0:0,0:0:0:0:
352,316,69533,1,0,0:0:0:0:
448,304,69787,1,8,0:0:0:0:
480,200,70042,1,0,0:0:0:0:
402,122,70296,1,0,0:0:0:0:
402,122,70550,6,0,P|328:140|272:40,1,181.999991668702,4|0,0:0|0:0,0:0:0:0:
176,120,71313,2,0,P|164:164|176:212,1,90.9999958343508,8|0,0:0|0:0,0:0:0:0:
252,284,71821,1,0,0:0:0:0:
252,284,72075,2,0,P|264:240|252:192,1,90.9999958343508,4|4,0:0|0:0,0:0:0:0:
331,119,72584,1,0,0:0:0:0:
440,119,72838,2,0,P|471:85|483:37,2,90.9999958343508,8|0|0,0:0|0:0|0:0,0:0:0:0:
376,212,73601,6,0,P|324:260|323:368,1,181.999991668702,4|0,0:0|0:0,0:0:0:0:
135,211,74364,2,0,P|195:277|189:365,1,181.999991668702,8|0,0:0|0:0,0:0:0:0:
256,136,75126,2,0,L|256:32,2,90.9999958343508,4|4|0,0:0|0:0|0:0,0:0:0:0:
256,248,75889,2,0,L|256:352,2,90.9999958343508,8|0|0,0:0|0:0|0:0,0:0:0:0:
170,145,76652,6,0,P|166:190|183:232,1,90.9999958343508,4|0,0:0|0:0,0:0:0:0:
341,145,77160,2,0,P|345:190|328:232,1,90.9999958343508,0|8,0:0|0:0,0:0:0:0:
328,341,77669,1,0,0:0:0:0:
328,341,77923,2,0,L|412:305,1,90.9999958343508,0|4,0:0|0:0,0:0:0:0:
488,228,78431,1,4,0:0:0:0:
488,116,78686,2,0,P|464:68|428:48,1,90.9999958343508,0|8,0:0|0:0,0:0:0:0:
341,107,79194,2,0,L|253:79,1,90.9999958343508
254,79,79703,6,0,P|216:152|128:112,1,181.999991668702,4|0,0:0|0:0,0:0:0:0:
25,126,80465,2,0,P|64:208|48:296,1,181.999991668702,8|0,0:0|0:0,0:0:0:0:
236,160,81228,2,0,P|176:228|168:317,1,181.999991668702,4|0,0:0|0:0,0:0:0:0:
276,336,81991,2,0,L|359:378,2,90.9999958343508,8|0|0,0:0|0:0|0:0,0:0:0:0:
309,234,82753,6,0,P|360:144|348:52,1,181.999991668702,4|0,0:0|0:0,0:0:0:0:
157,68,83516,2,0,P|155:158|203:234,1,181.999991668702,8|0,0:0|0:0,0:0:0:0:
310,234,84279,2,0,P|356:244|398:286,2,90.9999958343508,4|4|0,0:0|0:0|0:0,0:0:0:0:
202,234,85042,2,0,P|156:244|114:286,2,90.9999958343508,8|0|0,0:0|0:0|0:0,0:0:0:0:
256,192,85804,12,4,87330,0:0:0:0:
