osu file format v12

[General]
AudioFilename: COP.mp3
AudioLeadIn: 0
PreviewTime: 27330
Countdown: 0
SampleSet: Soft
StackLeniency: 0.7
Mode: 0
LetterboxInBreaks: 0
WidescreenStoryboard: 0

[Editor]
DistanceSpacing: 1
BeatDivisor: 4
GridSize: 4

[Metadata]
Title:Tooku Made (TV Size)
TitleUnicode:遠くまで (TV Size)
Artist:angela
ArtistUnicode:angela
Creator:Asgard
Version:Easy
Source:COPPELION
Tags:Sonnyc ending atsuko katsu
BeatmapID:314238
BeatmapSetID:121527

[Difficulty]
HPDrainRate:3
CircleSize:3
OverallDifficulty:2
ApproachRate:3
SliderMultiplier:1
SliderTickRate:2

[Events]
//Background and Video events
Video,0,"COP.avi"
0,0,"1231.jpg",0,0
//Break Periods
//Storyboard Layer 0 (Background)
//Storyboard Layer 1 (Fail)
//Storyboard Layer 2 (Pass)
//Storyboard Layer 3 (Foreground)
//Storyboard Sound Samples
//Background Colour Transformations
3,100,163,162,255

[TimingPoints]
381,508.474576271186,3,2,1,70,1,0
26821,-100,3,2,2,70,0,0
26948,-100,3,2,1,70,0,0
27838,-100,3,2,1,70,0,1
58092,-100,3,2,1,70,0,0
58347,-100,3,2,1,70,0,1
60126,-100,3,2,2,70,0,1
60253,-100,3,2,1,70,0,1
63177,-100,3,2,2,70,0,1
63304,-100,3,2,1,70,0,1
66228,-100,3,2,2,70,0,1
66355,-100,3,2,1,70,0,1
69279,-100,3,2,2,70,0,1
69406,-100,3,2,1,70,0,1
78431,-100,3,2,2,70,0,1
78558,-100,3,2,1,70,0,1
82753,-100,3,2,1,70,0,0

[Colours]
Combo1 : 255,255,0
Combo2 : 0,200,0
Combo3 : 170,170,255
Combo4 : 200,0,200

[HitObjects]
220,32,3431,2,0,P|248:100|220:168,1,150,4|8,0:0|0:0,0:0:0:0:
144,100,4703,1,4,0:0:0:0:
94,100,4957,2,0,P|66:167|93:235,1,150,4|8,0:0|0:0,0:0:0:0:
189,341,6482,6,0,P|256:313|324:340,1,150,4|8,0:0|0:0,0:0:0:0:
410,288,7753,1,4,0:0:0:0:
374,252,8008,2,0,P|346:184|373:116,1,150,4|8,0:0|0:0,0:0:0:0:
248,36,9533,6,0,P|226:100|158:148,1,150,4|8,0:0|0:0,0:0:0:0:
90,217,10804,1,4,0:0:0:0:
60,176,11058,2,0,P|84:88|144:55,1,150,4|8,0:0|0:0,0:0:0:0:
276,100,12584,6,0,B|336:84|380:116|424:101,1,150,4|8,0:0|0:0,0:0:0:0:
467,188,13855,1,4,0:0:0:0:
431,223,14109,2,0,B|371:239|327:207|275:223,2,150,4|8|4,0:0|0:0|0:0,0:0:0:0:
324,329,16397,5,8,0:0:0:0:
232,288,16906,1,4,0:0:0:0:
188,264,17160,2,0,P|116:288|84:368,1,150,4|8,0:0|0:0,0:0:0:0:
28,212,18686,6,0,P|72:152|64:68,1,150,4|8,0:0|0:0,0:0:0:0:
168,69,19957,1,4,0:0:0:0:
203,104,20211,2,0,P|175:172|203:240,1,150,4|8,0:0|0:0,0:0:0:0:
336,172,21736,6,0,P|363:104|335:36,1,150,4|8,0:0|0:0,0:0:0:0:
256,100,23008,1,4,0:0:0:0:
256,148,23262,2,0,L|256:304,1,150,4|8,0:0|0:0,0:0:0:0:
400,340,24787,6,0,P|416:284|452:256,1,100,4|0,0:0|0:0,0:0:0:0:
482,222,25550,2,0,P|453:171|459:125,1,100,8|4,0:0|0:0,0:0:0:0:
421,95,26313,2,0,B|374:100|337:60|275:64,1,150,4|12,0:0|0:0,0:0:0:0:
168,168,27838,6,0,P|152:216|168:264,1,100,4|0,0:0|0:0,0:0:0:0:
201,297,28601,1,8,0:0:0:0:
268,224,29109,1,4,0:0:0:0:
303,188,29364,2,0,L|464:188,2,150,4|8|4,0:0|0:0|0:0,0:0:0:0:
196,81,31652,5,8,0:0:0:0:
104,48,32160,1,4,0:0:0:0:
68,83,32414,2,0,P|92:139|92:187,1,100,4|0,0:0|0:0,0:0:0:0:
57,212,33177,2,0,P|60:261|82:306,1,100,8|0,0:0|0:0,0:0:0:0:
117,341,33940,5,4,0:0:0:0:
216,228,34702,1,8,0:0:0:0:
292,296,35211,1,4,0:0:0:0:
340,308,35465,2,0,L|424:220,1,100,4|0,0:0|0:0,0:0:0:0:
456,216,36228,2,0,P|425:173|425:109,1,100,8|0,0:0|0:0,0:0:0:0:
385,91,36991,6,0,P|317:63|249:91,1,150,4|8,0:0|0:0,0:0:0:0:
253,190,38262,1,4,0:0:0:0:
217,225,38516,2,0,P|149:253|81:225,1,150,4|8,0:0|0:0,0:0:0:0:
156,96,40042,6,0,P|224:123|253:190,1,150,4|8,0:0|0:0,0:0:0:0:
324,260,41313,1,4,0:0:0:0:
359,224,41567,2,0,P|392:160|455:108,1,150,4|8,0:0|0:0,0:0:0:0:
324,32,43092,6,0,P|256:60|188:32,1,150,4|8,0:0|0:0,0:0:0:0:
117,103,44364,1,4,0:0:0:0:
81,138,44618,2,0,P|92:219|52:287,1,150,4|8,0:0|0:0,0:0:0:0:
180,372,46143,6,0,B|212:312|212:312|196:224,1,150,4|8,0:0|0:0,0:0:0:0:
288,188,47414,1,4,0:0:0:0:
314,231,47669,2,0,B|300:312|300:312|332:372,1,150,4|8,0:0|0:0,0:0:0:0:
438,265,49194,6,0,L|484:120,2,150,4|8|4,0:0|0:0|0:0,0:0:0:0:
324,168,51482,1,8,0:0:0:0:
192,100,52245,6,0,P|164:168|192:236,1,150,4|8,0:0|0:0,0:0:0:0:
284,268,53516,1,4,0:0:0:0:
320,235,53770,2,0,P|347:167|320:100,1,150,4|8,0:0|0:0,0:0:0:0:
256,192,55296,12,4,58347,0:0:0:0:
208,244,59109,5,8,0:0:0:0:
296,120,59872,2,0,P|364:92|432:120,1,150,4|8,0:0|0:0,0:0:0:0:
412,256,61397,6,0,L|328:336,1,100,4|0,0:0|0:0,0:0:0:0:
304,360,62160,1,8,0:0:0:0:
188,264,62923,2,0,B|200:214|200:214|200:162,1,100,4|0,0:0|0:0,0:0:0:0:
184,120,63686,2,0,L|89:49,1,100,8|0,0:0|0:0,0:0:0:0:
68,95,64448,6,0,P|43:164|74:231,1,150,4|8,0:0|0:0,0:0:0:0:
152,292,65719,1,0,0:0:0:0:
188,324,65974,2,0,P|255:351|323:323,1,150,4|8,0:0|0:0,0:0:0:0:
472,308,67499,6,0,P|400:262|368:206,1,150,4|8,0:0|0:0,0:0:0:0:
292,144,68770,1,0,0:0:0:0:
291,93,69025,2,0,P|253:60|206:44,1,100,4|0,0:0|0:0,0:0:0:0:
171,79,69787,2,0,B|111:63|67:95|15:79,1,150,8|4,0:0|0:0,0:0:0:0:
128,187,71313,6,0,P|136:255|188:327,1,150,8|4,0:0|0:0,0:0:0:0:
331,321,72838,2,0,P|373:260|383:186,1,150,8|4,0:0|0:0,0:0:0:0:
352,40,74363,5,8,0:0:0:0:
256,156,75126,1,4,0:0:0:0:
160,40,75889,1,8,0:0:0:0:
32,120,76652,6,0,P|80:184|92:264,1,150,4|8,0:0|0:0,0:0:0:0:
234,209,78177,2,0,P|249:136|294:77,1,150,4|8,0:0|0:0,0:0:0:0:
421,157,79703,2,0,P|405:229|360:288,1,150,4|8,0:0|0:0,0:0:0:0:
216,332,81228,6,0,L|164:368,2,50,4|4|0,0:0|0:0|0:0,0:0:0:0:
251,296,81991,2,0,P|258:232|246:188,1,100,8|0,0:0|0:0,0:0:0:0:
214,162,82753,2,0,P|182:116|184:24,2,150,4|8|4,0:0|0:0|0:0,0:0:0:0:
332,68,85041,5,8,0:0:0:0:
256,192,85804,12,4,87330,0:0:0:0:
