osu file format v5

[General]
AudioFilename: 01. Spiral.mp3
AudioLeadIn: 0
PreviewTime: 100839
Countdown: 0
SampleSet: Normal
StackLeniency: 0.7
Mode: 0
LetterboxInBreaks: 1
EditorDistanceSpacing: 0.899999976158142

[Metadata]
Title:Spiral
Artist:angela
Creator:kioukiou
Version:Normal
Source:
Tags:

[Difficulty]
HPDrainRate:2
CircleSize:4
OverallDifficulty:5
SliderMultiplier:1.4
SliderTickRate:2

[Events]
//Background and Video events
0,0,"Asura_Cryin.JPG"
//Break Periods
2,88705,100021
//Storyboard Layer 0 (Background)
//Storyboard Layer 1 (Fail)
//Storyboard Layer 2 (Pass)
//Storyboard Layer 3 (Foreground)
//Storyboard Sound Samples
//Background Colour Transformations
3,100,163,162,255

[TimingPoints]
18572,397.350993377483,4,1,1,85,1,0
32876,-100,4,1,1,70,0,0
45393,-100,4,1,1,85,0,0
58307,-100,4,1,1,0,0,0
59499,-100,4,1,1,90,0,0
100028,-100,4,1,1,70,0,0
113737,-100,4,1,1,85,0,0
126651,-100,4,1,1,0,0,0
129432,-100,4,1,1,90,0,0

[Colours]
Combo1 : 223,223,223
Combo2 : 243,57,24
Combo3 : 32,48,238

[HitObjects]
256,192,18572,12,4,20161
96,80,20558,5,8
96,208,20956,1,0
224,208,21353,2,0,B|224:288,2,70,8|0|0
224,80,22148,2,0,B|168:24,2,70,8|0|0
288,80,22744,6,0,B|344:24,2,70,0|8|0
256,136,23340,2,0,B|256:312,2,140,0|8|0
384,136,24532,1,8
384,264,24929,1,0
384,264,25128,1,0
384,264,25326,1,8
256,264,25724,6,0,B|208:312|176:240|112:288,1,140,0|8
40,184,26519,1,4
104,72,26916,2,0,B|152:24|184:96|248:48,1,140,8|0
360,64,27711,1,8
360,128,27909,1,0
360,192,28108,1,0
232,192,28505,5,8
120,128,28903,2,0,B|56:192|128:256,2,140,0|8|0
232,192,30095,1,8
336,256,30492,2,0,B|400:192|328:128,2,140,0|8|0
256,192,31485,12,4,32876
392,88,33273,5,0
392,216,33671,2,0,B|392:320,2,70
328,216,34267,1,0
328,216,34466,2,0,B|256:192|176:216,2,140
328,88,35658,6,0,B|328:16,2,70
216,152,36452,2,0,B|216:256,2,70
104,88,37247,1,0
104,88,37446,1,0
104,88,37644,2,0,B|40:152|112:224,1,140
224,208,38439,2,0,B|312:208,2,70,0|8|8
304,104,39234,6,0,B|344:48|384:128|448:80,2,140
304,168,40227,1,0
304,232,40426,2,0,B|272:280|224:192|176:256,2,140
368,232,41419,1,0
368,232,41618,1,0
304,120,42015,6,0,B|240:64|176:120,1,140
248,224,42810,2,0,B|192:288|112:216,1,140
136,96,43605,1,0
136,96,43803,1,0
136,96,44002,2,0,B|184:80|160:32|264:24,2,140
136,160,44995,1,8
136,224,45194,1,8
248,272,45591,6,0,B|400:272,1,140,4|0
432,224,46187,1,0
384,184,46386,2,0,B|240:184,2,140
384,56,47578,1,0
256,56,47975,1,0
384,56,48373,1,0
256,120,48770,6,0,B|96:120,1,140
80,176,49366,1,4
120,224,49565,2,0,B|272:224,2,140
120,352,50757,1,0
248,352,51154,1,0
120,352,51552,1,0
184,240,51949,6,0,B|128:176|192:104,2,140,4|0|0
296,184,53141,1,0
400,112,53538,2,0,B|456:176|392:248,2,140,4|0|0
296,184,54730,5,0
192,112,55128,2,0,B|24:112,1,140,0|0
112,224,55922,2,0,B|264:224,1,140
256,192,56519,12,0,58307
256,56,59499,5,0
256,56,59896,1,4
152,128,60293,2,0,B|80:192|208:200,1,140,8|0
264,200,60889,1,0
327,200,61088,2,0,B|453:208|381:272,2,140,8|0|8
328,136,62081,1,0
328,72,62280,1,0
200,72,62677,6,0,B|104:72|104:168,2,140,8|0|8
200,200,63870,1,0
200,328,64267,2,0,B|104:328,2,70,8|0|0
304,264,65062,2,0,B|392:264,2,70,8|0|0
200,200,65856,5,8
200,200,66055,1,0
200,200,66254,2,0,B|136:136|208:72,2,140,0|8|0
328,200,67446,1,8
328,200,67644,1,0
328,200,67843,2,0,B|472:200,2,140,0|8|0
200,264,69035,5,8
72,264,69432,1,0
72,136,69830,1,8
120,96,70028,1,0
168,136,70227,1,0
296,136,70624,1,0
296,136,70823,2,0,B|368:96|440:144,1,140,4|0
352,240,71618,2,0,B|280:280|208:232,1,140
152,240,72214,6,0,B|152:312,2,70,0|0|4
152,112,73009,1,8
280,112,73406,2,0,B|280:24,2,70,0|0|8
280,240,74201,6,0,B|280:320|384:320,2,140,0|8|0
224,200,75194,1,0
168,160,75393,2,0,B|168:80|64:80,2,140,8|0|8
168,288,76585,5,0
168,288,76982,2,0,B|336:288,1,140,8|0
312,160,77777,1,8
312,160,78174,2,0,B|312:80,2,70,0|0|8
208,88,78969,6,0,B|56:88,2,140,0|8|0
288,184,80161,2,0,B|440:184,2,140,8|0|8
160,184,81353,1,0
224,288,81750,2,0,B|224:360,2,70,8|0|0
256,192,82346,12,0,84929
256,136,85326,6,0,B|256:24,2,105,4|0|0
256,200,86121,1,0
256,200,86519,2,0,B|256:296,2,70
256,192,87512,12,4,88505
192,64,101221,6,0,B|224:32|288:32|344:80,2,140
192,192,102413,2,0,B|88:192,2,70
256,192,103009,1,0
320,192,103207,2,0,B|400:192,2,70
256,304,104002,5,0
192,304,104201,1,0
128,304,104399,1,0
256,240,104797,1,0
320,240,104995,1,0
384,240,105194,1,0
256,176,105591,5,0
192,176,105790,1,0
128,176,105989,2,0,B|40:176|40:56,2,140
128,112,106982,1,8
128,112,107181,1,8
232,40,107578,6,0,B|320:40|320:152,1,140
320,192,108174,1,0
320,256,108373,2,0,B|320:344|208:344,2,140
208,192,109565,2,0,B|120:192,2,70
304,112,110360,5,0
360,80,110558,1,0
416,112,110757,1,0
416,240,111154,1,0
360,272,111353,1,0
304,240,111552,1,0
192,184,111949,5,0
192,184,112148,1,0
192,184,112346,2,0,B|40:184,2,140
256,184,113340,1,8
256,184,113538,1,8
368,128,113936,6,0,B|432:192|360:256,1,140,0|0
304,248,114532,1,4
240,247,114730,2,0,B|175:305|239:369,2,140
240,120,115922,1,0
136,48,116320,1,0
32,120,116717,1,0
128,200,117115,6,0,B|128:304|232:304,1,140,4|0
264,304,117711,1,0
328,304,117909,2,0,B|392:304|392:192,2,140
328,176,119101,1,0
200,176,119499,1,0
264,64,119896,1,0
136,64,120293,6,0,B|176:120|88:144|144:200,1,140,4|0
136,256,120889,1,0
136,256,121088,2,0,B|136:344,2,70,0|8|8
240,320,121883,6,0,B|200:264|288:240|232:184,1,140,4|0
240,128,122479,1,0
240,128,122677,2,0,B|240:40,2,70,0|8|8
344,192,123472,5,0
472,192,123870,1,0
408,296,124267,2,0,B|408:368,2,70
256,192,124863,12,0,126651
128,120,129432,5,0
128,248,129830,1,0
128,248,130227,2,0,B|128:344,2,70,8|0|0
256,248,131022,1,8
256,120,131419,1,0
256,120,131817,2,0,B|256:24,2,70,8|0|0
384,120,132611,6,0,B|424:152|424:216|376:248,2,140,8|0|8
320,120,133605,1,0
255,120,133803,2,0,B|214:147|214:211|255:243,2,140,0|8|0
136,72,134995,1,8
24,120,135393,2,0,B|24:200,2,70,0|0|8
136,176,136187,6,0,B|80:256|160:328,2,140,0|8|0
240,240,137379,1,8
240,240,137578,1,0
240,240,137777,1,0
240,112,138174,1,8
240,112,138572,2,0,B|240:24,2,70,0|0|8
344,176,139366,5,0
344,304,139764,1,8
240,240,140161,2,0,B|144:240,2,70,0|0|8
304,240,140757,6,0,B|464:240,1,140
368,136,141552,2,0,B|200:136,1,140
160,136,142148,5,0
160,136,142346,1,0
160,136,142545,2,0,B|72:136|72:256,2,140,0|8|0
160,264,143737,1,8
280,264,144134,1,0
280,264,144333,1,0
408,264,144730,1,0
408,264,144929,1,0
408,136,145326,6,0,C|472:72|432:40,2,140,8|0|8
344,136,146320,1,0
280,136,146519,2,0,C|216:200|256:232,2,140,0|8|0
344,248,147711,1,8
216,248,148108,1,0
168,288,148307,1,0
120,248,148505,1,8
64,136,148903,6,0,B|96:64|192:72,2,140,0|8|0
64,200,149896,1,0
64,264,150095,1,8
192,264,150492,1,0
320,264,150889,1,8
256,152,151287,2,0,B|256:80,2,70,0|0|8
256,192,151883,12,0,154863
248,112,155260,6,0,B|136:112,2,105,4|0|0
280,168,156055,2,0,B|416:168,2,105
248,224,156850,1,0
256,192,157446,12,4,158439
