osu file format v7

[General]
AudioFilename: Angela - Spiral.mp3
AudioLeadIn: 0
PreviewTime: 57796
Countdown: 1
SampleSet: Normal
StackLeniency: 0.7
Mode: 0
LetterboxInBreaks: 1

[Editor]
DistanceSpacing: 0.800000011920929
BeatDivisor: 4
GridSize: 8

[Metadata]
Title:Spiral (TV Size)
Artist:angela
Creator:Polaris03
Version:Normal
Source:Asura Cryin'
Tags:opening

[Difficulty]
HPDrainRate:4
CircleSize:4
OverallDifficulty:4
SliderMultiplier:1.2
SliderTickRate:1

[Events]
//Background and Video events
Video,-192,"spiral.avi"
0,0,"asura cryin'jpg.jpg"
//Break Periods
2,19851,27072
//Storyboard Layer 0 (Background)
//Storyboard Layer 1 (Fail)
//Storyboard Layer 2 (Pass)
//Storyboard Layer 3 (Foreground)
//Storyboard Sound Samples
//Background Colour Transformations
3,100,0,0,0

[TimingPoints]
6936,397.350993377483,4,1,0,70,1,0
32303,-100,4,1,0,70,0,0
45015,-100,4,1,0,70,0,0
57727,-100,4,1,0,70,0,0
59386,-100,4,1,0,70,0,1
71306,-100,4,1,0,70,0,0
84739,-100,4,1,0,70,0,0
87796,-100,4,1,0,70,0,1

[Colours]
Combo1 : 196,0,166
Combo2 : 40,164,255
Combo3 : 35,209,66
Combo4 : 255,0,0

[HitObjects]
144,48,6538,1,0
144,144,6936,2,0,B|144:272|144:272|192:304,1,180,4|0
320,304,8128,1,0
320,208,8525,2,0,B|320:80|320:80|272:48,1,180,4|0
208,160,9717,6,0,B|208:240,2,60
208,64,10512,1,4
208,64,10710,1,0
336,64,11306,2,0,B|400:64,2,60
336,160,12101,1,4
336,160,12300,1,0
232,64,12896,5,0
232,128,13094,2,0,B|232:208,1,60,0|0
232,288,13690,1,0
296,288,13889,1,8
424,288,14485,5,0
424,224,14684,2,0,B|424:144,1,60,0|0
424,64,15280,1,0
360,64,15479,1,8
264,64,15876,6,0,B|200:64,1,60
200,128,16273,2,8,B|264:128,1,60
264,192,16671,2,0,B|200:192,1,60
200,256,17068,2,8,B|264:256,1,60,8|4
256,192,17465,12,0,19651
256,192,28392,12,4,30777
64,48,32366,6,0,B|160:128,1,120,0|8
144,192,32962,1,0
192,240,33161,1,4
296,248,33558,5,0
336,192,33757,1,8
320,128,33955,1,0
248,136,34154,1,0
232,64,34353,2,0,B|264:16|392:32,1,120,8|4
416,104,35147,6,0,B|480:104,2,60,8|0|8
416,168,35743,1,0
416,232,35942,2,0,B|336:232,2,60,8|0|8
408,344,36737,5,0
344,296,36935,1,8
288,256,37134,2,0,B|224:224|192:176,2,120,8|0|8
400,112,38724,6,0,B|352:80|304:80|256:144,1,120,0|8
224,112,39320,1,0
160,112,39518,2,0,B|112:80|64:80|16:144,1,120,8|0
48,176,40114,5,0
64,240,40313,2,0,B|80:320|80:320|144:336,1,120,8|0
117,329,40909,1,8
117,329,41108,1,0
224,296,41505,6,8,B|256:296|272:264,2,60,8|0|8
176,200,42300,1,8
176,136,42498,1,0
176,72,42697,1,8
288,48,43094,6,4,B|336:48|448:80|352:240|224:160|272:96|352:96,1,240
301,110,44286,1,0
128,112,45081,5,2
160,176,45280,2,2,B|208:240,2,60
224,112,46075,1,2
288,112,46273,1,2
352,112,46472,1,2
256,192,46671,12,0,47863
384,112,48260,5,2
352,176,48459,2,2,B|304:240,2,60
288,112,49253,1,2
224,112,49452,1,2
160,112,49651,1,2
104,32,50247,6,0,B|64:16|16:48|32:192|136:192,1,240
224,192,51439,6,8,B|224:296,2,90,8|0|8
224,192,52234,1,4
336,192,52830,1,0
336,192,53028,2,8,B|336:88,2,90,8|0|8
336,192,53823,1,0
336,304,54419,5,8
272,304,54618,1,0
208,224,55015,1,8
144,224,55214,2,0,B|16:224,1,120
32,128,56008,2,8,B|96:128,5,60
256,192,57598,12,0,58591
368,176,59386,6,0,B|304:64,1,120,4|4
308,71,59982,1,0
208,64,60379,1,0
208,64,60578,2,0,B|144:192,1,120,0|0
144,272,61373,1,4
144,272,61571,1,4
288,272,62167,6,0,B|368:272|368:272|384:192,1,120,0|0
400,176,62763,1,0
416,112,62962,1,8
432,48,63161,2,0,B|352:48|352:48|336:128,1,120,4|0
320,144,63757,1,8
304,208,63955,1,4
288,272,64154,2,8,B|160:272,1,120
168,272,64750,1,0
192,128,65346,5,8
256,144,65545,1,0
320,112,65743,2,0,B|448:112|416:-16|256:16|368:96|400:80,1,180,8|4
224,64,66936,5,8
160,48,67134,1,0
96,80,67333,2,0,B|-32:80|0:208|160:176|48:96|16:112,1,180,4|4
160,144,68326,6,4,B|224:144,3,60
288,136,69121,1,8
344,184,69320,1,0
392,232,69518,2,0,B|384:296|384:296|328:304,1,120,4|8
264,304,70114,1,4
200,304,70313,1,0
256,192,70512,12,4,71306
256,256,71704,6,0,B|256:128,2,120,8|0|8
256,320,72697,2,0,B|384:320,1,120,0|4
448,320,73293,1,8
448,256,73492,2,0,B|448:128,2,120,0|0|8
448,256,74485,1,4
368,208,74883,5,0
320,160,75081,1,0
256,144,75280,1,0
152,144,75677,2,8,B|88:144,1,60
96,240,76273,5,0
144,288,76472,1,8
208,304,76671,1,0
272,304,76869,2,0,B|400:304,1,120,4|8
392,304,77465,1,0
464,192,78061,5,8
464,128,78260,1,0
400,112,78459,1,0
320,176,78856,5,8
320,240,79055,1,0
384,256,79253,1,0
464,192,79651,6,0,B|464:128,2,60,8|0|0
400,192,80247,1,0
400,128,80445,2,0,B|400:64,2,60,8|0|0
256,192,81240,12,4,84022
144,48,84816,5,0
256,48,85214,1,0
368,48,85611,1,0
256,112,86008,2,0,B|256:192,2,60,8|0|8
256,336,87002,6,8,B|256:224,1,60
224,208,87399,1,4
288,208,87598,1,12
256,144,87796,1,4
