osu file format v6

[General]
AudioFilename: Angela - Spiral.mp3
AudioLeadIn: 0
PreviewTime: 57796
Countdown: 1
SampleSet: Normal
StackLeniency: 0.7
Mode: 0
LetterboxInBreaks: 1

[Editor]
DistanceSpacing: 0.800000011920929
BeatDivisor: 2
GridSize: 8

[Metadata]
Title:Spiral (TV Size)
Artist:angela
Creator:Polaris03
Version:Hard
Source:Asura Cryin'
Tags:opening

[Difficulty]
HPDrainRate:6
CircleSize:5
OverallDifficulty:7
SliderMultiplier:1.4
SliderTickRate:1

[Events]
//Background and Video events
0,0,"asura cryin'jpg.jpg"
Video,-192,"spiral.avi"
//Break Periods
2,19851,27492
//Storyboard Layer 0 (Background)
//Storyboard Layer 1 (Fail)
//Storyboard Layer 2 (Pass)
//Storyboard Layer 3 (Foreground)
//Storyboard Sound Samples
//Background Colour Transformations
3,100,0,0,0

[TimingPoints]
6936,397.350993377483,4,1,0,70,1,0
32303,-100,4,1,0,70,0,0
45015,-100,4,1,0,70,0,0
57598,-100,4,1,0,70,0,0
58988,-100,4,1,0,70,0,1
71306,-100,4,1,0,70,0,0
84739,-100,4,1,0,70,0,0
87796,-100,4,1,0,70,0,1

[Colours]
Combo1 : 196,0,166
Combo2 : 40,164,255
Combo3 : 35,209,66
Combo4 : 255,0,0

[HitObjects]
256,48,6538,2,0,B|256:192,1,140,0|4
256,256,7134,1,0
256,320,7333,1,0
256,256,7532,1,0
256,96,8128,6,0,B|96:96,1,140,0|4
48,96,8724,1,0
48,32,8922,1,0
48,96,9121,1,0
112,224,9717,5,8
112,224,9916,2,0,B|192:128,1,70,8|0
192,128,10313,2,0,B|256:48,1,70
235,73,10710,1,0
272,224,11306,5,8
272,224,11505,2,0,B|192:128,1,70,8|0
192,128,11902,2,0,B|128:48,1,70
149,73,12300,1,0
304,48,12896,5,8
368,48,13094,1,8
432,48,13293,1,0
368,48,13492,1,0
368,112,13690,2,0,B|368:192,1,70
208,192,14485,5,8
144,192,14684,1,8
80,192,14883,1,0
144,192,15081,1,8
144,128,15280,2,0,B|144:48,1,70,0|0
208,48,15677,2,0,B|208:128,1,70,0|8
272,128,16075,2,0,B|272:48,1,70,0|0
336,48,16472,1,4
256,208,16671,12,0,19651
256,208,28392,12,4,30777
224,304,32366,6,0,B|288:240|224:176,1,140
184,136,32962,1,8
228,180,33161,2,0,B|288:240|352:176,1,140,8|8
352,112,33757,2,0,B|352:32,1,70
416,32,34154,2,0,B|496:32,3,70,8|0|8|0
480,160,35147,5,0
480,224,35346,1,8
480,288,35545,1,4
416,288,35743,2,0,B|416:208,3,70,0|8|0|8
416,160,36538,6,0,B|352:128,1,70
288,128,36935,1,8
224,128,37134,1,0
96,128,37532,1,8
224,128,37929,1,4
64,304,38724,6,0,B|96:304|96:272|128:272,1,70,0|0
176,240,39121,1,0
227,272,39320,2,0,B|256:272|256:304|288:304,1,70,0|0
227,272,39717,1,0
176,240,39916,2,8,B|176:160,1,70
176,112,40313,2,4,B|248:80|336:120,1,140,0|4
312,168,40909,1,0
312,232,41108,1,0
400,304,41505,6,0,B|304:304,2,70,8|0|0
400,240,42101,1,0
400,176,42300,2,0,B|400:96,2,70,8|0|0
320,96,43094,5,0
256,96,43293,1,0
192,96,43492,2,0,B|120:48|32:112,2,140,0|8|4
256,272,45081,5,0
288,208,45280,1,0
224,208,45479,1,0
248,152,45677,2,0,B|194:72|238:23|309:71|240:128|223:101,1,140,0|8
320,104,46273,1,0
352,48,46472,1,4
256,208,46671,12,0,47863
256,112,48260,5,0
224,176,48459,1,0
288,176,48658,1,0
264,232,48856,2,0,B|317:311|273:360|202:312|272:256|288:282,1,140,0|8
192,280,49452,1,0
160,336,49651,1,4
192,192,50247,6,0,B|208:192|368:96|240:16|112:96|272:192|288:192,1,280
240,304,51439,5,4
240,304,51637,1,8
240,304,51836,1,0
240,304,52035,2,0,B|240:224,1,70
240,112,52631,5,0
240,112,52830,1,0
240,112,53028,2,0,B|240:208,1,70,8|0
240,182,53426,2,8,B|304:224,1,70,8|0
298,220,53823,1,4
368,96,54419,5,0
304,96,54618,2,0,B|304:32|304:32|416:32,1,140,8|0
440,32,55214,1,0
472,136,55611,1,0
448,240,56008,6,8,B|368:240,1,70,8|0
320,240,56406,2,0,B|240:240,1,70,0|8
192,240,56803,2,8,B|112:240,1,70,8|8
256,208,57399,12,0,58591
80,80,58988,5,8
144,80,59187,2,0,B|224:80,1,70
272,80,59585,1,8
336,80,59783,1,8
400,80,59982,2,0,B|400:224,1,140,0|0
336,224,60578,5,0
272,224,60777,1,0
208,224,60975,2,8,B|208:144|112:144,1,140
48,144,61571,2,4,B|48:304,1,140,4|0
112,288,62167,5,8
176,288,62366,1,0
240,288,62565,2,4,B|320:336|400:272,1,140,4|0
368,224,63161,2,0,B|316:179|236:227,1,140,8|4
176,224,63757,5,8
176,160,63955,1,0
176,96,64154,2,0,B|256:64|352:112,1,140,0|4
368,96,64750,1,4
368,160,64949,1,0
432,160,65147,1,0
432,224,65346,6,8,B|432:304,2,70,8|0|0
432,160,65942,1,0
432,96,66141,2,8,B|432:16,2,70,8|0|0
368,96,66737,5,0
304,96,66936,2,4,B|224:48|160:112,1,140
176,160,67532,1,8
176,224,67730,1,0
176,288,67929,1,8
176,352,68128,1,4
48,352,68525,5,0
48,288,68724,2,8,B|48:208,1,70,8|0
48,160,69121,1,0
48,96,69320,1,8
112,96,69518,2,8,B|192:96,1,70,0|0
304,96,70114,5,0
304,160,70313,2,0,B|304:240,1,70,8|0
304,288,70710,1,4
304,352,70909,1,8
368,352,71108,2,8,B|448:352,1,70,0|4
256,208,71704,12,4,72697
320,160,73293,6,0,B|240:112|176:176,2,140,0|4|0
320,224,74286,2,0,B|304:288|288:224|272:288|256:224|240:288|224:224|208:288|192:224|176:288|160:224|144:288,1,210,4|0
144,352,75081,1,8
208,352,75280,2,0,B|368:352,1,140,4|0
416,352,75876,5,0
416,288,76075,1,4
416,224,76273,2,8,B|416:176|336:128,1,70,0|8
336,128,76671,1,8
288,80,76869,2,0,B|208:80,1,70,0|0
224,144,77267,2,0,B|144:144,1,70
96,144,77664,6,0,B|96:240|96:240|160:304,1,140,0|0
192,272,78260,1,0
192,208,78459,2,0,B|192:112|192:112|128:48,1,140,4|0
96,80,79055,1,0
32,80,79253,2,0,B|32:240,1,140,4|0
32,288,79849,5,0
96,288,80048,2,0,B|208:192,1,140,4|0
232,144,80644,1,0
261,196,80843,2,0,B|368:288,1,140,0|0
432,288,81439,1,0
432,224,81637,6,0,B|432:144,1,70
368,160,82035,2,0,B|368:80,1,70
304,96,82432,2,0,B|304:16,1,70
240,32,82830,6,0,B|240:112,1,70
176,96,83227,2,0,B|176:176,1,70
112,160,83624,2,0,B|112:240,1,70
256,208,84022,12,4,84816
256,192,85412,5,0
256,192,85611,1,4
256,320,86008,5,0
256,320,86207,1,8
256,320,86406,1,4
336,192,87002,6,8,B|336:112,1,70
288,80,87399,1,0
336,32,87598,1,0
384,80,87796,1,4
