osu file format v7

[General]
AudioFilename: Angela - Spiral.mp3
AudioLeadIn: 0
PreviewTime: 57796
Countdown: 1
SampleSet: Normal
StackLeniency: 0.7
Mode: 0
LetterboxInBreaks: 1

[Editor]
DistanceSpacing: 0.800000011920929
BeatDivisor: 4
GridSize: 8

[Metadata]
Title:Spiral (TV Size)
Artist:angela
Creator:Polaris03
Version:Easy
Source:Asura Cryin'
Tags:asura cryin' opening anime

[Difficulty]
HPDrainRate:2
CircleSize:3
OverallDifficulty:2
SliderMultiplier:1.2
SliderTickRate:1

[Events]
//Background and Video events
Video,-192,"spiral.avi"
0,0,"asura cryin'jpg.jpg"
//Break Periods
2,19851,26832
//Storyboard Layer 0 (Background)
//Storyboard Layer 1 (Fail)
//Storyboard Layer 2 (Pass)
//Storyboard Layer 3 (Foreground)
//Storyboard Sound Samples
//Background Colour Transformations
3,100,0,0,0

[TimingPoints]
6936,397.350993377483,4,1,0,70,1,0
32303,-100,4,1,0,70,0,0
45015,-100,4,1,0,70,0,0
57796,-100,4,1,0,70,0,0
59386,-100,4,1,0,70,0,1
71306,-100,4,1,0,70,0,0
84739,-100,4,1,0,70,0,0
87796,-100,4,1,0,70,0,1

[Colours]
Combo1 : 40,164,255
Combo2 : 35,209,66
Combo3 : 255,0,0
Combo4 : 196,0,166

[HitObjects]
200,208,6538,1,8
200,288,6936,2,4,B|280:344|280:344|344:288,1,180
344,160,8128,1,8
344,80,8526,2,4,B|264:24|264:24|200:80,1,180
80,64,9717,5,8
80,144,10114,2,0,B|80:240|80:240|144:304,1,180,4|0
256,304,11306,1,8
256,224,11704,2,0,B|256:128|256:128|192:64,1,180,4|0
304,32,12896,6,0,B|384:32,2,60,8|0|8
304,112,13690,2,0,B|240:112,1,60,8|0
304,224,14485,2,0,B|384:224,2,60,8|0|8
304,304,15280,2,0,B|240:304,1,60,0|8
168,304,15876,2,0,B|88:304,1,60,0|0
256,192,16273,12,4,19651
256,192,28392,12,4,30777
256,64,32366,5,6
256,144,32763,1,0
256,224,33161,1,2
256,304,33558,2,0,B|192:304,2,60,0|0|2
256,224,34353,2,0,B|320:224,2,60,0|0|2
256,144,35147,5,0
208,80,35545,1,2
272,32,35942,1,0
320,96,36339,1,2
336,176,36737,2,0,B|416:272|416:288,1,120,0|6
352,320,37532,2,0,B|256:192,1,120,4|2
208,96,38724,5,2
152,152,39121,1,0
96,208,39518,1,2
160,256,39916,2,0,B|272:144,1,120,0|2
288,112,40710,1,0
368,112,41108,1,2
368,184,41505,6,0,B|368:248,2,60,8|0|10
288,192,42300,2,8,B|288:128,2,60,8|8|10
208,192,43094,2,0,B|208:256,2,60,8|0|10
208,112,43889,1,2
128,96,44286,1,6
96,224,45081,6,8,B|64:192|96:144|176:144|224:176|256:240|256:336|48:336,1,420,4|4
416,224,48260,6,0,B|448:192|416:144|336:144|288:176|256:240|256:336|464:336,1,420,4|4
184,128,51389,6,0,B|88:64,2,100,2|0|0
184,128,52234,1,2
320,128,53028,2,0,B|408:72,2,90,2|0|0
320,128,53823,2,0,B|320:320,1,180,2|0
320,308,54618,5,2
240,304,55015,1,0
240,304,55214,2,0,B|240:160,1,120,2|0
240,112,56008,2,0,B|160:112,5,60,8|2|0|0|8|10
64,64,57796,6,0,B|112:32|112:32|192:32|192:32|296:48,1,240,6|0
368,48,58988,5,4
368,128,59386,2,8,B|304:304,1,180,8|4
192,304,60578,1,4
191,224,60975,2,0,B|130:55,1,180,8|4
272,96,62167,6,4,B|272:192|144:80|208:32|240:0|320:0|368:48|368:128|304:144|304:144|304:144,1,300,4|12
336,224,63757,2,4,B|336:128|208:240|272:288|304:320|384:320|432:272|432:192|368:176|368:176|368:176,1,300,12|4
400,88,65346,6,0,B|336:40,2,60,8|0|4
400,168,66141,2,0,B|400:232,1,60,8|4
288,256,66936,2,8,B|224:304,2,60,8|0|0
288,176,67730,2,0,B|288:112,1,60,8|4
208,112,68326,2,0,B|144:112,1,60,0|8
72,104,68922,5,4
112,176,69320,1,8
64,240,69717,1,4
128,288,70114,2,0,B|192:288,1,60,8|0
256,240,70710,2,0,B|320:240,1,60,0|8
320,160,71306,1,4
320,80,71704,6,4,B|192:80,1,120,12|4
128,80,72498,2,4,B|64:80,1,60,8|4
64,192,73293,2,0,B|192:192,1,120,8|4
304,192,74286,1,6
304,304,74883,6,0,B|176:304,1,120,8|4
112,304,75677,2,0,B|48:304,1,60,8|0
48,192,76472,2,0,B|176:192,1,120,8|0
288,192,77465,1,6
192,128,78061,6,8,B|208:-32|16:-16|-16:176|176:192|128:64|128:64,1,300
128,208,79651,2,4,B|128:336,1,120
208,336,80445,1,8
272,288,80843,1,0
320,224,81240,1,4
256,192,81637,12,4,83227
256,64,84816,6,0,B|160:64|160:64|160:176|160:176|160:200|160:200|160:208,1,225
160,192,85959,1,0
160,192,86357,1,0
304,192,86952,6,0,B|368:192,4,60,8|0|8|0|4
