osu file format v14

[General]
AudioFilename: Sidonia.mp3
AudioLeadIn: 0
PreviewTime: 48580
Countdown: 0
SampleSet: Soft
StackLeniency: 0.7
Mode: 0
LetterboxInBreaks: 0
WidescreenStoryboard: 1

[Editor]
DistanceSpacing: 1
BeatDivisor: 4
GridSize: 8
TimelineZoom: 1

[Metadata]
Title:Sidonia
TitleUnicode:シドニア
Artist:angela
ArtistUnicode:angela
Creator:mion_6GKM
Version:Normal
Source:シドニアの騎士
Tags:knights of sidonia opening tv size -Famous- TT Mouse
BeatmapID:668913
BeatmapSetID:293486

[Difficulty]
HPDrainRate:3.5
CircleSize:3
OverallDifficulty:3
ApproachRate:5
SliderMultiplier:1.2
SliderTickRate:2

[Events]
//Background and Video events
0,0,"knights-of-sidonia-storyart.jpg",0,0
Video,0,"SidonianoKishi op miooooooooooooooooooon.avi"
//Break Periods
//Storyboard Layer 0 (Background)
//Storyboard Layer 1 (Fail)
//Storyboard Layer 2 (Pass)
//Storyboard Layer 3 (Foreground)
//Storyboard Sound Samples

[TimingPoints]
1100,1016.94915254237,4,2,2,60,1,0
1100,-76.9230769230769,4,2,2,60,0,0
14320,-76.9230769230769,4,2,3,60,0,0
14574,-76.9230769230769,4,2,2,60,0,0
20422,-76.9230769230769,4,2,1,20,0,0
21438,408.163265306122,4,2,1,80,1,1
21438,-100,4,2,1,60,0,1
32866,-100,4,2,1,60,0,0
33070,-100,4,2,2,60,0,0
33172,-100,4,2,1,60,0,0
33478,-100,4,2,2,60,0,0
33580,-100,4,2,1,60,0,0
33886,-100,4,2,2,60,0,0
33989,-100,4,2,1,60,0,0
34295,-100,4,2,2,60,0,0
34397,-100,4,2,5,60,0,0
34601,-100,4,2,5,60,0,0
47152,-100,4,2,5,60,0,0
49193,-100,4,2,1,60,0,1
61029,-100,4,2,4,60,0,1
61233,-100,4,2,1,60,0,1
61437,-100,4,2,3,60,0,1
61540,-100,4,2,1,60,0,1
62254,-100,4,2,1,60,0,0
74703,-100,4,2,2,60,0,0
75315,-100,4,2,1,60,0,1
76540,-100,4,2,4,60,0,1
76642,-100,4,2,1,60,0,1
86744,-100,4,2,2,40,0,0

[Colours]
Combo1 : 255,128,255
Combo2 : 94,255,255
Combo3 : 0,115,255
Combo4 : 0,0,215
Combo5 : 0,0,113
Combo6 : 128,128,192

[HitObjects]
112,56,1100,6,0,P|88:128|96:216,1,155.999992858887,4|4,0:0|0:0,0:0:0:0:
120,280,2625,1,2,0:0:0:0:
192,312,3133,2,0,B|280:312|328:312|328:312|304:264,1,155.999992858887,4|4,0:0|0:0,0:0:0:0:
312,216,4659,1,2,0:0:0:0:
312,136,5167,2,0,B|280:96|256:72|256:72|208:72|168:72,2,155.999992858887,4|4|4,0:0|0:0|0:0,0:0:0:0:
344,208,7710,1,2,0:0:0:0:
368,280,8218,2,0,L|280:320,1,77.9999964294435,4|2,0:0|0:0,0:0:0:0:
216,312,9235,6,0,P|104:312|72:264,1,155.999992858887,4|4,0:0|0:0,0:0:0:0:
104,208,10761,2,0,L|200:160,1,77.9999964294435,2|4,0:0|0:0,0:0:0:0:
160,96,11777,2,0,L|240:80,1,77.9999964294435,2|4,0:0|0:0,0:0:0:0:
312,56,12794,2,0,L|368:96,1,38.9999982147218,2|0,0:0|0:0,0:0:0:0:
376,96,13303,6,0,B|392:176|448:192|448:192|384:216|368:304,1,233.999989288331,4|2,0:0|0:0,0:0:0:0:
304,288,15337,2,0,L|224:288,1,77.9999964294435,4|2,0:0|0:0,0:0:0:0:
144,288,16354,2,0,L|144:128,2,155.999992858887,4|4|4,0:0|0:0|0:0,0:0:0:0:
224,288,18896,2,0,L|296:288,1,38.9999982147218,2|0,0:0|0:0,0:0:0:0:
288,288,19405,2,0,L|344:288|480:288,1,155.999992858887,4|0,0:0|0:0,0:0:0:0:
168,96,21438,6,0,P|136:144|152:208,1,120,4|8,0:0|0:0,0:0:0:0:
224,296,22254,2,0,P|304:304|360:296,1,120,4|8,0:3|0:0,0:0:0:0:
424,216,23070,2,0,P|424:160|384:88,1,120,4|8,0:3|0:0,0:0:0:0:
336,112,23682,1,0,0:0:0:0:
336,112,23886,2,0,L|208:112,1,120,4|8,0:3|0:0,0:0:0:0:
96,112,24703,6,0,P|56:160|64:232,1,120,4|8,0:0|0:0,0:0:0:0:
168,264,25519,2,0,P|248:256|304:272,1,120,4|8,0:3|0:0,0:0:0:0:
392,200,26335,2,0,P|400:128|376:80,1,120,4|8,0:3|0:0,0:0:0:0:
264,64,27152,2,0,L|176:64,1,60,4|2,0:3|0:0,0:0:0:0:
144,72,27560,2,0,L|96:136,1,60,10|0,0:0|0:0,0:0:0:0:
96,176,27968,2,0,P|96:240|152:288,1,120,6|8,0:0|0:0,0:0:0:0:
248,288,28784,6,0,B|352:288|352:288|344:256,1,120,4|8,0:3|0:0,0:0:0:0:
344,152,29601,2,0,B|448:152|448:152|440:120,1,120,4|8,0:3|0:0,0:0:0:0:
440,80,30213,1,0,0:0:0:0:
384,56,30417,2,0,P|320:48|264:96,2,120,4|10|4,0:3|0:0|0:0,0:0:0:0:
448,160,31642,6,0,P|448:232|432:280,1,120,8|4,0:0|0:0,0:0:0:0:
304,312,32458,2,0,P|240:296|168:328,1,120,8|0,0:0|0:0,0:0:0:0:
136,288,33070,1,8,0:0:0:0:
136,168,33478,1,8,0:0:0:0:
192,64,33886,2,0,L|272:64,2,60,8|0|8,0:0|0:0|0:0,0:0:0:0:
136,72,34499,6,0,P|104:136|168:288,1,240,10|10,0:0|0:0,0:0:0:0:
272,328,35723,1,10,0:0:0:0:
384,288,36131,2,0,P|400:216|384:160,1,120,10|10,0:0|0:0,0:0:0:0:
352,128,36744,2,0,L|280:104,1,60,0|10,0:0|0:0,0:0:0:0:
184,152,37356,1,10,0:0:0:0:
128,256,37764,1,10,0:0:0:0:
128,256,37968,2,0,L|200:304,1,60,0|10,0:0|0:0,0:0:0:0:
296,328,38580,6,0,P|352:320|432:320,1,120,10|10,0:0|0:0,0:0:0:0:
432,200,39397,2,0,B|416:168|368:168|368:168|352:120|352:120,2,120,10|10|10,0:0|0:0|0:0,0:0:0:0:
376,304,40621,1,10,0:0:0:0:
376,304,41029,2,0,P|296:312|240:304,1,120,10|10,0:0|0:0,0:0:0:0:
136,312,41846,2,0,P|104:240|112:192,1,120,10|10,0:0|0:0,0:0:0:0:
136,152,42458,1,0,0:0:0:0:
184,120,42662,2,0,L|328:120,1,120,10|10,0:0|0:0,0:0:0:0:
416,72,43478,6,0,P|448:144|432:256,1,180,10|0,0:0|0:0,0:0:0:0:
392,280,44295,2,0,B|328:280|296:312|216:272,2,180,10|0|10,0:0|0:0|0:0,0:0:0:0:
424,160,45927,2,0,P|384:104|224:160,1,240,10|10,0:0|0:0,0:0:0:0:
168,32,47152,1,10,0:0:0:0:
72,104,47560,6,0,P|72:168|112:224,2,120,10|10|10,0:0|0:0|0:0,0:0:0:0:
184,56,48784,2,0,L|304:56,1,120,10|6,0:0|0:0,0:0:0:0:
424,80,49601,6,0,P|472:144|464:208,1,120,8|4,0:0|0:3,0:0:0:0:
392,272,50417,2,0,P|336:280|264:272,1,120,8|4,0:0|0:3,0:0:0:0:
216,272,51029,2,0,L|160:224,1,60,0|8,0:0|0:0,0:0:0:0:
144,112,51642,1,4,0:3:0:0:
248,56,52050,1,10,0:0:0:0:
248,56,52254,2,0,L|320:72,1,60,2|6,0:0|0:0,0:0:0:0:
416,120,52866,6,0,P|432:168|432:256,1,120,8|4,0:0|0:3,0:0:0:0:
320,280,53682,2,0,B|280:280|280:280|200:248,1,120,8|4,0:0|0:3,0:0:0:0:
144,248,54295,2,0,L|72:248,1,60,0|8,0:0|0:0,0:0:0:0:
112,120,54907,1,4,0:3:0:0:
216,64,55315,1,10,0:0:0:0:
272,64,55519,1,2,0:0:0:0:
328,64,55723,6,0,P|384:88|408:152,1,120,6|8,0:0|0:0,0:0:0:0:
368,256,56540,2,0,L|312:304,1,60,4|0,0:3|0:0,0:0:0:0:
264,304,56948,2,0,L|184:304,1,60,8|0,0:0|0:0,0:0:0:0:
144,304,57356,2,0,B|72:304|72:304|72:240,2,120,4|8|4,0:3|0:0|0:3,0:0:0:0:
264,304,58580,2,0,L|336:304,2,60,10|2|6,0:0|0:0|0:0,0:0:0:0:
144,304,59397,6,0,P|112:288|112:192,1,120,8|4,0:0|0:3,0:0:0:0:
152,104,60213,2,0,L|232:80,1,60,8|0,0:0|0:0,0:0:0:0:
264,112,60621,2,0,P|376:128|448:96,2,180,4|0|8,0:3|0:0|0:0,0:0:0:0:
144,136,62254,6,0,P|96:192|112:256,1,120,4|8,0:0|0:0,0:0:0:0:
192,304,63070,2,0,P|272:320|328:304,1,120,4|8,0:3|0:0,0:0:0:0:
408,240,63886,2,0,L|384:160,1,60,4|0,0:3|0:0,0:0:0:0:
368,128,64295,2,0,L|320:64,1,60,8|0,0:0|0:0,0:0:0:0:
272,64,64703,2,0,B|176:96|176:96|144:128,1,120,4|8,0:3|0:0,0:0:0:0:
96,208,65519,6,0,P|144:256|168:328,1,120,4|8,0:0|0:0,0:0:0:0:
280,320,66335,2,0,P|344:320|384:272,1,120,4|8,0:3|0:0,0:0:0:0:
392,160,67152,2,0,P|352:104|288:112,1,120,4|8,0:3|0:0,0:0:0:0:
248,104,67764,2,0,L|176:104,1,60,0|4,0:0|0:3,0:0:0:0:
88,168,68376,1,8,0:0:0:0:
96,288,68784,6,0,P|168:312|232:304,1,120,4|8,0:0|0:0,0:0:0:0:
280,208,69601,2,0,P|336:224|400:184,1,120,4|8,0:3|0:0,0:0:0:0:
408,80,70417,1,4,0:3:0:0:
296,32,70825,1,8,0:0:0:0:
296,32,71029,2,0,L|208:32,1,60,0|4,0:0|0:3,0:0:0:0:
128,88,71642,1,8,0:0:0:0:
64,192,72050,6,0,P|80:240|120:304,1,120,4|8,0:0|0:0,0:0:0:0:
232,312,72866,2,0,P|272:304|368:336,1,120,4|8,0:3|0:0,0:0:0:0:
328,200,73682,2,0,L|418:200,2,90,2|2|2,0:0|0:0|0:0,0:0:0:0:
112,336,74907,5,2,0:0:0:0:
112,336,75315,6,0,P|192:352|248:328,1,120,4|8,0:0|0:0,0:0:0:0:
344,328,76131,2,0,P|376:248|352:144,1,180,4|0,0:3|0:0,0:0:0:0:
320,112,76948,2,0,L|240:112,1,60,4|0,0:3|0:0,0:0:0:0:
144,104,77560,1,0,0:0:0:0:
144,104,77764,2,0,P|96:176|104:224,1,120,4|8,0:3|0:0,0:0:0:0:
136,320,78580,6,0,L|184:320|280:320,1,120,4|8,0:0|0:0,0:0:0:0:
320,320,79193,2,0,L|400:320,1,60,0|4,0:0|0:3,0:0:0:0:
432,216,79805,2,0,P|432:160|384:112,1,120,8|4,0:0|0:3,0:0:0:0:
280,64,80621,1,10,0:0:0:0:
160,64,81029,1,4,0:3:0:0:
88,160,81437,2,0,P|88:224|128:272,1,120,8|4,0:0|0:0,0:0:0:0:
240,288,82254,6,0,B|312:288|312:288|376:264,1,120,8|4,0:0|0:3,0:0:0:0:
376,152,83070,1,8,0:0:0:0:
376,152,83274,2,0,L|328:96,1,60,0|4,0:0|0:3,0:0:0:0:
216,88,83886,2,0,P|176:104|136:168,1,120,8|4,0:0|0:3,0:0:0:0:
128,224,84499,1,0,0:0:0:0:
136,280,84703,2,0,L|176:344,1,60,8|0,0:0|0:0,0:0:0:0:
288,328,85315,5,0,0:0:0:0:
288,328,85519,2,0,P|282:269|256:208,1,120,8|4,0:0|0:3,0:0:0:0:
224,160,86131,2,0,L|160:136,2,60,0|8|4,0:0|0:0|0:3,0:0:0:0:
256,192,86744,12,0,87968,0:0:0:0:
