osu file format v14

[General]
AudioFilename: Sidonia.mp3
AudioLeadIn: 0
PreviewTime: 48580
Countdown: 0
SampleSet: Soft
StackLeniency: 0.7
Mode: 0
LetterboxInBreaks: 0
WidescreenStoryboard: 0

[Editor]
DistanceSpacing: 1
BeatDivisor: 4
GridSize: 8
TimelineZoom: 1

[Metadata]
Title:Sidonia
TitleUnicode:シドニア
Artist:angela
ArtistUnicode:angela
Creator:mion_6GKM
Version:Hard
Source:シドニアの騎士
Tags:knights of sidonia opening tv size -Famous- TT Mouse
BeatmapID:668912
BeatmapSetID:293486

[Difficulty]
HPDrainRate:5
CircleSize:4
OverallDifficulty:5
ApproachRate:7
SliderMultiplier:1.5
SliderTickRate:2

[Events]
//Background and Video events
0,0,"knights-of-sidonia-storyart.jpg",0,0
Video,0,"SidonianoKishi op miooooooooooooooooooon.avi"
//Break Periods
//Storyboard Layer 0 (Background)
//Storyboard Layer 1 (Fail)
//Storyboard Layer 2 (Pass)
//Storyboard Layer 3 (Foreground)
//Storyboard Sound Samples

[TimingPoints]
1100,1016.94915254237,4,2,2,60,1,0
1100,-76.9230769230769,4,2,2,60,0,0
19405,-76.9230769230769,4,2,2,40,0,0
20422,-76.9230769230769,4,2,1,20,0,0
21438,408.163265306122,4,2,1,80,1,1
21438,-100,4,2,1,60,0,1
32866,-100,4,2,1,60,0,0
33070,-100,4,2,2,60,0,0
33172,-100,4,2,1,60,0,0
33478,-100,4,2,2,60,0,0
33580,-100,4,2,1,60,0,0
33886,-100,4,2,2,60,0,0
33989,-100,4,2,1,60,0,0
34295,-100,4,2,2,60,0,0
34397,-100,4,2,1,60,0,0
34601,-100,4,2,5,60,0,0
49193,-100,4,2,1,60,0,1
58172,-100,4,2,3,60,0,1
58274,-100,4,2,1,60,0,1
62254,-100,4,2,1,60,0,0
74703,-100,4,2,2,60,0,0
75315,-100,4,2,1,60,0,1
77764,-100,4,2,3,60,0,1
77866,-100,4,2,1,60,0,1
84295,-100,4,2,3,60,0,1
84397,-100,4,2,1,60,0,1
85927,-100,4,2,3,60,0,1
86029,-100,4,2,1,60,0,1
86744,-100,4,2,2,40,0,0

[Colours]
Combo1 : 255,128,255
Combo2 : 94,255,255
Combo3 : 0,115,255
Combo4 : 0,0,215
Combo5 : 0,0,113
Combo6 : 128,128,192

[HitObjects]
120,96,1100,6,0,L|200:96|256:96,1,97.4999955368044,4|2,0:0|0:0,0:0:0:0:
400,224,2116,2,0,L|304:224|272:224,1,97.4999955368044,4|2,0:0|0:0,0:0:0:0:
304,128,3133,2,0,P|232:160|216:200,1,97.4999955368044,4|2,0:0|0:0,0:0:0:0:
152,96,3896,2,0,L|120:176,1,48.7499977684022,0|4,0:0|0:0,0:0:0:0:
96,264,4659,2,0,L|168:304,1,48.7499977684022,2|4,0:0|0:0,0:0:0:0:
184,304,5167,2,0,P|248:288|288:160,1,194.999991073609,4|4,0:0|0:0,0:0:0:0:
296,80,6693,6,0,L|280:152,1,48.7499977684022,2|0,0:0|0:0,0:0:0:0:
184,104,7201,1,4,0:0:0:0:
56,216,7710,2,0,P|88:256|176:256,1,97.4999955368044,2|4,0:0|0:0,0:0:0:0:
216,312,8727,2,0,L|288:312,1,48.7499977684022,2|4,0:0|0:0,0:0:0:0:
368,248,9235,2,0,P|368:192|344:128,1,97.4999955368044,4|2,0:0|0:0,0:0:0:0:
264,56,10252,2,0,P|224:104|224:152,1,97.4999955368044,4|2,0:0|0:0,0:0:0:0:
112,128,11015,6,0,L|120:192,1,48.7499977684022,0|4,0:0|0:0,0:0:0:0:
64,264,11523,2,0,L|88:320,1,48.7499977684022,0|2,0:0|0:0,0:0:0:0:
192,328,12032,2,0,L|256:328,1,48.7499977684022,0|4,0:0|0:0,0:0:0:0:
416,328,12794,1,2,0:0:0:0:
416,328,13049,2,0,P|424:272|416:248,1,48.7499977684022,4|4,0:0|0:0,0:0:0:0:
464,152,13811,6,0,L|392:152,1,48.7499977684022,2|0,0:0|0:0,0:0:0:0:
320,152,14320,1,4,0:0:0:0:
168,80,14828,2,0,P|144:144|152:176,1,97.4999955368044,2|4,0:0|0:0,0:0:0:0:
104,304,15845,1,2,0:0:0:0:
152,312,16099,1,0,0:0:0:0:
200,320,16354,2,0,B|264:328|264:328|304:280|280:232|360:224,1,194.999991073609,4|4,0:0|0:0,0:0:0:0:
384,88,17879,1,2,0:0:0:0:
248,48,18388,2,0,L|176:128,1,97.4999955368044,4|2,0:0|0:0,0:0:0:0:
80,152,19150,1,0,0:0:0:0:
256,192,19405,12,0,20422,0:0:0:0:
96,80,21438,6,0,L|104:176,1,75,4|0,0:0|0:0,0:0:0:0:
64,248,21846,2,0,L|152:304,1,75,8|0,0:0|0:0,0:0:0:0:
256,200,22254,2,0,P|280:232|384:208,1,150,4|8,0:3|0:0,0:0:0:0:
368,80,22866,1,0,0:0:0:0:
240,48,23070,2,0,L|152:48,1,75
128,144,23478,2,0,L|224:144,1,75,8|0,0:0|0:0,0:0:0:0:
232,288,23886,5,4,0:3:0:0:
232,288,23989,1,0,0:0:0:0:
232,288,24091,2,0,L|336:288|336:288,1,75,0|10,0:0|0:0,0:0:0:0:
360,168,24499,1,2,0:0:0:0:
312,56,24703,2,0,P|232:64|144:64,1,150,6|8,0:0|0:0,0:0:0:0:
96,152,25315,1,0,0:0:0:0:
88,272,25519,2,0,L|176:328,1,75,4|0,0:3|0:0,0:0:0:0:
288,256,25927,6,0,P|376:272|424:216,1,150,8|0,0:0|0:0,0:0:0:0:
384,104,26540,1,0,0:0:0:0:
384,104,26744,2,0,L|288:104,1,75,8|0,0:0|0:0,0:0:0:0:
168,176,27152,1,4,0:3:0:0:
168,176,27356,2,0,L|256:176,1,75,0|10,0:0|0:0,0:0:0:0:
344,304,27764,1,2,0:0:0:0:
344,304,27866,1,0,0:0:0:0:
344,304,27968,6,0,P|400:216|384:144,1,150,6|8,0:0|0:0,0:0:0:0:
320,72,28580,1,0,0:0:0:0:
184,64,28784,2,0,L|112:112,1,75,4|0,0:3|0:0,0:0:0:0:
80,216,29193,2,0,L|176:240,1,75,8|0,0:0|0:0,0:0:0:0:
240,336,29601,2,0,P|328:320|416:344,1,150,4|8,0:3|0:0,0:0:0:0:
400,192,30213,1,0,0:0:0:0:
400,64,30417,2,0,P|360:72|304:56,1,75,4|2,0:3|0:0,0:0:0:0:
296,48,30723,5,0,0:0:0:0:
256,40,30825,2,0,P|208:40|168:72,1,75,10|0,0:0|0:0,0:0:0:0:
88,112,31233,2,0,P|72:160|120:256,1,150,4|8,0:0|0:0,0:0:0:0:
192,320,31846,1,0,0:0:0:0:
192,320,32050,2,0,L|288:320,1,75,4|0,0:0|0:0,0:0:0:0:
376,264,32458,2,0,P|384:208|360:176,1,75,8|0,0:0|0:0,0:0:0:0:
328,104,32866,6,0,L|360:64,2,37.5,4|0|8,0:3|0:0|0:0,0:0:0:0:
209,66,33274,2,0,L|224:32,2,37.5,0|0|8,0:0|0:0|0:0,0:0:0:0:
88,104,33682,1,4,0:3:0:0:
72,136,33784,1,0,0:0:0:0:
80,176,33886,1,8,0:0:0:0:
64,264,34091,2,0,P|112:312|144:312,1,75,0|8,0:0|0:0,0:0:0:0:
152,320,34397,1,0,0:0:0:0:
192,320,34499,6,0,L|352:320,1,150,4|10,0:0|0:0,0:0:0:0:
400,200,35111,1,0,0:0:0:0:
408,88,35315,2,0,L|248:88,1,150,10|10,0:0|0:0,0:0:0:0:
192,120,35927,1,0,0:0:0:0:
192,120,36029,1,0,0:0:0:0:
192,120,36131,6,0,P|192:176|208:280,1,150,10|10,0:0|0:0,0:0:0:0:
256,328,36744,1,0,0:0:0:0:
256,328,36948,2,0,L|360:304,1,75,10|0,0:0|0:0,0:0:0:0:
432,264,37356,2,0,P|408:184|344:128,1,150,10|10,0:0|0:0,0:0:0:0:
256,128,37968,1,0,0:0:0:0:
168,56,38172,6,0,P|112:96|112:120,1,75,10|0,0:0|0:0,0:0:0:0:
160,176,38580,2,0,P|168:224|136:256,2,75,10|0|10,0:0|0:0|0:0,0:0:0:0:
64,288,39193,1,0,0:0:0:0:
64,288,39295,1,0,0:0:0:0:
64,288,39397,2,0,L|208:328,1,150,10|10,0:0|0:0,0:0:0:0:
280,328,40009,1,0,0:0:0:0:
352,320,40213,6,0,P|384:280|384:248,1,75,10|0,0:0|0:0,0:0:0:0:
424,120,40621,2,0,P|397:145|390:182,1,75,10|0,0:0|0:0,0:0:0:0:
360,208,40927,1,0,0:0:0:0:
320,200,41029,2,0,P|272:192|160:216,1,150,10|10,0:0|0:0,0:0:0:0:
88,168,41642,1,0,0:0:0:0:
120,72,41846,2,0,P|184:64|216:72,1,75,10|0,0:0|0:0,0:0:0:0:
306,147,42254,2,0,P|269:152|232:152,1,75,10|0,0:0|0:0,0:0:0:0:
192,160,42560,1,0,0:0:0:0:
160,184,42662,6,0,P|136:256|176:336,1,150,10|10,0:0|0:0,0:0:0:0:
256,336,43274,1,0,0:0:0:0:
376,336,43478,2,0,L|384:256,1,75,10|0,0:0|0:0,0:0:0:0:
456,256,43886,2,0,L|448:176,1,75,10|0,0:0|0:0,0:0:0:0:
376,152,44295,2,0,P|392:72|344:16,1,150,10|10,0:0|0:0,0:0:0:0:
272,104,44907,1,0,0:0:0:0:
184,48,45111,2,0,P|152:88|168:184,1,150,10|10,0:0|0:0,0:0:0:0:
96,256,45723,1,0,0:0:0:0:
96,256,45927,6,0,L|232:336,1,150,10|10,0:0|0:0,0:0:0:0:
376,328,46744,2,0,B|400:256|416:256|416:256|392:160,1,150,10|10,0:0|0:0,0:0:0:0:
400,152,47254,1,0,0:0:0:0:
392,112,47356,2,0,L|352:80,1,37.5,2|0,0:0|0:0,0:0:0:0:
328,72,47560,2,0,L|168:88,1,150,10|10,0:0|0:0,0:0:0:0:
112,152,48172,1,0,0:0:0:0:
112,152,48376,2,8,B|104:208|112:240|112:240|72:320,1,150,10|10,0:0|0:0,0:0:0:0:
160,320,48989,2,0,L|248:336,1,75,2|10,0:0|0:0,0:0:0:0:
328,328,49397,6,0,P|384:296|408:272,1,75,0|8,0:0|0:0,0:0:0:0:
400,184,49805,2,0,P|400:128|376:96,1,75,0|4,0:0|0:3,0:0:0:0:
320,40,50213,2,0,P|272:80|256:104,1,75,0|8,0:0|0:0,0:0:0:0:
160,80,50621,2,0,P|120:112|112:136,1,75,0|4,0:0|0:3,0:0:0:0:
104,168,50927,1,0,0:0:0:0:
112,200,51029,1,0,0:0:0:0:
112,304,51233,5,8,0:0:0:0:
208,328,51437,2,0,L|288:320,1,75,0|4,0:0|0:3,0:0:0:0:
384,352,51846,1,2,0:0:0:0:
384,352,52050,2,0,L|400:264,1,75,10|2,0:0|0:0,0:0:0:0:
440,160,52458,2,0,P|392:144|312:208,1,150,6|8,0:0|0:0,0:0:0:0:
224,144,53070,1,0,0:0:0:0:
144,184,53274,2,0,P|136:248|160:272,1,75,4|0,0:3|0:0,0:0:0:0:
208,304,53682,5,8,0:0:0:0:
280,256,53886,2,0,P|320:272|352:272,1,75,0|4,0:0|0:3,0:0:0:0:
416,176,54295,2,0,P|432:104|432:96,1,75,0|8,0:0|0:0,0:0:0:0:
304,104,54703,1,0,0:0:0:0:
304,104,54805,1,0,0:0:0:0:
304,104,54907,2,0,L|216:104,1,75,4|2,0:3|0:0,0:0:0:0:
144,56,55315,2,0,P|104:96|112:136,2,75,10|2|6,0:0|0:0|0:0,0:0:0:0:
144,216,55927,6,0,P|136:280|152:320,1,75,0|8,0:0|0:0,0:0:0:0:
232,328,56335,1,0,0:0:0:0:
232,328,56540,2,0,P|304:328|328:336,1,75,4|0,0:3|0:0,0:0:0:0:
400,280,56948,1,8,0:0:0:0:
416,192,57152,1,0,0:0:0:0:
416,192,57254,1,0,0:0:0:0:
416,192,57356,2,0,B|392:144|400:112|400:112|336:64,1,150,4|8,0:3|0:0,0:0:0:0:
224,32,57968,2,0,P|176:96|176:184,1,150,0|2,0:0|0:0,0:0:0:0:
120,256,58580,5,10,0:0:0:0:
216,312,58784,1,2,0:0:0:0:
312,256,58989,1,6,0:0:0:0:
208,176,59193,1,0,0:0:0:0:
208,176,59295,1,0,0:0:0:0:
208,176,59397,2,0,P|184:136|192:88,1,75,8|0,0:0|0:0,0:0:0:0:
296,48,59805,2,0,L|376:80,1,75,4|0,0:3|0:0,0:0:0:0:
424,168,60213,6,0,L|448:240,1,75,8|0,0:0|0:0,0:0:0:0:
400,328,60621,2,0,L|352:256,1,75,4|0,0:3|0:0,0:0:0:0:
320,256,60927,1,0,0:0:0:0:
288,240,61029,2,0,L|192:248,1,75,8|0,0:0|0:0,0:0:0:0:
144,160,61437,2,0,L|80:136,2,37.5,4|0|0,0:3|0:0|0:0,0:0:0:0:
120,280,61846,2,0,L|112:328,2,37.5,8|0|0,0:0|0:0|0:0,0:0:0:0:
224,240,62254,6,0,P|296:216|376:280,1,150,4|8,0:0|0:0,0:0:0:0:
416,120,63070,2,0,B|368:120|336:80|336:80|288:112,1,150,4|8,0:3|0:0,0:0:0:0:
136,96,63886,2,0,L|120:176,1,75,4|0,0:3|0:0,0:0:0:0:
64,224,64295,2,0,L|96:304,1,75,8|0,0:0|0:0,0:0:0:0:
128,312,64601,1,0,0:0:0:0:
168,320,64703,2,0,P|216:320|336:352,1,150,4|8,0:3|0:0,0:0:0:0:
448,272,65519,6,0,P|440:200|456:112,1,150,4|8,0:0|0:0,0:0:0:0:
272,64,66335,2,0,B|216:88|176:80|176:80|144:32,1,150,4|8,0:3|0:0,0:0:0:0:
104,184,67152,2,0,P|112:232|200:296,1,150,4|8,0:3|0:0,0:0:0:0:
296,328,67764,2,0,L|384:328,1,75,0|4,0:0|0:3,0:0:0:0:
400,224,68172,2,0,L|360:176,2,37.5,0|0|8,0:0|0:0|0:0,0:0:0:0:
396,106,68580,2,0,L|432:120,2,37.5,0|0|4,0:0|0:0|0:0,0:0:0:0:
256,56,69193,6,0,P|176:80|80:80,1,150,8|4,0:0|0:3,0:0:0:0:
72,208,69805,1,0,0:0:0:0:
128,296,70009,2,0,P|192:320|224:320,2,75,8|0|4,0:0|0:0|0:3,0:0:0:0:
72,208,70621,1,0,0:0:0:0:
80,176,70723,1,0,0:0:0:0:
96,144,70825,2,0,B|160:128|176:96|176:96|256:96,1,150,8|4,0:0|0:3,0:0:0:0:
336,200,71642,6,0,P|328:280|392:328,1,150,8|4,0:0|0:0,0:0:0:0:
408,176,72458,2,0,P|424:104|376:40,1,150,8|4,0:0|0:3,0:0:0:0:
216,144,73274,2,0,P|144:160|88:96,1,150,8|4,0:0|0:0,0:0:0:0:
80,232,73886,2,0,L|120:280,1,37.5,2|2,0:0|0:0,0:0:0:0:
184,328,74295,1,2,0:0:0:0:
408,272,74703,2,0,P|408:232|384:200,1,75,2|2,0:0|0:0,0:0:0:0:
376,96,75111,1,0,0:0:0:0:
264,112,75315,6,0,L|168:128,1,75,4|0,0:0|0:0,0:0:0:0:
128,48,75723,2,0,P|96:80|96:128,1,75,8|0,0:0|0:0,0:0:0:0:
56,200,76131,2,0,P|96:256|104:272,1,75,4|0,0:3|0:0,0:0:0:0:
176,336,76540,2,0,P|216:344|264:336,1,75,8|0,0:0|0:0,0:0:0:0:
288,336,76846,1,0,0:0:0:0:
320,320,76948,2,0,P|320:272|344:160,1,150,4|8,0:3|0:0,0:0:0:0:
304,40,77560,6,0,P|248:40|176:104,1,150
104,120,78172,2,0,L|120:208,1,75,8|0,0:0|0:0,0:0:0:0:
88,264,78580,2,0,P|136:304|224:320,1,150,4|8,0:0|0:0,0:0:0:0:
312,336,79193,1,0,0:0:0:0:
408,328,79397,2,0,P|432:280|472:256,1,75,4|0,0:3|0:0,0:0:0:0:
480,176,79805,2,0,P|464:120|448:104,1,75,8|0,0:0|0:0,0:0:0:0:
384,184,80213,2,0,P|344:176|296:192,1,75,4|0,0:3|0:0,0:0:0:0:
288,88,80621,6,0,P|240:104|200:200,1,150,8|4,0:0|0:3,0:0:0:0:
344,224,81437,2,0,P|368:304|312:336,1,150,8|4,0:0|0:0,0:0:0:0:
224,336,82050,1,0,0:0:0:0:
184,248,82254,2,0,B|128:256|112:280|112:280|88:296,1,75,8|0,0:0|0:0,0:0:0:0:
88,192,82662,2,0,P|80:136|144:40,1,150,4|8,0:3|0:0,0:0:0:0:
192,120,83274,1,0,0:0:0:0:
192,120,83478,2,0,P|256:128|288:112,2,75,4|0|8,0:3|0:0|0:0,0:0:0:0:
96,224,84091,6,0,P|128:288|216:328,1,150
232,336,84601,1,0,0:0:0:0:
264,344,84703,2,0,B|336:360|360:352|360:352|368:352,1,75,8|0,0:0|0:0,0:0:0:0:
464,328,85111,1,4,0:3:0:0:
392,264,85315,2,0,P|376:224|384:176,1,75,0|8,0:0|0:0,0:0:0:0:
464,144,85723,2,0,P|432:64|368:48,1,150
336,48,86233,1,0,0:0:0:0:
296,56,86335,2,0,L|208:80,1,75,8|4,0:0|0:3,0:0:0:0:
256,192,86744,12,0,87968,0:0:0:0:
